osu file format v14

[General]
AudioFilename: audio.mp3
AudioLeadIn: 0
PreviewTime: 70747
Countdown: 0
SampleSet: Soft
StackLeniency: 0.7
Mode: 0
LetterboxInBreaks: 0
WidescreenStoryboard: 0

[Editor]
Bookmarks: 43811,57724,85550,102941,116854,130767,158593,188159,191637,219463
DistanceSpacing: 1.9
BeatDivisor: 4
GridSize: 8
TimelineZoom: 2.659999

[Metadata]
Title:YES or YES
TitleUnicode:YES or YES
Artist:TWICE
ArtistUnicode:트와이스
Creator:iYiyo
Version:No Choice
Source:
Tags:k-pop kpop korean korea pop TheShadowOfDark Tatan Cloudchaser Irreversible Cris- [_L_u_k_a_s_] lukas sana jihyo dahyun nayeon jeongyeon chaeyoung momo mina tzuyu 나연 정연 모모 사나 지효 미나 다현 채영 쯔위
BeatmapID:1857506
BeatmapSetID:888676

[Difficulty]
HPDrainRate:5
CircleSize:4.2
OverallDifficulty:8
ApproachRate:9
SliderMultiplier:1.8
SliderTickRate:1

[Events]
//Background and Video events
0,0,"yes.jpg",0,0
Video,0,"Video+or+Video.mp4"
//Break Periods
2,188158,190690
//Storyboard Layer 0 (Background)
//Storyboard Layer 1 (Fail)
//Storyboard Layer 2 (Pass)
//Storyboard Layer 3 (Foreground)
//Storyboard Layer 4 (Overlay)
//Storyboard Sound Samples

[TimingPoints]
204,434.782608695652,4,2,1,40,1,0
10638,-100,4,2,1,50,0,0
15856,-76.9230769230769,4,2,1,70,0,1
21073,-50,4,2,1,70,0,1
22812,-76.9230769230769,4,2,1,70,0,1
29769,-100,4,2,1,50,0,0
40421,-100,4,2,1,5,0,0
40530,-100,4,2,1,50,0,0
40747,-100,4,2,1,5,0,0
40856,-100,4,2,1,50,0,0
41508,-100,4,2,1,50,0,0
69877,-100,4,2,1,5,0,0
70856,-100,4,2,1,50,0,0
71508,-71.4285714285714,4,2,1,70,0,1
76725,-50,4,2,1,70,0,1
78464,-71.4285714285714,4,2,1,70,0,1
99334,-100,4,2,1,50,0,0
142921,-100,4,2,1,5,0,0
143899,-100,4,2,1,50,0,0
144551,-71.4285714285714,4,2,1,70,0,1
149769,-50,4,2,1,70,0,1
151508,-71.4285714285714,4,2,1,70,0,1
172377,-333.333333333333,4,2,1,30,0,0
172486,-333.333333333333,4,2,1,5,0,0
174117,-50,4,2,1,40,0,0
177595,-100,4,2,1,40,0,0
191290,-100,4,2,1,50,0,0
193247,-66.6666666666667,4,2,1,50,0,0
193573,-66.6666666666667,4,2,1,5,0,0
193682,-66.6666666666667,4,2,1,50,0,0
194008,-66.6666666666667,4,2,1,5,0,0
194117,-66.6666666666667,4,2,1,50,0,0
194443,-66.6666666666667,4,2,1,5,0,0
194551,-66.6666666666667,4,2,1,50,0,0
194986,-100,4,2,1,50,0,0
196725,-66.6666666666667,4,2,1,50,0,0
197051,-66.6666666666667,4,2,1,5,0,0
197160,-66.6666666666667,4,2,1,50,0,0
197486,-66.6666666666667,4,2,1,5,0,0
197595,-66.6666666666667,4,2,1,50,0,0
197921,-66.6666666666667,4,2,1,5,0,0
198030,-66.6666666666667,4,2,1,50,0,0
198464,-100,4,2,1,50,0,0
200203,-66.6666666666667,4,2,1,50,0,0
200530,-66.6666666666667,4,2,1,5,0,0
200638,-66.6666666666667,4,2,1,50,0,0
200964,-66.6666666666667,4,2,1,5,0,0
201073,-66.6666666666667,4,2,1,50,0,0
201399,-66.6666666666667,4,2,1,5,0,0
201508,-66.6666666666667,4,2,1,50,0,0
201943,-100,4,2,1,50,0,0
205421,-71.4285714285714,4,2,1,70,0,1
210638,-50,4,2,1,70,0,1
212377,-71.4285714285714,4,2,1,70,0,1
233247,-100,4,2,1,50,0,0

[Colours]
Combo1 : 223,223,223
Combo2 : 255,0,0
Combo3 : 128,128,128
Combo4 : 255,148,40

[HitObjects]
439,187,204,6,0,B|325:135|325:135|314:153|314:153|344:166,1,180,2|8,3:0|0:0,0:0:0:0:
344,166,856,1,0,0:0:0:0:
157,61,1290,2,0,L|172:157,2,90,0|8|0,0:0|0:0|0:0,0:0:0:0:
129,50,1943,6,0,L|159:242,1,180,0|8,0:0|0:0,0:0:0:0:
156,227,2595,1,0,0:0:0:0:
261,146,2812,1,8,0:0:0:0:
381,173,3030,2,0,L|377:226,2,45,0|0|8,0:0|0:0|0:0,0:0:0:0:
486,92,3464,1,0,0:0:0:0:
442,260,3682,6,0,P|363:293|301:235,1,180,2|8,3:0|0:0,0:0:0:0:
301,235,4334,1,0,0:0:0:0:
194,46,4769,2,0,P|150:43|110:62,2,90,0|8|0,0:0|0:0|0:0,0:0:0:0:
489,120,5421,6,0,B|439:148|404:123|399:118|395:113|357:84|317:120,1,180,8|8,0:0|0:0,0:0:0:0:
320,118,6073,1,8,0:0:0:0:
251,212,6290,1,8,0:0:0:0:
169,115,6508,2,0,L|114:114,3,30,0|0|0|8,0:0|0:0|0:0|0:0,0:0:0:0:
85,215,6943,1,0,0:0:0:0:
85,215,7015,1,0,0:0:0:0:
85,215,7088,1,0,0:0:0:0:
85,215,7160,6,0,B|114:257|105:308|105:308|137:273|186:278,1,180,2|8,3:0|0:0,0:0:0:0:
284,329,7812,2,0,P|328:335|369:319,1,90,0|2,0:0|3:0,0:0:0:0:
440,225,8247,2,0,L|442:111,2,90,0|8|0,0:0|0:0|0:0,0:0:0:0:
229,206,8899,6,0,P|251:136|296:194,1,180,2|8,3:0|0:0,0:0:0:0:
227,329,9551,2,0,P|183:335|142:319,1,90,0|2,0:0|3:0,0:0:0:0:
55,226,9986,1,0,0:0:0:0:
42,109,10203,1,8,0:0:0:0:
152,68,10421,1,0,0:0:0:0:
328,159,10638,6,0,P|267:186|203:172,1,135,2|0,3:0|0:0,0:0:0:0:
166,161,11073,1,8,0:0:0:0:
313,314,11290,1,2,3:0:0:0:
77,222,11508,2,0,P|74:266|91:307,1,90,2|0,3:0|0:0,0:0:0:0:
202,359,11943,1,8,0:0:0:0:
260,149,12160,6,0,L|207:164,3,30,0|0|0|2,0:0|0:0|0:0|3:0,0:0:0:0:
495,255,12595,2,0,L|405:244,1,90,2|2,3:0|3:0,0:0:0:0:
245,284,13030,1,2,3:0:0:0:
239,120,13247,1,2,3:0:0:0:
204,116,13355,1,2,3:0:0:0:
174,135,13464,1,2,3:0:0:0:
163,169,13573,1,2,3:0:0:0:
175,202,13681,1,2,3:0:0:0:
187,235,13790,1,2,3:0:0:0:
176,269,13899,1,2,3:0:0:0:
146,288,14008,1,2,3:0:0:0:
146,288,14116,5,8,0:0:0:0:
146,288,14225,2,0,L|73:301,1,45,8|0,0:0|0:0,0:0:0:0:
0,171,14443,1,8,0:0:0:0:
0,171,14551,1,8,0:0:0:0:
0,171,14660,2,0,L|86:179,1,45,8|0,0:0|0:0,0:0:0:0:
151,42,14877,5,8,3:0:0:0:
187,68,14986,1,8,3:0:0:0:
230,64,15095,2,0,P|252:58|275:55,1,45,8|0,3:0|0:0,0:0:0:0:
427,48,15312,1,8,3:0:0:0:
467,65,15421,2,0,P|483:107|476:151,1,90,8|0,3:0|0:0,0:0:0:0:
446,321,15856,6,0,P|391:302|333:298,1,116.999994644165,4|0,0:0|0:0,0:0:0:0:
259,320,16182,1,0,0:0:0:0:
259,320,16290,2,0,P|228:335|203:339,1,58.4999973220826,8|0,0:0|0:0,0:0:0:0:
127,335,16508,2,0,L|137:204,1,116.999994644165,2|2,0:0|3:0,0:0:0:0:
59,295,16834,2,0,L|67:178,1,116.999994644165,2|0,0:0|0:0,0:0:0:0:
74,102,17160,2,0,L|179:161,1,116.999994644165,10|0,0:0|0:0,0:0:0:0:
410,35,17595,5,2,3:0:0:0:
457,93,17703,2,0,L|455:181,1,58.4999973220826,0|0,0:0|0:0,0:0:0:0:
381,172,17921,1,2,0:0:0:0:
334,230,18030,2,0,L|336:318,1,58.4999973220826,8|0,0:0|0:0,0:0:0:0:
393,338,18247,1,0,0:0:0:0:
102,349,18464,1,2,3:0:0:0:
55,291,18573,2,0,L|57:203,1,58.4999973220826,0|0,0:0|0:0,0:0:0:0:
131,212,18790,1,2,0:0:0:0:
178,154,18899,2,0,L|176:66,1,58.4999973220826,8|0,0:0|0:0,0:0:0:0:
119,46,19116,1,0,0:0:0:0:
365,225,19334,5,2,3:0:0:0:
457,94,19551,1,0,0:0:0:0:
306,155,19769,2,0,L|313:30,1,116.999994644165,8|0,0:0|0:0,0:0:0:0:
228,24,20095,1,0,0:0:0:0:
170,80,20203,2,0,L|177:196,1,116.999994644165,2|0,3:0|0:0,0:0:0:0:
298,333,20638,2,0,L|301:274,1,58.4999973220826,8|0,0:0|0:0,0:0:0:0:
400,120,20856,2,0,L|396:178,1,58.4999973220826,0|0,0:0|0:0,0:0:0:0:
286,253,21073,6,0,B|233:288|163:242|163:242|100:199|29:235,1,270,2|0,3:0|0:0,0:0:0:0:
32,252,21508,2,0,B|85:287|155:241|155:241|218:198|289:234,1,270,8|0,0:0|0:0,0:0:0:0:
286,253,21942,2,0,B|233:288|163:242|163:242|100:199|29:235,1,270,2|2,3:0|3:0,0:0:0:0:
32,252,22377,1,8,0:0:0:0:
164,66,22595,1,8,0:0:0:0:
393,246,22812,6,0,P|341:269|285:252,1,116.999994644165,4|0,0:0|0:0,0:0:0:0:
231,200,23138,1,0,0:0:0:0:
231,200,23247,2,0,P|202:205|176:218,1,58.4999973220826,8|0,0:0|0:0,0:0:0:0:
119,268,23464,2,0,P|85:221|80:163,1,116.999994644165,2|2,0:0|3:0,0:0:0:0:
4,154,23790,2,0,P|13:96|50:52,1,116.999994644165,2|0,0:0|0:0,0:0:0:0:
118,83,24117,2,0,P|172:103|231:91,1,116.999994644165,10|0,0:0|0:0,0:0:0:0:
460,265,24551,5,2,3:0:0:0:
410,323,24660,2,0,P|382:330|353:329,1,58.4999973220826,0|0,0:0|0:0,0:0:0:0:
291,285,24877,1,2,0:0:0:0:
222,251,24986,2,0,P|192:250|164:257,1,58.4999973220826,8|0,0:0|0:0,0:0:0:0:
127,324,25203,1,0,0:0:0:0:
21,92,25421,1,2,3:0:0:0:
70,150,25530,2,0,P|98:157|127:156,1,58.4999973220826,0|0,0:0|0:0,0:0:0:0:
190,112,25747,1,2,0:0:0:0:
259,78,25856,2,0,P|288:77|316:84,1,58.4999973220826,8|0,0:0|0:0,0:0:0:0:
354,151,26073,1,0,0:0:0:0:
127,324,26290,5,2,3:0:0:0:
339,261,26508,1,0,0:0:0:0:
339,261,26616,1,0,0:0:0:0:
339,261,26725,1,8,0:0:0:0:
140,170,26943,1,0,0:0:0:0:
398,331,27160,5,2,3:0:0:0:
426,281,27268,1,2,3:0:0:0:
420,224,27377,1,2,3:0:0:0:
381,182,27486,1,2,3:0:0:0:
324,171,27594,1,8,0:0:0:0:
271,195,27704,1,2,3:0:0:0:
215,184,27813,1,2,3:0:0:0:
176,141,27922,1,2,3:0:0:0:
195,41,28030,5,2,3:0:0:0:
231,70,28138,1,2,3:0:0:0:
244,115,28247,1,2,3:0:0:0:
227,160,28356,1,2,3:0:0:0:
189,191,28464,1,8,0:0:0:0:
178,237,28574,1,2,3:0:0:0:
196,281,28682,1,2,3:0:0:0:
226,318,28791,1,2,3:0:0:0:
333,353,28899,5,2,3:0:0:0:
350,286,29007,1,2,3:0:0:0:
342,217,29116,1,2,3:0:0:0:
311,155,29225,1,2,3:0:0:0:
259,110,29334,1,8,0:0:0:0:
194,85,29442,1,2,3:0:0:0:
125,86,29551,1,2,3:0:0:0:
61,111,29659,1,2,3:0:0:0:
10,158,29768,5,4,0:0:0:0:
110,335,29986,1,0,0:0:0:0:
224,170,30203,2,0,P|265:153|310:154,1,90,8|2,0:0|3:0,0:0:0:0:
410,263,30638,1,0,0:0:0:0:
254,357,30856,1,0,0:0:0:0:
214,185,31073,1,8,0:0:0:0:
390,274,31290,1,0,0:0:0:0:
121,298,31508,6,0,B|112:362|112:362|72:373,2,90,2|0|8,3:0|0:0|0:0,0:0:0:0:
154,120,32160,1,2,3:0:0:0:
343,205,32377,2,0,P|387:203|423:172,1,90
227,218,32812,2,0,P|229:262|260:298,1,90,8|0,0:0|0:0,0:0:0:0:
56,115,33247,5,2,3:0:0:0:
80,265,33464,1,0,0:0:0:0:
227,218,33682,1,8,0:0:0:0:
68,122,33899,1,2,3:0:0:0:
224,48,34117,1,0,0:0:0:0:
245,214,34334,1,0,0:0:0:0:
74,113,34552,1,8,0:0:0:0:
213,41,34769,1,0,0:0:0:0:
362,195,34986,6,0,P|404:207|448:201,1,90,2|0,3:0|0:0,0:0:0:0:
165,141,35421,1,8,0:0:0:0:
216,293,35638,1,2,3:0:0:0:
360,208,35856,1,0,0:0:0:0:
360,208,35964,2,0,P|371:165|364:121,1,90,2|0,3:0|0:0,0:0:0:0:
345,98,36290,1,8,0:0:0:0:
178,144,36508,1,2,3:0:0:0:
50,31,36725,5,2,3:0:0:0:
30,225,36943,1,0,0:0:0:0:
30,225,37051,1,0,0:0:0:0:
29,225,37160,2,0,P|71:211|116:215,1,90,8|2,0:0|3:0,0:0:0:0:
396,286,37595,2,0,P|353:299|308:295,1,90
159,148,38030,1,8,0:0:0:0:
197,323,38247,1,0,0:0:0:0:
341,209,38464,6,0,P|352:166|343:123,1,90,2|0,3:0|0:0,0:0:0:0:
163,34,38899,1,8,0:0:0:0:
188,184,39116,1,2,3:0:0:0:
86,292,39334,2,0,P|42:301|0:290,1,90
224,162,39769,1,8,0:0:0:0:
347,279,39986,1,0,0:0:0:0:
245,143,40203,6,0,P|234:100|241:56,1,90,2|0,3:0|0:0,0:0:0:0:
175,198,40530,2,0,P|168:242|179:285,1,90,2|0,3:0|0:0,0:0:0:0:
134,116,40856,2,0,P|65:86|71:160,1,180,2|0,3:0|0:0,0:0:0:0:
320,236,41508,1,8,0:0:0:0:
201,323,41943,5,2,3:0:0:0:
320,236,42160,1,0,0:0:0:0:
144,241,42377,1,8,0:0:0:0:
320,236,42594,1,2,3:0:0:0:
144,121,42812,1,0,0:0:0:0:
320,236,43029,1,0,0:0:0:0:
227,2,43247,1,8,0:0:0:0:
320,236,43464,1,2,3:0:0:0:
459,1,43682,5,4,0:0:0:0:
488,162,43899,1,0,0:0:0:0:
488,162,44008,1,0,0:0:0:0:
487,162,44117,2,0,P|442:167|399:149,1,90,8|0,0:0|0:0,0:0:0:0:
341,111,44443,1,2,3:0:0:0:
341,111,44551,1,0,0:0:0:0:
222,248,44769,1,2,3:0:0:0:
385,344,44986,1,8,0:0:0:0:
371,132,45203,1,0,0:0:0:0:
201,232,45421,6,0,P|157:223|113:234,2,90,2|0|8,3:0|0:0|0:0,0:0:0:0:
261,86,46073,1,0,0:0:0:0:
261,86,46182,2,0,P|304:94|348:83,1,90,2|0,3:0|0:0,0:0:0:0:
374,56,46508,1,2,3:0:0:0:
383,258,46725,1,8,0:0:0:0:
179,263,46943,1,0,0:0:0:0:
62,64,47160,6,0,P|105:52|148:65,1,90,2|0,3:0|0:0,0:0:0:0:
251,190,47595,1,8,0:0:0:0:
368,64,47812,1,0,0:0:0:0:
368,64,47921,2,0,P|410:52|453:63,1,90,2|0,3:0|0:0,0:0:0:0:
479,94,48247,1,2,3:0:0:0:
418,266,48464,1,8,0:0:0:0:
251,190,48682,1,0,0:0:0:0:
110,320,48899,6,0,L|215:303,1,90,2|0,3:0|0:0,0:0:0:0:
414,291,49334,2,0,L|309:274,1,90,8|0,0:0|0:0,0:0:0:0:
131,130,49769,1,2,3:0:0:0:
346,174,49986,1,0,0:0:0:0:
97,132,50203,2,0,P|96:79|130:119,1,135,8|0,0:0|0:0,0:0:0:0:
7,225,50638,6,0,L|-1:135,1,90,2|0,3:0|0:0,0:0:0:0:
214,35,51073,1,8,0:0:0:0:
246,64,51181,1,0,0:0:0:0:
290,72,51290,1,0,0:0:0:0:
331,56,51399,1,2,3:0:0:0:
357,20,51507,1,0,0:0:0:0:
427,212,51725,1,2,3:0:0:0:
212,187,51943,2,0,P|197:238|240:208,1,135,8|0,0:0|0:0,0:0:0:0:
148,72,52377,6,0,L|107:166,1,90,2|0,3:0|0:0,0:0:0:0:
56,289,52812,1,8,0:0:0:0:
26,255,52920,1,0,0:0:0:0:
18,211,53029,1,0,0:0:0:0:
34,170,53138,1,2,3:0:0:0:
68,142,53246,1,0,0:0:0:0:
217,28,53464,1,2,3:0:0:0:
217,28,53573,1,0,0:0:0:0:
217,28,53682,1,8,0:0:0:0:
281,192,53899,1,0,0:0:0:0:
68,142,54117,6,0,P|71:186|94:224,1,90,2|0,3:0|0:0,0:0:0:0:
33,292,54443,2,0,P|65:321|109:331,1,90,2|0,3:0|0:0,0:0:0:0:
244,340,54769,2,0,B|212:291|253:235|253:235|290:187|260:129,1,225,2|0,3:0|0:0,0:0:0:0:
237,111,55421,1,8,0:0:0:0:
359,11,55638,2,0,P|402:-1|444:13,1,90,0|2,0:0|3:0,0:0:0:0:
423,262,56073,5,2,3:0:0:0:
146,232,56290,1,2,3:0:0:0:
400,73,56508,5,2,3:0:0:0:
247,339,56725,1,2,3:0:0:0:
111,123,56943,5,2,3:0:0:0:
440,158,57160,1,8,0:0:0:0:
424,182,57595,6,0,P|382:166|338:174,1,90,4|0,0:0|0:0,0:0:0:0:
265,154,57921,1,8,0:1:0:0:
265,154,58030,1,8,0:1:0:0:
322,308,58247,1,8,0:1:0:0:
265,154,58464,1,2,3:0:0:0:
228,131,58572,1,8,0:1:0:0:
183,127,58681,1,8,0:1:0:0:
142,144,58790,1,8,0:1:0:0:
113,178,58899,1,8,0:1:0:0:
193,348,59117,1,8,0:1:0:0:
286,273,59334,6,0,L|271:184,1,90,2|0,3:0|0:0,0:0:0:0:
315,118,59660,1,8,0:1:0:0:
315,118,59769,1,8,0:1:0:0:
130,41,59986,1,8,0:1:0:0:
169,189,60203,1,2,3:0:0:0:
169,189,60312,1,8,0:1:0:0:
169,189,60421,1,8,0:1:0:0:
208,337,60638,1,8,0:1:0:0:
23,260,60856,1,8,0:1:0:0:
179,176,61073,6,0,P|223:169|265:183,1,90,2|0,3:0|0:0,0:0:0:0:
340,200,61399,1,8,0:1:0:0:
340,200,61508,1,8,0:1:0:0:
386,357,61725,1,8,0:1:0:0:
340,200,61943,1,2,3:0:0:0:
363,161,62051,1,8,0:1:0:0:
401,139,62160,1,8,0:1:0:0:
445,137,62269,1,8,0:1:0:0:
486,156,62377,1,8,0:1:0:0:
467,326,62595,1,8,0:1:0:0:
313,308,62812,6,0,L|326:200,1,90,2|0,3:0|0:0,0:0:0:0:
266,171,63138,1,8,0:1:0:0:
266,171,63247,1,8,0:1:0:0:
77,202,63464,1,8,0:1:0:0:
148,44,63682,1,2,3:0:0:0:
148,44,63790,1,8,0:1:0:0:
148,44,63899,1,8,0:1:0:0:
266,171,64116,2,0,P|309:183|351:169,1,90,8|8,0:1|0:1,0:0:0:0:
437,47,64551,6,0,L|453:146,1,90,2|0,3:0|0:0,0:0:0:0:
69,47,64986,2,0,L|53:146,1,90,2|0,3:0|0:0,0:0:0:0:
437,337,65421,2,0,L|453:238,1,90,2|0,3:0|0:0,0:0:0:0:
69,337,65856,2,0,L|53:238,1,90,2|0,3:0|0:0,0:0:0:0:
209,78,66290,5,2,3:0:0:0:
209,336,66508,1,2,3:0:0:0:
109,97,66725,5,2,3:0:0:0:
109,355,66943,1,2,3:0:0:0:
303,78,67160,5,2,3:0:0:0:
303,336,67378,1,2,3:0:0:0:
403,97,67595,5,2,3:0:0:0:
403,355,67813,1,2,3:0:0:0:
254,47,68029,5,8,0:0:0:0:
216,71,68138,1,8,0:0:0:0:
201,112,68247,1,8,0:0:0:0:
216,154,68356,1,8,0:0:0:0:
254,176,68464,1,8,0:0:0:0:
292,199,68573,1,8,0:0:0:0:
307,240,68682,1,8,0:0:0:0:
292,282,68791,1,8,0:0:0:0:
254,305,68899,2,0,L|246:277,7,22.5,8|0|8|0|8|0|8|0,0:0|0:0|0:0|0:0|0:0|0:0|0:0|0:0,0:0:0:0:
211,293,69334,2,0,L|203:265,7,22.5,8|0|8|0|8|0|8|0,0:0|0:0|0:0|0:0|0:0|0:0|0:0|0:0,0:0:0:0:
256,192,69769,12,0,70638,0:0:0:0:
391,106,70855,6,0,L|399:195,2,90,2|0|2,0:0|0:0|0:0,0:0:0:0:
316,292,71508,6,0,P|261:319|201:303,1,125.999996154785,4|0,0:0|0:0,0:0:0:0:
86,246,71834,1,0,0:0:0:0:
92,225,71942,2,0,P|146:197|206:213,1,125.999996154785,8|0,0:0|0:0,0:0:0:0:
399,353,72377,1,2,3:0:0:0:
417,149,72595,1,0,0:0:0:0:
225,228,72812,1,8,0:0:0:0:
111,52,73029,6,0,P|49:50|2:90,2,125.999996154785,0|2|0,0:0|3:0|0:0,0:0:0:0:
339,68,73682,2,0,P|291:107|230:106,1,125.999996154785,8|0,0:0|0:0,0:0:0:0:
79,133,74117,1,2,3:0:0:0:
341,95,74334,2,0,L|331:226,1,125.999996154785,0|8,0:0|0:0,0:0:0:0:
79,133,74769,5,0,0:0:0:0:
269,338,74986,1,2,3:0:0:0:
467,142,75203,1,0,0:0:0:0:
269,338,75421,1,8,0:0:0:0:
79,133,75638,1,0,0:0:0:0:
460,159,75856,2,0,P|409:193|349:179,1,125.999996154785,2|0,3:0|0:0,0:0:0:0:
79,133,76290,2,0,P|109:143|146:133,1,62.9999980773926,8|0,0:0|0:0,0:0:0:0:
294,70,76508,2,0,P|264:60|227:70,1,62.9999980773926
88,298,76725,6,0,B|141:350|214:325|214:325|262:260|328:272,1,270,2|0,3:0|0:0,0:0:0:0:
424,298,77160,2,0,B|371:350|298:325|298:325|250:260|184:272,1,270,8|0,0:0|0:0,0:0:0:0:
88,298,77595,2,0,B|141:350|214:325|214:325|262:260|328:272,1,270,2|2,3:0|3:0,0:0:0:0:
328,272,78030,1,8,0:0:0:0:
409,62,78247,1,8,0:0:0:0:
61,82,78464,6,0,P|110:117|169:102,1,125.999996154785,2|0,3:0|0:0,0:0:0:0:
258,20,78790,1,0,0:0:0:0:
279,27,78899,2,0,P|314:76|299:135,1,125.999996154785,8|0,0:0|0:0,0:0:0:0:
124,238,79334,1,2,3:0:0:0:
280,364,79551,1,0,0:0:0:0:
328,167,79769,1,8,0:0:0:0:
130,264,79986,6,0,P|186:287|244:264,2,125.999996154785,0|2|0,0:0|3:0|0:0,0:0:0:0:
270,103,80638,2,0,P|327:80|384:103,1,125.999996154785,8|0,0:0|0:0,0:0:0:0:
470,268,81073,1,2,3:0:0:0:
247,114,81290,2,0,L|236:248,1,125.999996154785,0|8,0:0|0:0,0:0:0:0:
81,340,81725,1,0,0:0:0:0:
51,142,81943,5,2,3:0:0:0:
303,310,82160,1,0,0:0:0:0:
303,310,82269,1,0,0:0:0:0:
303,310,82377,1,8,0:0:0:0:
64,241,82595,1,0,0:0:0:0:
186,95,82812,5,2,3:0:0:0:
214,121,82920,1,2,3:0:0:0:
252,133,83029,1,2,3:0:0:0:
291,128,83138,1,2,3:0:0:0:
323,105,83246,1,8,0:0:0:0:
355,82,83356,1,2,3:0:0:0:
394,77,83465,1,2,3:0:0:0:
432,89,83574,1,2,3:0:0:0:
424,195,83682,5,2,3:0:0:0:
377,217,83790,1,2,3:0:0:0:
327,220,83899,1,2,3:0:0:0:
280,206,84008,1,2,3:0:0:0:
241,174,84116,1,8,0:0:0:0:
202,142,84225,1,2,3:0:0:0:
155,128,84334,1,2,3:0:0:0:
105,131,84442,1,2,3:0:0:0:
24,212,84551,5,2,3:0:0:0:
83,260,84659,1,2,3:0:0:0:
162,266,84768,1,2,3:0:0:0:
229,225,84877,1,2,3:0:0:0:
258,153,84987,1,8,0:0:0:0:
287,80,85095,1,2,3:0:0:0:
354,39,85204,1,2,3:0:0:0:
432,45,85313,1,2,3:0:0:0:
492,93,85421,6,0,P|437:129|372:125,1,125.999996154785,4|0,0:0|0:0,0:0:0:0:
261,28,85747,1,2,0:0:0:0:
193,84,85855,2,0,P|138:47|73:51,1,125.999996154785,8|0,0:0|0:0,0:0:0:0:
277,108,86290,1,2,3:0:0:0:
126,312,86508,2,0,L|101:189,2,125.999996154785,0|8|0,0:0|0:0|0:0,0:0:0:0:
277,108,87160,6,0,L|302:231,1,125.999996154785,2|0,3:0|0:0,0:0:0:0:
369,120,87486,1,2,0:0:0:0:
406,197,87595,2,0,L|380:320,1,125.999996154785,8|0,0:0|0:0,0:0:0:0:
332,43,88030,1,2,3:0:0:0:
167,238,88247,1,0,0:0:0:0:
167,238,88356,1,0,0:0:0:0:
167,238,88464,1,8,0:0:0:0:
192,30,88682,2,0,P|203:59|200:90,1,62.9999980773926
145,334,88899,6,0,P|119:277|134:217,1,125.999996154785,2|0,3:0|0:0,0:0:0:0:
253,154,89225,1,2,0:0:0:0:
324,190,89334,2,0,P|349:246|334:306,1,125.999996154785,8|0,0:0|0:0,0:0:0:0:
145,334,89769,1,2,3:0:0:0:
14,167,89986,2,0,L|151:184,2,125.999996154785,0|8|0,0:0|0:0|0:0,0:0:0:0:
270,349,90638,6,0,L|144:333,1,125.999996154785,2|0,3:0|0:0,0:0:0:0:
2,306,90964,1,2,0:0:0:0:
65,248,91073,2,0,L|190:263,1,125.999996154785,8|0,0:0|0:0,0:0:0:0:
389,128,91508,1,2,3:0:0:0:
152,45,91725,1,0,0:0:0:0:
152,45,91834,1,0,0:0:0:0:
152,45,91943,1,8,0:0:0:0:
3,243,92160,2,0,P|33:252|65:248,1,62.9999980773926,8|0,0:0|0:0,0:0:0:0:
214,158,92377,6,0,P|271:134|333:167,1,125.999996154785,2|0,3:0|0:0,0:0:0:0:
382,214,92703,2,0,P|324:237|263:205,1,125.999996154785,2|0,3:0|0:0,0:0:0:0:
399,140,93029,1,0,0:0:0:0:
93,41,93247,2,0,L|112:174,1,125.999996154785,2|0,3:0|0:0,0:0:0:0:
42,225,93573,2,0,L|25:101,1,125.999996154785,2|0,3:0|0:0,0:0:0:0:
174,57,93899,1,0,0:0:0:0:
221,275,94117,6,0,P|278:298|340:266,1,125.999996154785,2|0,3:0|0:0,0:0:0:0:
389,219,94443,2,0,P|331:195|270:228,1,125.999996154785,2|0,3:0|0:0,0:0:0:0:
406,293,94770,1,0,0:0:0:0:
126,140,94986,2,0,L|107:273,1,125.999996154785,2|0,3:0|0:0,0:0:0:0:
176,324,95312,2,0,L|193:199,1,125.999996154785,2|0,3:0|0:0,0:0:0:0:
45,156,95638,1,0,0:0:0:0:
258,43,95856,6,0,P|318:27|378:63,1,125.999996154785,2|0,3:0|0:0,0:0:0:0:
379,225,96182,1,2,0:0:0:0:
299,238,96290,2,0,L|309:113,1,125.999996154785,8|0,0:0|0:0,0:0:0:0:
172,72,96725,2,0,L|178:146,3,62.9999980773926,2|2|2|2,3:0|3:0|3:0|3:0,0:0:0:0:
93,119,97160,2,0,L|99:193,3,62.9999980773926,8|2|2|2,0:0|3:0|3:0|3:0,0:0:0:0:
27,253,97595,5,2,3:0:0:0:
59,293,97703,1,2,3:0:0:0:
110,309,97812,1,2,3:0:0:0:
162,295,97921,1,2,3:0:0:0:
198,254,98029,1,8,0:0:0:0:
233,214,98138,1,2,3:0:0:0:
284,200,98247,1,2,3:0:0:0:
336,216,98356,1,2,3:0:0:0:
414,280,98464,5,2,3:0:0:0:
360,326,98572,1,2,3:0:0:0:
292,347,98681,1,2,3:0:0:0:
220,336,98790,1,2,3:0:0:0:
162,295,98899,1,8,0:0:0:0:
128,230,99008,1,2,3:0:0:0:
123,159,99117,1,2,3:0:0:0:
150,93,99226,1,2,3:0:0:0:
203,44,99334,1,0,0:0:0:0:
255,189,101073,5,2,3:0:0:0:
383,91,101725,2,0,B|420:211|420:211|364:231|372:287,1,225,2|0,3:0|0:0,0:0:0:0:
325,342,102377,1,2,3:0:0:0:
217,294,102595,1,2,3:0:0:0:
109,246,102812,6,0,L|111:144,1,90,2|0,3:0|0:0,0:0:0:0:
219,113,103247,2,0,L|221:11,1,90,8|2,0:0|3:0,0:0:0:0:
325,342,103682,1,8,0:1:0:0:
325,252,103899,1,0,0:0:0:0:
327,162,104117,1,8,0:1:0:0:
91,253,104551,6,0,L|93:151,1,90,2|0,3:0|0:0,0:0:0:0:
201,120,104986,2,0,L|203:18,1,90,8|2,0:0|3:0,0:0:0:0:
307,349,105421,1,8,0:1:0:0:
307,259,105638,1,0,0:0:0:0:
309,169,105855,1,8,0:1:0:0:
53,143,106290,6,0,P|94:158|137:147,1,90,2|0,3:0|0:0,0:0:0:0:
225,69,106725,2,0,P|268:58|309:73,1,90,8|2,0:0|3:0,0:0:0:0:
479,170,107160,1,8,0:1:0:0:
380,233,107377,1,0,0:0:0:0:
272,186,107595,2,0,P|228:175|187:190,1,90,8|0,0:1|0:0,0:0:0:0:
44,328,108030,5,2,3:0:0:0:
164,306,108247,1,0,0:0:0:0:
268,357,108464,2,0,L|281:256,1,90,8|2,0:0|3:0,0:0:0:0:
125,212,108899,2,0,L|136:301,1,90,8|0,0:1|0:0,0:0:0:0:
20,332,109334,1,8,0:1:0:0:
68,141,109551,2,0,P|111:122|157:127,1,90,0|2,0:0|3:0,0:0:0:0:
389,208,109986,5,0,0:0:0:0:
286,263,110203,1,8,0:0:0:0:
186,200,110421,1,2,3:0:0:0:
80,250,110638,2,0,L|97:349,1,90,8|0,0:1|0:0,0:0:0:0:
22,334,110964,2,0,L|14:289,1,45,0|8,0:0|0:0,0:0:0:0:
55,174,111182,1,0,0:0:0:0:
55,174,111290,2,0,L|99:166,1,45
299,40,111508,5,2,3:0:0:0:
360,139,111725,1,0,0:0:0:0:
310,245,111943,1,8,0:0:0:0:
414,296,112160,1,2,3:0:0:0:
322,368,112377,2,0,L|223:357,1,90,8|0,0:1|0:0,0:0:0:0:
194,299,112703,2,0,L|149:303,1,45,0|8,0:0|0:0,0:0:0:0:
69,299,112921,1,0,0:0:0:0:
69,299,113030,2,0,L|73:343,1,45,0|0,0:0|0:0,0:0:0:0:
27,139,113247,5,2,3:0:0:0:
149,209,113464,1,0,0:0:0:0:
149,209,113574,1,0,0:0:0:0:
149,209,113682,2,0,L|193:204,1,45,8|0,0:0|0:0,0:0:0:0:
246,264,113899,2,0,L|284:240,1,45,2|0,3:0|0:0,0:0:0:0:
357,272,114117,2,0,L|382:234,1,45,8|0,0:1|0:0,0:0:0:0:
460,232,114334,1,0,0:0:0:0:
460,232,114442,2,0,L|466:186,1,45,0|8,0:0|0:0,0:0:0:0:
376,41,114660,1,0,0:0:0:0:
376,41,114769,2,0,L|381:102,1,45
284,239,114986,5,2,3:0:0:0:
147,47,115203,1,0,0:0:0:0:
147,47,115312,1,0,0:0:0:0:
147,46,115421,2,0,P|139:67|140:90,1,45,8|0,0:0|0:0,0:0:0:0:
207,148,115638,2,0,P|207:170|199:191,1,45
110,169,115856,2,0,P|102:190|103:213,1,45,8|0,0:0|0:0,0:0:0:0:
269,226,116073,2,0,P|269:248|261:269,1,45
27,257,116290,2,0,P|28:279|39:299,1,45,8|0,0:0|0:0,0:0:0:0:
330,316,116508,2,0,P|321:336|305:352,1,45
111,364,116725,1,4,0:0:0:0:
330,74,116942,6,0,P|351:68|373:73,1,45
393,97,117160,2,0,P|384:141|387:186,1,90
381,269,117486,1,2,3:0:0:0:
381,269,117595,2,0,P|402:265|425:267,2,45,0|0|2,0:0|0:0|3:0,0:0:0:0:
236,276,118030,2,0,P|191:275|152:295,1,90
72,102,118464,6,0,L|66:191,2,90,2|0|0,3:0|0:0|0:0,0:0:0:0:
188,31,119117,1,0,0:0:0:0:
188,31,119225,1,2,3:0:0:0:
188,31,119334,2,0,P|210:34|232:35,1,45,8|0,0:1|0:0,0:0:0:0:
286,95,119551,2,0,P|308:91|330:90,1,45,2|0,3:0|0:0,0:0:0:0:
390,34,119769,1,0,0:0:0:0:
449,159,119986,1,0,0:0:0:0:
396,282,120203,6,0,P|354:268|310:271,2,90,2|0|0,3:0|0:0|0:0,0:0:0:0:
254,149,120855,2,0,P|231:147|210:155,1,45,0|2,0:0|3:0,0:0:0:0:
197,196,121073,2,0,L|204:253,2,45,0|0|2,0:0|0:0|3:0,0:0:0:0:
132,333,121508,1,0,0:0:0:0:
27,218,121725,1,0,0:0:0:0:
108,87,121942,6,0,P|150:102|194:101,1,90,2|0,3:0|0:0,0:0:0:0:
332,43,122377,2,0,P|376:42|418:57,1,90,0|0,0:0|0:0,0:0:0:0:
444,76,122703,1,2,3:0:0:0:
457,108,122812,2,0,P|461:131|456:161,2,45,8|0|2,0:1|0:0|3:0,0:0:0:0:
76,139,123247,1,8,0:0:0:0:
63,70,123356,1,8,0:1:0:0:
125,39,123464,1,8,0:0:0:0:
173,88,123573,1,8,0:1:0:0:
141,147,123682,6,0,P|125:188|135:233,1,90,4|0,0:0|0:0,0:0:0:0:
423,108,124117,1,8,0:0:0:0:
443,148,124225,1,0,0:0:0:0:
451,192,124334,1,2,3:0:0:0:
447,236,124442,1,2,3:0:0:0:
432,278,124551,1,0,0:0:0:0:
322,352,124769,1,2,3:0:0:0:
193,307,124986,2,0,P|203:240|192:174,1,135,8|0,0:0|0:0,0:0:0:0:
129,146,125421,6,0,P|132:102|145:59,1,90,2|0,3:0|0:0,0:0:0:0:
423,108,125856,1,8,0:0:0:0:
443,148,125964,1,0,0:0:0:0:
451,192,126073,1,2,3:0:0:0:
447,236,126182,1,2,3:0:0:0:
432,278,126290,1,0,0:0:0:0:
322,352,126508,1,2,3:0:0:0:
271,227,126725,2,0,P|226:220|185:237,1,90,8|0,0:0|0:0,0:0:0:0:
73,348,127160,6,0,P|90:307|92:262,1,90,2|0,3:0|0:0,0:0:0:0:
117,172,127486,2,0,P|87:138|47:118,1,90,2|0,3:0|0:0,0:0:0:0:
234,33,127812,2,0,B|204:81|243:137|243:137|286:194|236:254,1,225,2|0,3:0|0:0,0:0:0:0:
217,241,128464,1,8,0:0:0:0:
292,349,128899,5,2,3:0:0:0:
378,73,129117,1,2,3:0:0:0:
147,166,129334,5,2,3:0:0:0:
441,221,129551,1,2,3:0:0:0:
143,321,129769,5,2,3:0:0:0:
229,45,129987,1,2,3:0:0:0:
292,349,130203,1,2,3:0:0:0:
377,335,130421,5,2,3:0:0:0:
462,321,130638,2,0,L|450:221,2,90,4|0|8,0:0|0:0|0:1,0:0:0:0:
377,335,131290,1,8,0:1:0:0:
299,223,131508,1,2,3:0:0:0:
254,218,131616,1,8,0:1:0:0:
209,214,131725,1,8,0:1:0:0:
164,210,131834,1,8,0:1:0:0:
119,205,131942,1,8,0:1:0:0:
49,89,132160,1,8,0:1:0:0:
180,57,132377,6,0,L|294:69,1,90,2|0,3:0|0:0,0:0:0:0:
334,29,132703,1,8,0:1:0:0:
334,29,132812,1,8,0:1:0:0:
302,195,133030,1,8,0:1:0:0:
462,140,133247,1,2,3:0:0:0:
462,140,133356,1,8,0:1:0:0:
462,140,133465,1,8,0:1:0:0:
302,195,133682,1,8,0:1:0:0:
142,250,133899,1,8,0:1:0:0:
270,362,134117,6,0,P|313:371|356:359,1,90,2|0,3:0|0:0,0:0:0:0:
425,324,134443,1,8,0:1:0:0:
425,324,134551,1,8,0:1:0:0:
458,177,134769,1,8,0:1:0:0:
299,223,134986,1,2,3:0:0:0:
254,218,135094,1,8,0:1:0:0:
209,214,135203,1,8,0:1:0:0:
164,210,135312,1,8,0:1:0:0:
119,205,135420,1,8,0:1:0:0:
53,373,135638,1,8,0:1:0:0:
187,333,135855,6,0,L|168:231,1,90,2|0,3:0|0:0,0:0:0:0:
235,168,136182,1,8,0:1:0:0:
235,168,136290,1,8,0:1:0:0:
389,137,136508,1,8,0:1:0:0:
451,263,136725,1,2,3:0:0:0:
451,263,136834,1,8,0:1:0:0:
451,263,136943,1,8,0:1:0:0:
233,182,137160,1,8,0:1:0:0:
387,151,137378,1,8,0:1:0:0:
106,357,137595,6,0,P|89:316|94:272,1,90,2|0,3:0|0:0,0:0:0:0:
106,26,138030,2,0,P|89:67|94:111,1,90,2|0,3:0|0:0,0:0:0:0:
405,357,138464,2,0,P|422:316|417:272,1,90,2|0,3:0|0:0,0:0:0:0:
405,26,138899,2,0,P|422:67|417:111,1,90,2|0,3:0|0:0,0:0:0:0:
123,323,139334,5,2,3:0:0:0:
256,104,139551,1,2,3:0:0:0:
13,310,139769,5,2,3:0:0:0:
146,91,139986,1,2,3:0:0:0:
389,323,140203,5,2,3:0:0:0:
256,104,140420,1,2,3:0:0:0:
499,310,140638,5,2,3:0:0:0:
366,91,140855,1,2,3:0:0:0:
258,337,141073,5,8,0:0:0:0:
296,313,141181,1,8,0:0:0:0:
311,272,141290,1,8,0:0:0:0:
296,230,141399,1,8,0:0:0:0:
258,208,141507,1,8,0:0:0:0:
220,185,141616,1,8,0:0:0:0:
205,144,141725,1,8,0:0:0:0:
220,102,141834,1,8,0:0:0:0:
258,79,141942,2,0,L|266:107,7,22.5,8|0|8|0|8|0|8|0,0:0|0:0|0:0|0:0|0:0|0:0|0:0|0:0,0:0:0:0:
301,91,142377,2,0,L|309:119,7,22.5,8|0|8|0|8|0|8|0,0:0|0:0|0:0|0:0|0:0|0:0|0:0|0:0,0:0:0:0:
256,192,142812,12,0,143682,0:0:0:0:
398,270,143899,6,0,L|308:276,2,90,2|0|2,0:0|0:0|0:0,0:0:0:0:
276,105,144551,6,0,P|216:88|161:116,1,125.999996154785,4|0,0:0|0:0,0:0:0:0:
47,211,144877,1,0,0:0:0:0:
61,231,144986,2,0,P|116:258|175:242,1,125.999996154785,8|0,0:0|0:0,0:0:0:0:
417,116,145421,1,2,3:0:0:0:
224,177,145638,1,0,0:0:0:0:
378,314,145856,1,8,0:0:0:0:
135,342,146073,6,0,P|185:304|246:308,2,125.999996154785,0|2|0,0:0|3:0|0:0,0:0:0:0:
144,99,146725,2,0,P|140:160|177:209,1,125.999996154785,8|0,0:0|0:0,0:0:0:0:
388,111,147160,1,2,3:0:0:0:
135,74,147377,2,0,B|53:112|53:112|0:103,1,125.999996154785,0|8,0:0|0:0,0:0:0:0:
299,44,147812,5,0,0:0:0:0:
45,245,148030,1,2,3:0:0:0:
356,338,148247,1,0,0:0:0:0:
45,245,148464,1,8,0:0:0:0:
299,44,148682,1,0,0:0:0:0:
378,354,148899,2,0,P|406:299|391:239,1,125.999996154785,2|0,3:0|0:0,0:0:0:0:
128,182,149334,2,0,P|157:189|189:181,1,62.9999980773926,8|0,0:0|0:0,0:0:0:0:
337,128,149551,2,0,P|308:121|276:129,1,62.9999980773926
95,295,149769,6,0,B|152:326|152:326|211:293|211:293|273:261|273:261|332:297,1,270,2|0,3:0|0:0,0:0:0:0:
417,295,150203,2,0,B|360:326|360:326|301:293|301:293|239:261|239:261|180:297,1,270,8|0,0:0|0:0,0:0:0:0:
95,295,150638,2,0,B|152:326|152:326|211:293|211:293|273:261|273:261|332:297,1,270,2|2,3:0|3:0,0:0:0:0:
330,296,151073,1,8,0:0:0:0:
285,61,151290,1,8,0:0:0:0:
37,177,151508,6,0,P|92:204|151:187,1,125.999996154785,2|0,3:0|0:0,0:0:0:0:
264,246,151834,1,0,0:0:0:0:
279,229,151943,2,0,P|338:211|393:239,1,125.999996154785,8|0,0:0|0:0,0:0:0:0:
455,76,152377,1,2,3:0:0:0:
261,18,152595,1,0,0:0:0:0:
106,146,152812,1,8,0:0:0:0:
300,204,153029,6,0,P|317:264|289:319,2,125.999996154785,0|2|0,0:0|3:0|0:0,0:0:0:0:
85,49,153682,2,0,P|68:109|96:164,1,125.999996154785,8|0,0:0|0:0,0:0:0:0:
300,40,154116,1,2,3:0:0:0:
91,192,154334,2,0,B|82:290|82:290|112:320,1,125.999996154785,0|8,0:0|0:0,0:0:0:0:
310,363,154769,1,0,0:0:0:0:
206,125,154986,5,2,3:0:0:0:
461,271,155203,1,0,0:0:0:0:
461,271,155312,1,0,0:0:0:0:
461,271,155421,1,8,0:0:0:0:
178,285,155638,1,0,0:0:0:0:
351,65,155856,5,2,3:0:0:0:
381,44,155964,1,2,3:0:0:0:
415,59,156073,1,2,3:0:0:0:
419,96,156182,1,2,3:0:0:0:
391,119,156290,1,8,0:0:0:0:
356,106,156399,1,2,3:0:0:0:
319,94,156507,1,2,3:0:0:0:
281,100,156616,1,2,3:0:0:0:
180,117,156725,5,2,3:0:0:0:
189,167,156833,1,2,3:0:0:0:
223,205,156942,1,2,3:0:0:0:
271,222,157051,1,2,3:0:0:0:
321,212,157159,1,8,0:0:0:0:
371,202,157269,1,2,3:0:0:0:
419,219,157378,1,2,3:0:0:0:
453,257,157487,1,2,3:0:0:0:
415,361,157595,5,2,3:0:0:0:
338,379,157703,1,2,3:0:0:0:
261,367,157812,1,2,3:0:0:0:
195,324,157921,1,2,3:0:0:0:
151,259,158029,1,8,0:0:0:0:
136,181,158138,1,2,3:0:0:0:
154,104,158247,1,2,3:0:0:0:
200,42,158355,1,2,3:0:0:0:
268,2,158464,6,0,P|323:29|384:16,1,125.999996154785,4|0,0:0|0:0,0:0:0:0:
508,66,158790,1,2,0:0:0:0:
492,153,158899,2,0,P|436:125|376:138,1,125.999996154785,8|0,0:0|0:0,0:0:0:0:
268,278,159334,1,2,3:0:0:0:
129,168,159551,2,0,L|143:42,2,125.999996154785,0|8|0,0:0|0:0|0:0,0:0:0:0:
283,314,160203,6,0,L|408:328,1,125.999996154785,2|0,3:0|0:0,0:0:0:0:
250,236,160530,1,2,0:0:0:0:
321,190,160638,2,0,L|446:175,1,125.999996154785,8|0,0:0|0:0,0:0:0:0:
230,46,161073,1,2,3:0:0:0:
173,278,161290,1,0,0:0:0:0:
173,278,161399,1,0,0:0:0:0:
173,278,161508,1,8,0:0:0:0:
29,140,161725,2,0,P|59:147|90:143,1,62.9999980773926,0|0,0:0|0:0,0:0:0:0:
260,61,161943,6,0,P|319:44|374:71,1,125.999996154785,2|0,3:0|0:0,0:0:0:0:
411,233,162269,1,2,0:0:0:0:
323,240,162377,2,0,P|295:184|312:125,1,125.999996154785,8|0,0:0|0:0,0:0:0:0:
182,29,162812,1,2,3:0:0:0:
48,179,163030,2,0,P|103:206|162:189,2,125.999996154785,0|8|0,0:0|0:0|0:0,0:0:0:0:
296,51,163682,6,0,L|313:194,1,125.999996154785,2|0,3:0|0:0,0:0:0:0:
441,94,164008,1,2,0:0:0:0:
477,174,164117,2,0,L|460:317,1,125.999996154785,8|0,0:0|0:0,0:0:0:0:
170,266,164551,1,2,3:0:0:0:
395,169,164769,1,0,0:0:0:0:
395,169,164877,1,0,0:0:0:0:
395,169,164986,1,8,0:0:0:0:
148,31,165203,2,0,L|156:105,1,62.9999980773926,8|0,0:0|0:0,0:0:0:0:
99,330,165421,6,0,B|186:350|186:350|217:330,1,125.999996154785,2|0,3:0|0:0,0:0:0:0:
288,267,165747,2,0,B|201:247|201:247|170:267,1,125.999996154785,2|0,3:0|0:0,0:0:0:0:
298,344,166073,1,0,0:0:0:0:
481,117,166290,2,0,P|423:93|363:108,1,125.999996154785,2|0,3:0|0:0,0:0:0:0:
301,167,166617,2,0,P|358:190|418:175,1,125.999996154785,2|0,3:0|0:0,0:0:0:0:
284,89,166943,1,0,0:0:0:0:
42,95,167160,6,0,B|22:182|22:182|42:213,1,125.999996154785,2|0,3:0|0:0,0:0:0:0:
105,284,167486,2,0,B|125:197|125:197|105:166,1,125.999996154785,2|0,3:0|0:0,0:0:0:0:
28,294,167812,1,0,0:0:0:0:
317,352,168030,2,0,P|340:294|325:234,1,125.999996154785,2|0,3:0|0:0,0:0:0:0:
267,172,168355,2,0,P|243:229|258:289,1,125.999996154785,2|0,3:0|0:0,0:0:0:0:
345,155,168683,1,0,0:0:0:0:
80,33,168899,6,0,L|89:158,1,125.999996154785,2|0,3:0|0:0,0:0:0:0:
101,345,169225,1,0,0:0:0:0:
181,307,169334,2,0,L|190:181,1,125.999996154785,8|0,0:0|0:0,0:0:0:0:
279,22,169769,2,0,L|273:96,3,62.9999980773926,2|2|2|2,3:0|3:0|3:0|3:0,0:0:0:0:
358,64,170203,2,0,L|352:138,3,62.9999980773926,8|2|2|2,0:0|3:0|3:0|3:0,0:0:0:0:
457,194,170638,5,2,3:0:0:0:
408,216,170746,1,2,3:0:0:0:
355,224,170855,1,2,3:0:0:0:
302,217,170964,1,2,3:0:0:0:
253,196,171072,1,8,0:0:0:0:
204,175,171182,1,2,3:0:0:0:
151,168,171291,1,2,3:0:0:0:
98,176,171400,1,2,3:0:0:0:
29,251,171508,5,2,3:0:0:0:
81,296,171616,1,2,3:0:0:0:
150,306,171725,1,2,3:0:0:0:
214,280,171834,1,2,3:0:0:0:
254,223,171942,1,8,0:0:0:0:
294,166,172051,1,2,3:0:0:0:
358,139,172160,1,2,3:0:0:0:
427,150,172269,1,2,3:0:0:0:
479,195,172377,6,0,P|464:229|317:242,1,202.499993820191,0|0,0:0|0:0,0:0:0:0:
310,228,174117,5,2,3:0:0:0:
226,159,174334,1,8,0:1:0:0:
126,200,174551,1,2,3:0:0:0:
42,131,174769,1,8,0:1:0:0:
241,62,174986,6,0,L|114:213,1,180,2|8,3:0|0:1,0:0:0:0:
114,73,175421,2,0,L|266:202,1,180,2|8,3:0|0:1,0:0:0:0:
445,42,175855,5,2,3:0:0:0:
376,126,176073,1,8,0:1:0:0:
417,226,176290,1,2,3:0:0:0:
348,310,176508,1,8,0:1:0:0:
125,199,176725,6,0,L|252:350,1,180,2|8,3:0|0:1,0:0:0:0:
252,210,177160,2,0,L|100:339,1,180,2|8,3:0|0:1,0:0:0:0:
34,119,177595,5,2,3:0:0:0:
122,57,177812,1,8,0:1:0:0:
238,116,178030,1,2,3:0:0:0:
326,54,178247,1,8,0:1:0:0:
479,164,178464,2,0,P|438:182|395:173,1,90,2|8,3:0|0:1,0:0:0:0:
264,198,178899,1,2,3:0:0:0:
167,147,179117,1,8,0:1:0:0:
45,200,179334,6,0,P|35:243|54:283,1,90,2|8,3:0|0:1,0:0:0:0:
330,233,179769,2,0,P|339:189|320:149,1,90,2|8,3:0|0:1,0:0:0:0:
166,361,180203,2,0,P|210:370|250:351,1,90,2|8,3:0|0:1,0:0:0:0:
207,78,180638,2,0,P|164:69|124:88,1,90,2|8,3:0|0:1,0:0:0:0:
350,329,181073,6,0,L|361:194,2,135,2|2|8,3:0|0:0|0:1,0:0:0:0:
222,319,181943,2,0,B|184:340|139:317|139:317|97:296|49:320,1,180,2|2,3:0|3:0,0:0:0:0:
43,144,182595,1,8,0:1:0:0:
43,144,182812,6,0,L|175:172,2,135,2|2|8,3:0|0:0|0:1,0:0:0:0:
159,44,183682,2,0,B|196:65|241:42|241:42|283:21|331:45,1,180,2|2,3:0|3:0,0:0:0:0:
479,41,184334,1,8,0:1:0:0:
418,172,184551,6,0,L|438:282,1,90,2|8,3:0|0:1,0:0:0:0:
311,241,184986,2,0,L|291:351,1,90,2|8,3:0|0:1,0:0:0:0:
180,154,185421,2,0,L|200:264,1,90,2|8,3:0|0:1,0:0:0:0:
54,324,185856,1,2,3:0:0:0:
71,236,186073,1,8,0:1:0:0:
256,192,186290,12,2,187595,3:0:0:0:
399,56,191290,5,0,0:0:0:0:
347,151,191508,2,0,P|344:195|374:241,1,90,2|0,3:0|0:0,0:0:0:0:
363,342,191943,1,8,0:1:0:0:
270,286,192160,1,2,3:0:0:0:
181,346,192377,2,0,P|136:348|91:319,1,90,8|0,0:0|0:0,0:0:0:0:
49,230,192812,1,8,0:1:0:0:
88,129,193030,1,0,0:0:0:0:
237,186,193247,6,0,P|271:113|195:138,1,202.500007724762,2|0,3:0|0:0,0:0:0:0:
408,38,193682,2,0,P|351:95|432:94,1,202.500007724762,2|0,3:0|0:0,0:0:0:0:
371,283,194117,2,0,P|335:210|412:236,1,202.500007724762,8|0,0:0|0:0,0:0:0:0:
444,300,194551,1,8,0:1:0:0:
352,369,194769,1,0,0:0:0:0:
250,220,194986,5,2,3:0:0:0:
251,328,195203,1,0,0:0:0:0:
67,304,195421,1,8,0:1:0:0:
153,368,195638,1,2,3:0:0:0:
90,220,195856,2,0,P|45:218|6:240,1,90,8|0,0:0|0:0,0:0:0:0:
251,328,196290,1,8,0:1:0:0:
250,220,196508,1,0,0:0:0:0:
425,58,196725,6,0,P|407:136|477:95,1,202.500007724762,2|0,3:0|0:0,0:0:0:0:
273,42,197160,2,0,P|290:120|220:79,1,202.500007724762,2|0,3:0|0:0,0:0:0:0:
88,68,197595,2,0,P|70:146|140:105,1,202.500007724762,8|0,0:0|0:0,0:0:0:0:
155,35,198029,1,8,0:1:0:0:
273,42,198247,1,0,0:0:0:0:
193,177,198464,5,2,3:0:0:0:
223,288,198682,1,0,0:0:0:0:
416,236,198899,1,8,0:1:0:0:
305,207,199117,1,2,3:0:0:0:
336,318,199334,2,0,B|362:353|362:353|409:335,1,90,8|0,0:0|0:0,0:0:0:0:
223,288,199769,1,8,0:1:0:0:
305,207,199986,1,0,0:0:0:0:
118,94,200203,6,0,P|82:165|159:143,1,202.500007724762,2|0,3:0|0:0,0:0:0:0:
218,206,200638,2,0,P|262:272|281:194,1,202.500007724762,2|0,3:0|0:0,0:0:0:0:
347,144,201073,2,0,P|423:167|388:95,1,202.500007724762,8|0,0:0|0:0,0:0:0:0:
276,116,201508,1,8,0:1:0:0:
372,25,201725,1,0,0:0:0:0:
76,61,201943,5,2,3:0:0:0:
84,102,202160,1,0,0:0:0:0:
204,32,202377,1,8,0:1:0:0:
201,73,202594,1,2,3:0:0:0:
310,95,202812,1,8,0:0:0:0:
318,136,203029,1,0,0:0:0:0:
438,66,203246,1,8,0:1:0:0:
435,107,203463,1,0,0:0:0:0:
146,221,203682,6,0,L|152:73,2,135,2|2|2,3:0|3:0|3:0,0:0:0:0:
286,307,204769,6,0,L|290:216,2,90,2|0|2,0:0|0:0|0:0,0:0:0:0:
439,322,205421,6,0,P|466:266|449:207,1,125.999996154785,4|0,0:0|0:0,0:0:0:0:
360,72,205747,1,0,0:0:0:0:
343,85,205856,2,0,P|315:140|332:199,1,125.999996154785,8|0,0:0|0:0,0:0:0:0:
133,363,206290,1,2,3:0:0:0:
332,315,206508,1,0,0:0:0:0:
175,159,206725,1,8,0:0:0:0:
23,317,206942,6,0,P|74:350|135:340,2,125.999996154785,0|2|0,0:0|3:0|0:0,0:0:0:0:
191,139,207595,2,0,P|251:128|303:162,1,125.999996154785,8|0,0:0|0:0,0:0:0:0:
386,293,208030,1,2,3:0:0:0:
175,159,208247,2,0,L|194:287,1,125.999996154785,0|8,0:0|0:0,0:0:0:0:
451,164,208682,5,0,0:0:0:0:
221,362,208899,1,2,3:0:0:0:
27,130,209117,1,0,0:0:0:0:
221,362,209334,1,8,0:0:0:0:
451,164,209551,1,0,0:0:0:0:
40,158,209769,2,0,P|93:188|152:170,1,125.999996154785,2|0,3:0|0:0,0:0:0:0:
283,24,210203,2,0,P|276:54|282:85,1,62.9999980773926,8|0,0:0|0:0,0:0:0:0:
355,259,210421,2,0,P|360:228|354:197,1,62.9999980773926,0|0,0:0|0:0,0:0:0:0:
109,283,210638,6,0,P|237:257|340:336,1,270,2|0,3:0|0:0,0:0:0:0:
402,283,211073,2,0,P|274:257|171:336,1,270,8|0,0:0|0:0,0:0:0:0:
109,283,211508,2,0,P|237:257|340:336,1,270,2|2,3:0|3:0,0:0:0:0:
340,336,211942,1,8,0:0:0:0:
349,100,212160,1,8,0:0:0:0:
80,174,212377,6,0,P|71:234|108:283,1,125.999996154785,2|0,3:0|0:0,0:0:0:0:
324,351,212703,1,0,0:0:0:0:
340,336,212812,2,0,P|349:276|312:227,1,125.999996154785,8|0,0:0|0:0,0:0:0:0:
80,174,213247,1,2,3:0:0:0:
319,139,213464,1,0,0:0:0:0:
147,6,213682,1,8,0:0:0:0:
319,139,213899,6,0,B|408:168|408:168|435:151,2,125.999996154785,0|2|0,0:0|3:0|0:0,0:0:0:0:
114,33,214551,2,0,P|82:85|97:145,1,125.999996154785,8|0,0:0|0:0,0:0:0:0:
330,117,214986,1,2,3:0:0:0:
83,171,215203,2,0,L|94:296,1,125.999996154785,0|8,0:0|0:0,0:0:0:0:
240,101,215638,1,0,0:0:0:0:
307,351,215856,5,2,3:0:0:0:
476,122,216073,1,0,0:0:0:0:
476,122,216182,1,0,0:0:0:0:
476,122,216290,1,8,0:0:0:0:
172,176,216508,1,0,0:0:0:0:
374,373,216725,5,2,3:0:0:0:
338,344,216833,1,2,3:0:0:0:
314,306,216942,1,2,3:0:0:0:
303,262,217051,1,2,3:0:0:0:
306,217,217160,1,8,0:0:0:0:
309,172,217268,1,2,3:0:0:0:
298,128,217377,1,2,3:0:0:0:
274,90,217486,1,2,3:0:0:0:
170,40,217595,5,2,3:0:0:0:
125,74,217703,1,2,3:0:0:0:
111,128,217812,1,2,3:0:0:0:
133,180,217921,1,2,3:0:0:0:
182,207,218030,1,8,0:0:0:0:
231,234,218138,1,2,3:0:0:0:
253,286,218247,1,2,3:0:0:0:
239,340,218356,1,2,3:0:0:0:
126,368,218464,5,2,3:0:0:0:
109,289,218572,1,2,3:0:0:0:
120,210,218681,1,2,3:0:0:0:
155,140,218790,1,2,3:0:0:0:
210,84,218898,1,8,0:0:0:0:
280,46,219007,1,2,3:0:0:0:
357,33,219116,1,2,3:0:0:0:
436,45,219224,1,2,3:0:0:0:
506,81,219334,6,0,P|485:139|501:199,1,125.999996154785,4|0,0:0|0:0,0:0:0:0:
443,328,219660,1,2,0:0:0:0:
355,336,219769,2,0,P|376:277|360:217,1,125.999996154785,8|0,0:0|0:0,0:0:0:0:
231,96,220203,1,2,3:0:0:0:
94,208,220421,2,0,L|108:344,2,125.999996154785,0|8|0,0:0|0:0|0:0,0:0:0:0:
85,31,221073,6,0,P|141:55|201:39,1,125.999996154785,2|0,3:0|0:0,0:0:0:0:
365,75,221399,1,2,0:0:0:0:
451,23,221508,2,0,P|466:82|442:139,1,125.999996154785,8|0,0:0|0:0,0:0:0:0:
262,163,221943,1,2,3:0:0:0:
284,337,222160,1,0,0:0:0:0:
284,337,222269,1,0,0:0:0:0:
284,337,222377,1,8,0:0:0:0:
52,233,222595,2,0,P|81:242|112:240,1,62.9999980773926,0|0,0:0|0:0,0:0:0:0:
220,33,222812,6,0,L|234:159,1,125.999996154785,2|0,3:0|0:0,0:0:0:0:
386,112,223138,1,2,0:0:0:0:
457,177,223247,2,0,L|443:303,1,125.999996154785,8|0,0:0|0:0,0:0:0:0:
233,158,223682,1,2,3:0:0:0:
56,310,223899,2,0,P|110:339|170:323,2,125.999996154785,0|8|0,0:0|0:0|0:0,0:0:0:0:
0,132,224551,6,0,B|77:161|77:161|118:147,1,125.999996154785,2|0,3:0|0:0,0:0:0:0:
202,28,224877,1,2,0:0:0:0:
265,90,224986,2,0,B|306:76|306:76|383:105,1,125.999996154785,8|0,0:0|0:0,0:0:0:0:
166,236,225421,1,2,3:0:0:0:
311,334,225638,1,0,0:0:0:0:
311,334,225747,1,0,0:0:0:0:
311,334,225856,1,8,0:0:0:0:
465,209,226073,2,0,P|435:200|403:203,1,62.9999980773926,8|0,0:0|0:0,0:0:0:0:
45,318,226290,6,0,L|170:331,1,125.999996154785,2|0,3:0|0:0,0:0:0:0:
179,252,226617,2,0,L|53:238,1,125.999996154785,2|0,3:0|0:0,0:0:0:0:
245,293,226943,1,0,0:0:0:0:
337,20,227160,2,0,P|312:76|343:139,1,125.999996154785,2|0,3:0|0:0,0:0:0:0:
390,188,227486,2,0,P|414:130|383:68,1,125.999996154785,2|0,3:0|0:0,0:0:0:0:
318,202,227812,1,0,0:0:0:0:
90,36,228029,6,0,L|76:161,1,125.999996154785,2|0,3:0|0:0,0:0:0:0:
155,170,228355,2,0,L|168:44,1,125.999996154785,2|0,3:0|0:0,0:0:0:0:
114,236,228682,1,0,0:0:0:0:
298,331,228899,2,0,P|354:355|417:324,1,125.999996154785,2|0,3:0|0:0,0:0:0:0:
466,278,229225,2,0,P|408:253|346:284,1,125.999996154785,2|0,3:0|0:0,0:0:0:0:
480,350,229551,1,0,0:0:0:0:
484,138,229769,6,0,B|396:148|396:148|353:131,1,125.999996154785,2|0,3:0|0:0,0:0:0:0:
224,30,230095,1,0,0:0:0:0:
151,78,230203,2,0,B|161:166|161:166|144:209,1,125.999996154785,8|0,0:0|0:0,0:0:0:0:
158,341,230638,2,0,L|220:335,3,62.9999980773926,2|2|2|2,3:0|3:0|3:0|3:0,0:0:0:0:
214,253,231073,2,0,L|276:247,3,62.9999980773926,8|2|2|2,0:0|3:0|3:0|3:0,0:0:0:0:
407,262,231508,5,2,3:0:0:0:
454,230,231616,1,2,3:0:0:0:
482,181,231725,1,2,3:0:0:0:
486,124,231834,1,2,3:0:0:0:
463,73,231942,1,8,0:0:0:0:
418,36,232051,1,2,3:0:0:0:
363,24,232160,1,2,3:0:0:0:
308,37,232268,1,2,3:0:0:0:
220,102,232377,5,2,3:0:0:0:
272,145,232485,1,2,3:0:0:0:
297,209,232594,1,2,3:0:0:0:
289,279,232703,1,2,3:0:0:0:
248,334,232811,1,8,0:0:0:0:
186,365,232920,1,2,3:0:0:0:
117,362,233029,1,2,3:0:0:0:
58,326,233137,1,2,3:0:0:0:
23,266,233246,1,0,0:0:0:0:
