osu file format v14

[General]
AudioFilename: audio.mp3
AudioLeadIn: 0
PreviewTime: 44780
Countdown: 0
SampleSet: Soft
StackLeniency: 0.7
Mode: 0
LetterboxInBreaks: 0
WidescreenStoryboard: 0

[Editor]
Bookmarks: 158427,169721,201839
DistanceSpacing: 0.8
BeatDivisor: 4
GridSize: 4
TimelineZoom: 3.399999

[Metadata]
Title:What is Love?
TitleUnicode:What is Love?
Artist:TWICE
ArtistUnicode:TWICE
Creator:Seox
Version:qt
Source:
Tags:kpop nayeon jeongyeon momo sana jihyo mina dahyun chaeyoung tzuyu
BeatmapID:1647457
BeatmapSetID:784730

[Difficulty]
HPDrainRate:5
CircleSize:4
OverallDifficulty:8.2
ApproachRate:9.4
SliderMultiplier:1.7
SliderTickRate:1

[Events]
//Background and Video events
0,0,"686317.jpg",0,0
//Break Periods
2,158427,169015
//Storyboard Layer 0 (Background)
//Storyboard Layer 1 (Fail)
//Storyboard Layer 2 (Pass)
//Storyboard Layer 3 (Foreground)
//Storyboard Sound Samples

[TimingPoints]
310,352.941176470588,4,1,0,100,1,0
310,-133.333333333333,4,2,1,100,0,0
11604,-100,4,2,1,100,0,0
34192,-133.333333333333,4,2,1,100,0,0
42662,-100,4,2,1,100,0,0
45486,-83.3333333333333,4,2,1,100,0,1
68074,-100,4,2,1,100,0,0
77780,-100,4,2,1,5,0,0
77957,-100,4,2,1,60,0,0
79368,-100,4,2,1,100,0,0
101251,-100,4,2,1,100,0,0
101957,-83.3333333333333,4,2,1,100,0,1
124545,-100,4,2,1,100,0,0
147133,-133.333333333333,4,2,1,100,0,0
158427,-1000,4,2,1,100,0,0
169721,-181.818181818181,4,2,1,100,0,0
180309,-100,4,2,1,100,0,0
181015,-83.3333333333333,4,2,1,100,0,1
203604,-100,4,2,1,100,0,0

[HitObjects]
323,313,310,6,0,P|340:312|387:326,1,63.7500024318696
254,353,662,2,0,P|219:357|184:351,1,63.7500024318696
101,224,1015,2,0,P|114:298|102:367,1,127.500004863739
158,141,1545,1,0,0:0:0:0:
158,141,1721,6,0,L|234:133,1,63.7500024318696
365,216,2074,2,0,L|280:210,1,63.7500024318696
434,139,2427,2,0,L|449:270,1,127.500004863739
356,344,2957,1,0,0:0:0:0:
282,289,3133,6,0,L|274:363,1,63.7500024318696
189,290,3486,2,0,L|179:219,1,63.7500024318696
304,89,3839,2,0,L|292:222,1,127.500004863739
111,115,4368,1,0,0:0:0:0:
111,115,4545,6,0,L|184:112,1,63.7500024318696
84,225,4898,2,0,L|5:221,1,63.7500024318696
129,308,5251,1,0,0:0:0:0:
215,353,5427,1,0,0:0:0:0:
308,306,5604,1,0,0:0:0:0:
308,306,5957,6,0,L|378:308,1,63.7500024318696
477,242,6309,2,0,L|407:240,1,63.7500024318696
267,151,6662,2,0,B|333:141|333:141|408:157,1,127.500004863739
256,52,7192,1,0,0:0:0:0:
192,168,7368,6,0,P|199:216|211:254,1,63.7500024318696
255,339,7721,2,0,P|209:321|171:312,1,63.7500024318696
52,297,8074,2,0,P|95:274|127:251,1,63.7500024318696
192,168,8427,1,0,0:0:0:0:
83,121,8604,1,0,0:0:0:0:
180,63,8780,6,0,L|253:68,1,63.7500024318696
392,128,9133,2,0,L|319:133,1,63.7500024318696
162,191,9486,2,0,L|235:196,1,63.7500024318696
352,268,9839,1,0,0:0:0:0:
352,268,10015,1,0,0:0:0:0:
256,192,10192,12,0,11427,0:0:0:0:
328,119,11604,6,0,B|339:167|339:167|328:298,1,170
231,351,12133,1,0,0:0:0:0:
148,290,12309,2,0,L|58:290,1,85
180,145,12662,1,0,0:0:0:0:
245,218,12839,1,0,0:0:0:0:
247,91,13015,6,0,P|195:67|97:109,1,170
245,218,13545,1,0,0:0:0:0:
323,161,13721,1,0,0:0:0:0:
328,255,13898,1,0,0:0:0:0:
406,198,14074,1,0,0:0:0:0:
323,161,14251,1,0,0:0:0:0:
442,279,14427,6,0,P|478:239|456:122,1,170
323,161,14957,1,0,0:0:0:0:
406,198,15133,1,0,0:0:0:0:
315,70,15309,1,0,0:0:0:0:
229,95,15486,1,0,0:0:0:0:
225,253,15662,1,0,0:0:0:0:
315,70,15839,6,0,P|241:34|163:82,1,170
225,253,16368,2,0,P|299:289|377:241,1,170
361,219,16809,1,0,0:0:0:0:
361,219,16898,1,0,0:0:0:0:
229,95,17074,1,0,0:0:0:0:
154,180,17251,6,0,B|142:232|142:232|158:365,1,170
327,157,17780,1,0,0:0:0:0:
229,95,17957,1,0,0:0:0:0:
327,67,18133,1,0,0:0:0:0:
325,202,18309,1,0,0:0:0:0:
196,115,18486,1,0,0:0:0:0:
363,55,18662,6,0,B|386:95|386:95|382:226,1,170
312,348,19192,1,0,0:0:0:0:
215,249,19368,1,0,0:0:0:0:
217,344,19545,1,0,0:0:0:0:
311,242,19721,1,0,0:0:0:0:
312,369,19898,1,0,0:0:0:0:
195,235,20074,6,0,P|183:178|192:62,1,170
314,98,20604,1,0,0:0:0:0:
314,98,20780,2,0,L|312:186,1,85
424,277,21133,2,0,L|434:182,1,85
380,47,21486,5,0,0:0:0:0:
224,122,21662,1,0,0:0:0:0:
377,180,21839,1,0,0:0:0:0:
170,45,22015,2,0,P|146:116|174:209,1,170
211,214,22457,1,0,0:0:0:0:
211,214,22545,1,0,0:0:0:0:
224,122,22721,1,0,0:0:0:0:
116,274,22898,6,0,P|180:314|285:288,1,170
367,227,23427,1,0,0:0:0:0:
211,214,23604,1,0,0:0:0:0:
301,134,23780,1,0,0:0:0:0:
270,300,23957,1,0,0:0:0:0:
226,120,24133,1,0,0:0:0:0:
389,245,24309,6,0,P|338:263|213:244,1,170
301,134,24839,1,0,0:0:0:0:
383,173,25015,1,0,0:0:0:0:
323,47,25192,1,0,0:0:0:0:
232,79,25368,1,0,0:0:0:0:
267,231,25545,1,0,0:0:0:0:
301,134,25721,6,0,P|212:123|126:129,1,170
48,234,26251,1,0,0:0:0:0:
165,247,26427,1,0,0:0:0:0:
81,326,26604,2,0,P|42:333|-12:328,1,85
186,351,26957,1,0,0:0:0:0:
242,286,27133,6,0,L|333:292,1,85
443,339,27486,1,0,0:0:0:0:
463,193,27662,1,0,0:0:0:0:
381,247,27839,1,0,0:0:0:0:
394,92,28015,1,0,0:0:0:0:
394,92,28104,1,0,0:0:0:0:
394,92,28192,1,0,0:0:0:0:
294,150,28368,1,0,0:0:0:0:
453,158,28545,6,0,P|471:86|414:5,1,170
294,150,29074,1,0,0:0:0:0:
394,92,29251,1,0,0:0:0:0:
224,76,29427,1,0,0:0:0:0:
236,249,29604,1,0,0:0:0:0:
294,150,29780,1,0,0:0:0:0:
146,239,29957,6,0,P|168:298|275:327,1,170
390,245,30486,1,0,0:0:0:0:
236,249,30662,1,0,0:0:0:0:
375,339,30839,1,0,0:0:0:0:
306,191,31015,1,0,0:0:0:0:
276,343,31192,1,0,0:0:0:0:
450,226,31368,6,0,L|445:318,1,85
277,202,31721,2,0,L|296:292,1,85
426,161,32074,2,0,L|421:253,1,85
253,137,32427,2,0,L|272:227,1,85
371,103,32780,6,0,P|420:50|435:45,2,56.6666666666667
253,137,33133,2,0,P|232:148|184:150,2,56.6666666666667
349,220,33486,2,0,P|370:259|372:302,2,56.6666666666667
253,137,33839,1,0,0:0:0:0:
257,219,33957,1,0,0:0:0:0:
325,172,34074,1,0,0:0:0:0:
156,113,34192,6,0,P|151:175|173:262,1,127.500004863739
321,304,34721,1,0,0:0:0:0:
321,304,34809,1,0,0:0:0:0:
321,304,34898,2,0,P|369:294|432:299,1,95.6250036478044
427,288,35251,1,0,0:0:0:0:
331,135,35427,1,0,0:0:0:0:
418,178,35604,5,0,0:0:0:0:
429,100,35780,1,0,0:0:0:0:
437,25,35957,1,0,0:0:0:0:
331,135,36133,1,0,0:0:0:0:
492,212,36309,2,0,P|457:225|363:216,1,127.500004863739
249,152,36839,1,0,0:0:0:0:
249,152,36927,1,0,0:0:0:0:
249,152,37015,6,0,P|251:206|260:239,1,63.7500024318696
189,356,37368,2,0,P|192:321|184:286,1,63.7500024318696
131,237,37633,1,0,0:0:0:0:
184,186,37721,2,0,P|230:190|323:184,1,127.500004863739
390,124,38251,1,0,0:0:0:0:
390,124,38427,6,0,L|322:117,1,63.7500024318696
209,102,38780,1,0,0:0:0:0:
288,48,38957,1,0,0:0:0:0:
127,92,39133,2,0,P|136:138|157:177,1,63.7500024318696
305,297,39486,2,0,P|310:253|304:212,1,63.7500024318696
112,327,39839,6,0,L|186:330,1,63.7500024318696
209,342,40104,1,0,0:0:0:0:
209,342,40192,1,0,0:0:0:0:
304,298,40368,1,0,0:0:0:0:
211,198,40545,2,0,P|211:231|228:277,1,63.7500024318696
379,361,40898,2,0,P|384:330|384:283,1,63.7500024318696
302,178,41251,5,0,0:0:0:0:
302,178,41339,1,0,0:0:0:0:
302,178,41427,1,0,0:0:0:0:
428,179,41604,1,0,0:0:0:0:
355,70,41780,1,0,0:0:0:0:
355,70,41868,1,0,0:0:0:0:
355,70,41957,1,0,0:0:0:0:
361,247,42133,1,0,0:0:0:0:
238,178,42309,2,0,L|319:177,1,63.7500024318696
227,320,42662,5,0,0:0:0:0:
105,90,42839,1,0,0:0:0:0:
143,294,43015,5,0,0:0:0:0:
193,43,43192,1,0,0:0:0:0:
61,203,43368,1,0,0:0:0:0:
95,185,43457,1,0,0:0:0:0:
132,180,43545,1,0,0:0:0:0:
168,191,43633,1,0,0:0:0:0:
191,220,43721,2,0,L|239:217,1,42.5
358,156,43898,2,0,L|308:157,1,42.5
212,131,44074,1,0,0:0:0:0:
248,102,44780,6,0,B|243:151|243:151|256:195,2,85
335,145,45309,1,0,0:0:0:0:
68,316,45486,5,0,0:0:0:0:
295,281,45662,1,0,0:0:0:0:
147,263,45839,1,0,0:0:0:0:
358,347,46015,1,0,0:0:0:0:
225,179,46192,1,0,0:0:0:0:
223,357,46368,1,0,0:0:0:0:
367,215,46545,1,0,0:0:0:0:
147,263,46721,1,0,0:0:0:0:
436,285,46898,6,0,P|450:242|443:174,1,101.999996887207
238,43,47251,2,0,P|240:109|265:160,1,101.999996887207
447,186,47604,1,0,0:0:0:0:
372,19,47780,1,0,0:0:0:0:
295,236,47957,1,0,0:0:0:0:
408,107,48133,1,0,0:0:0:0:
165,223,48309,5,0,0:0:0:0:
398,259,48486,1,0,0:0:0:0:
204,349,48662,1,0,0:0:0:0:
243,124,48839,1,0,0:0:0:0:
295,236,49015,1,0,0:0:0:0:
165,223,49192,1,0,0:0:0:0:
326,140,49368,1,0,0:0:0:0:
290,336,49545,1,0,0:0:0:0:
243,124,49721,6,0,B|232:70|232:70|245:23,1,101.999996887207
422,157,50074,2,0,B|381:264|465:257|423:363,1,203.999993774414
222,315,50604,1,0,0:0:0:0:
222,315,50692,1,0,0:0:0:0:
222,315,50780,1,0,0:0:0:0:
359,313,50957,1,0,0:0:0:0:
197,182,51133,5,0,0:0:0:0:
149,360,51309,1,0,0:0:0:0:
109,149,51486,5,0,0:0:0:0:
222,315,51662,1,0,0:0:0:0:
201,103,51839,5,0,0:0:0:0:
131,275,52015,1,0,0:0:0:0:
123,52,52192,5,0,0:0:0:0:
215,225,52368,1,0,0:0:0:0:
209,21,52545,5,0,0:0:0:0:
129,194,52721,1,0,0:0:0:0:
346,229,52898,1,0,0:0:0:0:
256,156,53074,2,0,P|241:213|305:338,1,203.999993774414
461,334,53604,1,0,0:0:0:0:
346,229,53780,1,0,0:0:0:0:
446,139,53957,6,0,B|433:204|457:195|446:244,1,101.999996887207
338,58,54309,2,0,L|355:163,1,101.999996887207
216,36,54662,2,0,L|263:135,1,101.999996887207
84,79,55015,2,0,L|177:141,1,101.999996887207
288,244,55368,5,0,0:0:0:0:
107,229,55545,1,0,0:0:0:0:
324,249,55721,1,0,0:0:0:0:
207,362,55898,2,0,B|239:233|172:287|206:156,1,203.999993774414
245,153,56339,1,0,0:0:0:0:
245,153,56427,1,0,0:0:0:0:
324,249,56604,1,0,0:0:0:0:
443,183,56780,5,0,0:0:0:0:
256,293,56957,1,0,0:0:0:0:
445,301,57133,1,0,0:0:0:0:
245,153,57309,1,0,0:0:0:0:
462,176,57486,1,0,0:0:0:0:
224,300,57662,1,0,0:0:0:0:
477,316,57839,1,0,0:0:0:0:
357,110,58015,1,0,0:0:0:0:
266,346,58192,6,0,L|243:233,1,101.999996887207
485,240,58545,2,0,L|464:356,1,101.999996887207
358,75,58898,1,0,0:0:0:0:
360,242,59074,1,0,0:0:0:0:
242,76,59251,1,0,0:0:0:0:
461,78,59427,1,0,0:0:0:0:
211,174,59604,5,0,0:0:0:0:
333,141,59780,1,0,0:0:0:0:
240,297,59957,1,0,0:0:0:0:
206,138,60133,1,0,0:0:0:0:
338,216,60309,1,0,0:0:0:0:
129,235,60486,1,0,0:0:0:0:
263,309,60662,1,0,0:0:0:0:
107,221,60839,1,0,0:0:0:0:
329,257,61015,6,0,P|342:309|327:363,1,101.999996887207
133,349,61368,2,0,B|98:230|177:275|126:132,1,203.999993774414
79,56,61898,1,0,0:0:0:0:
79,56,61986,1,0,0:0:0:0:
79,56,62074,1,0,0:0:0:0:
59,199,62251,1,0,0:0:0:0:
205,229,62427,6,0,P|276:226|314:212,1,101.999996887207
410,170,62780,2,0,P|390:235|355:282,1,101.999996887207
278,359,63133,2,0,P|292:298|289:246,1,101.999996887207
316,98,63486,2,0,P|353:158|359:216,1,101.999996887207
377,342,63839,5,0,0:0:0:0:
238,168,64015,1,0,0:0:0:0:
470,208,64192,1,0,0:0:0:0:
227,343,64368,2,0,P|191:285|253:159,1,203.999993774414
470,208,64898,1,0,0:0:0:0:
277,257,65074,1,0,0:0:0:0:
434,322,65251,5,0,0:0:0:0:
347,67,65427,1,0,0:0:0:0:
364,261,65604,1,0,0:0:0:0:
404,13,65780,1,0,0:0:0:0:
233,149,65957,5,0,0:0:0:0:
449,172,66133,1,0,0:0:0:0:
230,245,66309,1,0,0:0:0:0:
424,95,66486,1,0,0:0:0:0:
325,282,66662,6,0,L|325:220,1,50.9999984436036
213,50,66839,2,0,L|203:117,1,50.9999984436036
154,296,67015,1,0,0:0:0:0:
113,150,67192,1,0,0:0:0:0:
264,341,67368,1,0,0:0:0:0:
313,153,67545,1,0,0:0:0:0:
237,324,67721,1,0,0:0:0:0:
413,280,67898,1,0,0:0:0:0:
219,262,68074,6,0,L|119:265,1,85
371,344,68427,2,0,L|467:342,1,85
302,157,68780,2,0,L|298:355,1,170
406,192,69309,1,0,0:0:0:0:
406,192,69486,6,0,L|412:101,1,85
293,72,69839,2,0,L|303:172,1,85
184,279,70192,1,0,0:0:0:0:
161,127,70368,1,0,0:0:0:0:
186,299,70545,1,0,0:0:0:0:
81,225,70721,1,0,0:0:0:0:
271,206,70898,6,0,P|286:269|250:374,1,170
186,299,71427,1,0,0:0:0:0:
321,133,71604,2,0,P|361:155|388:199,1,85
399,325,71957,1,0,0:0:0:0:
299,219,72133,1,0,0:0:0:0:
450,249,72309,6,0,B|472:207|472:207|455:100,1,127.5
359,53,72662,2,0,L|372:149,1,85
167,123,73015,1,0,0:0:0:0:
290,122,73192,1,0,0:0:0:0:
144,106,73368,1,0,0:0:0:0:
209,242,73545,1,0,0:0:0:0:
309,106,73721,6,0,P|314:52|296:10,1,85
175,260,74074,2,0,P|170:314|188:356,1,85
422,295,74427,2,0,P|430:238|415:106,1,170
307,104,74957,1,0,0:0:0:0:
209,242,75133,5,0,0:0:0:0:
175,260,75221,1,0,0:0:0:0:
137,267,75309,1,0,0:0:0:0:
98,262,75398,1,0,0:0:0:0:
66,241,75486,1,0,0:0:0:0:
124,87,75662,1,0,0:0:0:0:
209,242,75839,1,0,0:0:0:0:
313,104,76015,1,0,0:0:0:0:
352,300,76192,1,0,0:0:0:0:
439,153,76368,1,0,0:0:0:0:
209,242,76545,5,0,0:0:0:0:
256,192,76633,12,0,77780,0:0:0:0:
356,132,77957,5,0,0:0:0:0:
332,313,78133,1,0,0:0:0:0:
332,313,78221,1,0,0:0:0:0:
332,313,78309,1,0,0:0:0:0:
216,125,78486,1,0,0:0:0:0:
202,299,78662,1,0,0:0:0:0:
408,221,78839,1,0,0:0:0:0:
144,206,79015,2,0,P|203:186|289:197,1,127.5
408,221,79368,6,0,P|352:248|296:250,1,85
398,126,79721,2,0,P|465:152|490:178,1,85
303,148,80074,2,0,P|278:85|275:37,1,85
357,34,80427,1,0,0:0:0:0:
176,82,80604,1,0,0:0:0:0:
176,82,80692,1,0,0:0:0:0:
176,82,80780,6,0,P|127:96|66:89,1,85
40,186,81133,1,0,0:0:0:0:
132,230,81309,1,0,0:0:0:0:
40,299,81486,2,0,P|92:315|130:309,1,85
258,291,81839,1,0,0:0:0:0:
132,230,82015,1,0,0:0:0:0:
132,230,82104,1,0,0:0:0:0:
132,230,82192,6,0,P|118:279|129:329,1,85
211,376,82545,1,0,0:0:0:0:
258,291,82721,1,0,0:0:0:0:
329,366,82898,2,0,P|348:320|349:273,1,85
312,138,83251,1,0,0:0:0:0:
312,138,83427,1,0,0:0:0:0:
382,204,83604,6,0,P|430:210|493:204,1,85
487,179,83868,1,0,0:0:0:0:
487,179,83957,1,0,0:0:0:0:
371,64,84133,1,0,0:0:0:0:
312,138,84309,1,0,0:0:0:0:
235,76,84486,2,0,L|276:65,1,42.5
153,34,84662,1,0,0:0:0:0:
138,127,84839,1,0,0:0:0:0:
169,223,85015,6,0,P|231:213|265:195,1,85
384,157,85368,2,0,P|364:206|333:243,1,85
251,342,85721,1,0,0:0:0:0:
102,285,85898,1,0,0:0:0:0:
169,223,86074,2,0,P|187:164|180:130,1,85
91,58,86427,5,0,0:0:0:0:
126,72,86515,1,0,0:0:0:0:
164,76,86604,1,0,0:0:0:0:
201,71,86692,1,0,0:0:0:0:
231,52,86780,1,0,0:0:0:0:
309,143,86957,1,0,0:0:0:0:
391,76,87133,1,0,0:0:0:0:
399,217,87309,2,0,L|397:278,1,42.5
453,346,87486,1,0,0:0:0:0:
291,271,87662,1,0,0:0:0:0:
482,206,87839,6,0,P|421:217|382:214,1,85
225,132,88192,2,0,P|286:143|325:140,1,85
407,30,88545,2,0,P|418:91|415:130,1,85
315,324,88898,2,0,P|326:263|323:224,1,85
241,82,89251,6,0,P|213:57|176:49,2,56.6666666666667
182,129,89604,2,0,P|155:121|111:126,2,56.6666666666667
131,202,89957,2,0,P|111:207|75:235,2,56.6666666666667
200,306,90309,1,0,0:0:0:0:
257,198,90427,1,0,0:0:0:0:
131,202,90545,1,0,0:0:0:0:
290,288,90662,6,0,B|371:309|371:309|463:287,1,170
366,116,91192,1,0,0:0:0:0:
366,116,91280,1,0,0:0:0:0:
366,116,91368,2,0,L|362:216,1,85
165,149,91721,1,0,0:0:0:0:
277,163,91898,1,0,0:0:0:0:
107,211,92074,6,0,P|75:153|80:108,1,85
125,28,92427,1,0,0:0:0:0:
165,149,92604,1,0,0:0:0:0:
260,80,92780,2,0,P|275:132|273:188,1,85
223,324,93133,1,0,0:0:0:0:
186,239,93309,1,0,0:0:0:0:
186,239,93398,1,0,0:0:0:0:
186,239,93486,6,0,P|228:228|290:229,1,85
404,313,93839,1,0,0:0:0:0:
365,180,94015,1,0,0:0:0:0:
365,180,94104,1,0,0:0:0:0:
365,180,94192,1,0,0:0:0:0:
298,305,94368,1,0,0:0:0:0:
262,126,94545,1,0,0:0:0:0:
375,221,94721,1,0,0:0:0:0:
372,56,94898,6,0,L|382:147,1,85
304,240,95251,1,0,0:0:0:0:
262,126,95427,1,0,0:0:0:0:
195,204,95604,2,0,L|172:96,1,85
85,40,95957,2,0,L|80:147,1,85
65,275,96309,6,0,L|155:263,1,85
233,323,96574,1,0,0:0:0:0:
260,351,96662,2,0,L|163:343,1,85
220,256,97015,6,0,P|263:245|309:253,1,85
387,313,97280,1,0,0:0:0:0:
414,341,97368,2,0,L|317:333,1,85
427,184,97721,5,0,0:0:0:0:
427,184,97809,1,0,0:0:0:0:
427,184,97898,1,0,0:0:0:0:
387,313,98074,1,0,0:0:0:0:
300,141,98251,1,0,0:0:0:0:
300,141,98339,1,0,0:0:0:0:
300,141,98427,1,0,0:0:0:0:
262,263,98604,1,0,0:0:0:0:
180,140,98780,1,0,0:0:0:0:
160,235,98957,1,0,0:0:0:0:
85,131,99133,6,0,L|60:72,1,42.5
54,233,99309,2,0,L|32:283,1,42.5
120,119,99486,2,0,L|120:64,1,42.5
93,238,99662,2,0,L|99:292,1,42.5
191,196,99839,1,0,0:0:0:0:
229,196,99927,1,0,0:0:0:0:
267,196,100015,1,0,0:0:0:0:
305,195,100104,1,0,0:0:0:0:
343,195,100192,1,0,0:0:0:0:
377,211,100280,1,0,0:0:0:0:
398,242,100368,1,0,0:0:0:0:
408,279,100457,1,0,0:0:0:0:
394,314,100545,1,0,0:0:0:0:
259,329,101251,6,0,L|171:330,1,85
280,190,101604,1,0,0:0:0:0:
333,268,101780,1,0,0:0:0:0:
391,179,101957,6,0,B|401:128|401:128|384:59,1,101.999996887207
100,125,102309,1,0,0:0:0:0:
317,131,102486,1,0,0:0:0:0:
68,124,102662,1,0,0:0:0:0:
234,38,102839,1,0,0:0:0:0:
177,272,103015,1,0,0:0:0:0:
44,131,103192,1,0,0:0:0:0:
246,206,103368,6,0,P|268:296|226:365,1,152.999995330811
83,301,103721,2,0,P|139:273|201:279,1,101.999996887207
336,351,104074,1,0,0:0:0:0:
374,277,104251,1,0,0:0:0:0:
301,204,104427,2,0,P|355:196|406:209,1,101.999996887207
290,283,104780,5,0,0:0:0:0:
117,186,104957,1,0,0:0:0:0:
301,204,105133,5,0,0:0:0:0:
133,263,105309,1,0,0:0:0:0:
366,263,105486,5,0,0:0:0:0:
194,212,105662,1,0,0:0:0:0:
312,351,105839,5,0,0:0:0:0:
295,164,106015,1,0,0:0:0:0:
236,309,106192,6,0,P|296:277|380:308,1,152.999995330811
455,346,106545,2,0,P|466:290|459:237,1,101.999996887207
385,69,106898,1,0,0:0:0:0:
295,164,107074,1,0,0:0:0:0:
295,164,107162,1,0,0:0:0:0:
295,164,107251,2,0,P|242:178|184:165,1,101.999996887207
115,54,107604,5,0,0:0:0:0:
197,261,107780,1,0,0:0:0:0:
188,97,107957,5,0,0:0:0:0:
130,318,108133,1,0,0:0:0:0:
121,135,108309,5,0,0:0:0:0:
207,344,108486,1,0,0:0:0:0:
272,174,108662,1,0,0:0:0:0:
58,240,108839,1,0,0:0:0:0:
301,293,109015,6,0,P|360:292|405:275,1,101.999996887207
327,57,109368,1,0,0:0:0:0:
192,140,109545,2,0,B|156:254|245:224|195:346,1,203.999993774414
119,288,110074,1,0,0:0:0:0:
272,172,110251,1,0,0:0:0:0:
72,104,110427,6,0,P|123:88|189:93,1,101.999996887207
370,177,110780,2,0,P|311:163|268:173,1,101.999996887207
122,290,111133,1,0,0:0:0:0:
304,330,111309,1,0,0:0:0:0:
227,156,111486,1,0,0:0:0:0:
197,349,111662,1,0,0:0:0:0:
306,202,111839,6,0,L|324:133,1,50.9999984436036
218,105,112015,2,0,L|230:177,1,50.9999984436036
304,288,112192,1,0,0:0:0:0:
386,104,112368,2,0,P|302:55|213:114,1,203.999993774414
296,362,112898,1,0,0:0:0:0:
404,200,113074,1,0,0:0:0:0:
158,224,113251,5,0,0:0:0:0:
392,291,113427,1,0,0:0:0:0:
188,107,113604,5,0,0:0:0:0:
296,362,113780,1,0,0:0:0:0:
292,100,113957,5,0,0:0:0:0:
182,331,114133,1,0,0:0:0:0:
408,200,114309,1,0,0:0:0:0:
129,223,114486,1,0,0:0:0:0:
454,284,114662,6,0,P|499:199|445:108,1,203.999993774414
246,256,115192,1,0,0:0:0:0:
408,200,115368,1,0,0:0:0:0:
170,208,115545,1,0,0:0:0:0:
355,255,115721,1,0,0:0:0:0:
203,79,115898,1,0,0:0:0:0:
178,292,116074,5,0,0:0:0:0:
329,162,116251,1,0,0:0:0:0:
96,194,116427,5,0,0:0:0:0:
317,263,116604,1,0,0:0:0:0:
156,88,116780,5,0,0:0:0:0:
171,326,116957,1,0,0:0:0:0:
317,131,117133,5,0,0:0:0:0:
68,220,117309,1,0,0:0:0:0:
369,289,117486,2,0,B|326:183|431:218|380:71,1,203.999993774414
239,74,118015,1,0,0:0:0:0:
317,131,118192,1,0,0:0:0:0:
128,169,118368,1,0,0:0:0:0:
128,169,118457,1,0,0:0:0:0:
128,169,118545,2,0,P|181:175|231:160,1,101.999996887207
142,60,118898,5,0,0:0:0:0:
89,298,119074,1,0,0:0:0:0:
262,216,119251,5,0,0:0:0:0:
19,197,119427,1,0,0:0:0:0:
199,329,119604,5,0,0:0:0:0:
223,53,119780,1,0,0:0:0:0:
45,200,119957,5,0,0:0:0:0:
294,238,120133,1,0,0:0:0:0:
151,124,120309,2,0,P|204:145|262:139,1,101.999996887207
350,86,120662,1,0,0:0:0:0:
225,334,120839,2,0,P|266:234|241:130,1,203.999993774414
127,224,121368,1,0,0:0:0:0:
367,248,121545,1,0,0:0:0:0:
74,310,121721,6,0,P|50:252|52:190,1,101.999996887207
245,62,122074,2,0,P|250:118|237:170,1,101.999996887207
127,225,122427,1,0,0:0:0:0:
150,131,122604,1,0,0:0:0:0:
233,342,122780,1,0,0:0:0:0:
268,232,122957,1,0,0:0:0:0:
125,295,123133,5,0,0:0:0:0:
355,320,123309,1,0,0:0:0:0:
229,133,123486,1,0,0:0:0:0:
260,346,123662,2,0,B|225:249|325:252|264:135,1,203.999993774414
147,62,124192,1,0,0:0:0:0:
203,200,124368,1,0,0:0:0:0:
339,296,124545,6,0,L|449:299,1,85
492,198,124898,2,0,L|392:188,1,85
280,133,125251,1,0,0:0:0:0:
206,200,125427,1,0,0:0:0:0:
134,139,125604,1,0,0:0:0:0:
71,217,125780,1,0,0:0:0:0:
241,272,125957,6,0,P|278:239|285:193,1,85
132,47,126309,2,0,B|95:129|176:127|120:222,1,170
110,329,126839,1,0,0:0:0:0:
62,163,127015,1,0,0:0:0:0:
206,199,127192,1,0,0:0:0:0:
243,273,127368,6,0,P|183:279|131:265,1,85
341,206,127721,2,0,P|355:252|353:312,1,85
206,199,128074,1,0,0:0:0:0:
314,90,128251,1,0,0:0:0:0:
319,191,128427,1,0,0:0:0:0:
212,81,128604,1,0,0:0:0:0:
345,90,128780,6,0,L|443:90,1,85
235,160,129133,2,0,P|212:106|218:50,1,85
398,161,129486,2,0,B|412:206|412:206|389:275,1,85
369,263,129751,1,0,0:0:0:0:
369,263,129839,1,0,0:0:0:0:
205,276,130015,1,0,0:0:0:0:
282,357,130192,6,0,P|294:305|285:256,1,85
170,200,130545,2,0,P|193:263|226:290,1,85
199,103,130898,2,0,P|144:100|87:127,1,85
125,284,131251,1,0,0:0:0:0:
171,201,131427,1,0,0:0:0:0:
75,202,131604,5,0,0:0:0:0:
243,282,131780,1,0,0:0:0:0:
301,203,131957,1,0,0:0:0:0:
171,201,132133,1,0,0:0:0:0:
298,343,132309,2,0,P|325:282|318:245,1,85
239,91,132662,1,0,0:0:0:0:
171,201,132839,1,0,0:0:0:0:
166,41,133015,5,0,0:0:0:0:
246,161,133192,1,0,0:0:0:0:
241,36,133368,1,0,0:0:0:0:
172,225,133545,1,0,0:0:0:0:
166,114,133721,1,0,0:0:0:0:
249,264,133898,1,0,0:0:0:0:
251,141,134074,1,0,0:0:0:0:
172,225,134251,1,0,0:0:0:0:
339,229,134427,5,0,0:0:0:0:
181,327,134604,1,0,0:0:0:0:
384,298,134780,1,0,0:0:0:0:
251,141,134957,2,0,B|219:222|301:218|250:329,1,170
217,314,135398,1,0,0:0:0:0:
217,314,135486,1,0,0:0:0:0:
330,192,135662,1,0,0:0:0:0:
168,109,135839,6,0,P|213:69|263:61,1,85
450,113,136192,1,0,0:0:0:0:
302,188,136368,1,0,0:0:0:0:
454,206,136545,1,0,0:0:0:0:
271,113,136721,1,0,0:0:0:0:
357,302,136898,2,0,P|371:229|358:125,1,170
194,52,137427,5,0,0:0:0:0:
271,113,137604,2,0,P|235:131|165:131,1,85
64,199,137957,2,0,P|100:217|170:217,1,85
278,236,138309,1,0,0:0:0:0:
130,316,138486,1,0,0:0:0:0:
329,350,138662,6,0,P|349:297|342:240,1,85
239,102,139015,2,0,P|229:170|245:216,1,85
460,146,139368,1,0,0:0:0:0:
325,151,139545,1,0,0:0:0:0:
471,178,139721,1,0,0:0:0:0:
326,111,139898,1,0,0:0:0:0:
386,250,140074,5,0,0:0:0:0:
396,54,140251,1,0,0:0:0:0:
325,151,140427,2,0,B|396:106|414:191|493:135,1,170
396,54,140957,1,0,0:0:0:0:
396,54,141045,1,0,0:0:0:0:
396,54,141133,1,0,0:0:0:0:
315,224,141309,1,0,0:0:0:0:
223,116,141486,6,0,P|205:74|202:30,1,85
147,214,141839,2,0,P|165:256|168:300,1,85
66,140,142192,1,0,0:0:0:0:
225,114,142368,1,0,0:0:0:0:
317,238,142545,2,0,L|422:226,1,85
403,119,142898,5,0,0:0:0:0:
195,114,143074,1,0,0:0:0:0:
314,272,143251,1,0,0:0:0:0:
202,215,143427,2,0,P|169:278|248:354,1,170
419,281,143957,1,0,0:0:0:0:
267,271,144133,1,0,0:0:0:0:
467,214,144309,6,0,L|479:321,1,85
303,191,144662,2,0,L|306:96,1,85
192,50,145015,1,0,0:0:0:0:
192,50,145192,1,0,0:0:0:0:
81,129,145368,1,0,0:0:0:0:
205,160,145545,1,0,0:0:0:0:
51,239,145721,6,0,L|116:224,1,42.5
204,305,145898,2,0,L|146:296,1,42.5
286,194,146074,2,0,P|299:236|302:300,1,85
293,363,146427,1,0,0:0:0:0:
354,115,146604,1,0,0:0:0:0:
382,213,146780,1,0,0:0:0:0:
216,141,146957,1,0,0:0:0:0:
354,115,147133,6,0,B|419:87|424:158|497:104,1,127.500004863739
311,33,147662,1,0,0:0:0:0:
311,33,147751,1,0,0:0:0:0:
311,33,147839,2,0,P|279:60|243:76,1,63.7500024318696
106,118,148192,1,0,0:0:0:0:
192,170,148368,1,0,0:0:0:0:
46,64,148545,6,0,P|29:104|34:137,1,63.7500024318696
97,267,148898,1,0,0:0:0:0:
106,118,149074,1,0,0:0:0:0:
33,265,149251,2,0,L|104:267,1,63.7500024318696
279,305,149604,1,0,0:0:0:0:
168,340,149780,1,0,0:0:0:0:
168,340,149868,1,0,0:0:0:0:
168,340,149957,6,0,P|186:298|180:255,1,63.7500024318696
162,107,150309,1,0,0:0:0:0:
260,177,150486,1,0,0:0:0:0:
260,177,150574,1,0,0:0:0:0:
260,177,150662,2,0,P|308:182|347:177,1,63.7500024318696
426,132,151015,1,0,0:0:0:0:
342,276,151192,1,0,0:0:0:0:
246,89,151368,6,0,P|241:124|247:160,1,63.7500024318696
363,335,151721,1,0,0:0:0:0:
388,174,151898,1,0,0:0:0:0:
181,265,152074,1,0,0:0:0:0:
363,335,152251,1,0,0:0:0:0:
363,335,152339,1,0,0:0:0:0:
363,335,152427,1,0,0:0:0:0:
229,131,152604,1,0,0:0:0:0:
141,338,152780,6,0,L|60:338,1,63.7500024318696
247,243,153045,1,0,0:0:0:0:
280,234,153133,2,0,L|367:232,1,63.7500024318696
117,211,153486,2,0,L|36:211,1,63.7500024318696
223,116,153751,1,0,0:0:0:0:
256,107,153839,2,0,L|343:105,1,63.7500024318696
127,41,154192,6,0,P|119:91|130:131,1,63.7500024318696
226,206,154457,1,0,0:0:0:0:
241,228,154545,2,0,P|249:266|247:302,1,63.7500024318696
141,361,154898,1,0,0:0:0:0:
91,228,155074,1,0,0:0:0:0:
91,228,155162,1,0,0:0:0:0:
91,228,155251,1,0,0:0:0:0:
248,290,155427,1,0,0:0:0:0:
184,84,155604,6,0,L|202:131,1,31.8750012159348
282,220,155780,2,0,L|294:169,1,31.8750012159348
341,47,155957,2,0,L|353:96,1,31.8750012159348
408,207,156133,2,0,L|424:171,1,31.8750012159348
438,40,156309,1,0,0:0:0:0:
416,54,156398,1,0,0:0:0:0:
391,59,156486,1,0,0:0:0:0:
365,57,156574,1,0,0:0:0:0:
341,47,156662,1,0,0:0:0:0:
332,71,156751,1,0,0:0:0:0:
322,94,156839,1,0,0:0:0:0:
303,111,156927,1,0,0:0:0:0:
280,122,157015,1,0,0:0:0:0:
376,112,169721,6,0,P|385:156|372:250,1,140.25000428009
333,267,170339,1,0,0:0:0:0:
333,267,170427,1,0,0:0:0:0:
96,222,171133,5,0,0:0:0:0:
333,267,171309,1,0,0:0:0:0:
221,355,171486,2,0,L|211:293,1,46.7500014266968
276,62,171839,2,0,P|302:125|265:188,1,140.25000428009
148,121,172545,2,0,B|105:102|70:123|70:123|69:144|128:170,1,140.25000428009
138,180,173162,1,0,0:0:0:0:
138,180,173251,1,0,0:0:0:0:
245,221,173604,2,0,B|288:202|323:223|323:223|324:244|265:270,1,140.25000428009
148,305,174309,5,0,0:0:0:0:
361,342,174486,1,0,0:0:0:0:
127,335,174662,2,0,L|103:232,1,93.5000028533936
115,94,175192,1,0,0:0:0:0:
203,188,175368,6,0,L|213:76,1,93.5000028533936
305,51,175898,1,0,0:0:0:0:
305,51,175986,1,0,0:0:0:0:
305,51,176074,2,0,L|317:164,1,93.5000028533936
371,239,176604,1,0,0:0:0:0:
469,148,176780,6,0,L|413:145,1,46.7500014266968
266,239,177133,2,0,L|324:245,2,46.7500014266968
190,192,177662,1,0,0:0:0:0:
111,220,177839,1,0,0:0:0:0:
174,279,178015,1,0,0:0:0:0:
174,279,178104,1,0,0:0:0:0:
174,279,178192,6,0,L|236:280,1,46.7500014266968
368,338,178545,2,0,L|304:338,1,46.7500014266968
190,192,178898,2,0,L|252:193,1,46.7500014266968
384,251,179251,2,0,L|320:251,1,46.7500014266968
179,82,179604,5,0,0:0:0:0:
142,271,179780,1,0,0:0:0:0:
223,158,179957,1,0,0:0:0:0:
247,346,180133,1,0,0:0:0:0:
369,241,180309,2,0,P|378:195|365:137,1,85
240,50,180662,1,0,0:0:0:0:
115,183,180839,1,0,0:0:0:0:
244,304,181015,6,0,B|335:328|335:328|445:301,1,203.999993774414
326,88,181545,1,0,0:0:0:0:
115,183,181721,1,0,0:0:0:0:
305,205,181898,1,0,0:0:0:0:
83,155,182074,1,0,0:0:0:0:
175,319,182251,1,0,0:0:0:0:
223,122,182427,6,0,L|234:50,1,50.9999984436036
305,205,182604,2,0,L|329:267,1,50.9999984436036
365,63,182780,1,0,0:0:0:0:
412,183,182957,1,0,0:0:0:0:
453,96,183133,1,0,0:0:0:0:
302,126,183309,1,0,0:0:0:0:
496,174,183486,1,0,0:0:0:0:
323,252,183662,1,0,0:0:0:0:
483,324,183839,6,0,P|427:311|258:334,1,203.999993774414
62,327,184368,1,0,0:0:0:0:
233,254,184545,1,0,0:0:0:0:
82,212,184721,1,0,0:0:0:0:
322,291,184898,1,0,0:0:0:0:
142,290,185074,1,0,0:0:0:0:
311,184,185251,6,0,L|373:190,1,50.9999984436036
229,123,185427,2,0,L|165:110,1,50.9999984436036
341,78,185604,1,0,0:0:0:0:
253,46,185780,1,0,0:0:0:0:
341,222,185957,1,0,0:0:0:0:
199,106,186133,1,0,0:0:0:0:
199,106,186221,1,0,0:0:0:0:
199,106,186309,1,0,0:0:0:0:
235,332,186486,1,0,0:0:0:0:
289,149,186662,6,0,B|335:135|335:135|396:151,1,101.999996887207
484,290,187015,2,0,P|420:311|368:298,1,101.999996887207
185,209,187368,1,0,0:0:0:0:
384,206,187545,1,0,0:0:0:0:
197,313,187721,1,0,0:0:0:0:
368,93,187898,1,0,0:0:0:0:
328,295,188074,5,0,0:0:0:0:
178,115,188251,1,0,0:0:0:0:
416,202,188427,1,0,0:0:0:0:
119,270,188604,2,0,B|158:166|81:180|109:66,1,203.999993774414
225,88,189133,1,0,0:0:0:0:
38,222,189309,1,0,0:0:0:0:
258,283,189486,6,0,B|314:304|314:304|463:287,1,203.999993774414
335,116,190015,1,0,0:0:0:0:
301,331,190192,1,0,0:0:0:0:
230,107,190368,1,0,0:0:0:0:
190,244,190545,1,0,0:0:0:0:
113,64,190721,1,0,0:0:0:0:
79,304,190898,6,0,L|55:223,2,67.9999979248048
178,257,191251,2,0,L|160:344,2,67.9999979248048
276,274,191604,2,0,L|265:194,2,67.9999979248048
351,318,191957,1,0,0:0:0:0:
438,326,192074,1,0,0:0:0:0:
499,267,192192,1,0,0:0:0:0:
444,205,192309,6,0,B|429:132|471:72|471:72|449:79|400:81,1,203.999993774414
163,92,192839,1,0,0:0:0:0:
314,129,193015,1,0,0:0:0:0:
79,156,193192,1,0,0:0:0:0:
379,50,193368,1,0,0:0:0:0:
241,292,193545,1,0,0:0:0:0:
145,56,193721,5,0,0:0:0:0:
343,229,193898,1,0,0:0:0:0:
273,68,194074,1,0,0:0:0:0:
129,279,194251,1,0,0:0:0:0:
380,228,194427,1,0,0:0:0:0:
145,123,194604,1,0,0:0:0:0:
414,231,194780,1,0,0:0:0:0:
242,362,194957,1,0,0:0:0:0:
441,148,195133,6,0,P|492:192|436:306,1,203.999993774414
167,198,195662,1,0,0:0:0:0:
412,229,195839,1,0,0:0:0:0:
182,60,196015,1,0,0:0:0:0:
205,335,196192,1,0,0:0:0:0:
317,67,196368,1,0,0:0:0:0:
58,163,196545,6,0,L|127:172,1,50.9999984436036
241,243,196721,2,0,L|180:253,1,50.9999984436036
32,270,196898,5,0,0:0:0:0:
317,299,197074,1,0,0:0:0:0:
131,328,197251,1,0,0:0:0:0:
382,211,197427,1,0,0:0:0:0:
382,211,197515,1,0,0:0:0:0:
382,211,197604,1,0,0:0:0:0:
174,123,197780,1,0,0:0:0:0:
386,94,197957,6,0,L|490:89,1,101.999996887207
185,239,198309,2,0,L|56:226,1,101.999996887207
351,359,198662,1,0,0:0:0:0:
396,188,198839,1,0,0:0:0:0:
216,35,199015,1,0,0:0:0:0:
245,204,199192,1,0,0:0:0:0:
363,70,199368,5,0,0:0:0:0:
149,149,199545,1,0,0:0:0:0:
368,286,199721,1,0,0:0:0:0:
242,109,199898,2,0,P|172:76|56:137,1,203.999993774414
172,346,200427,1,0,0:0:0:0:
313,239,200604,1,0,0:0:0:0:
89,204,200780,6,0,P|153:179|289:195,1,203.999993774414
411,327,201309,1,0,0:0:0:0:
444,245,201486,1,0,0:0:0:0:
335,276,201662,1,0,0:0:0:0:
371,205,201839,1,0,0:0:0:0:
455,168,202015,1,0,0:0:0:0:
376,99,202192,5,0,0:0:0:0:
376,99,202280,1,0,0:0:0:0:
376,99,202368,1,0,0:0:0:0:
349,130,202457,1,0,0:0:0:0:
308,135,202545,1,0,0:0:0:0:
154,125,202721,1,0,0:0:0:0:
317,241,202898,1,0,0:0:0:0:
129,60,203074,1,0,0:0:0:0:
129,60,203162,1,0,0:0:0:0:
129,60,203251,1,0,0:0:0:0:
141,312,203427,1,0,0:0:0:0:
258,113,203604,5,0,0:0:0:0:
