osu file format v14

[General]
AudioFilename: audio.mp3
AudioLeadIn: 0
PreviewTime: 144600
Countdown: 0
SampleSet: Soft
StackLeniency: 0.4
Mode: 0
LetterboxInBreaks: 0
WidescreenStoryboard: 0

[Editor]
DistanceSpacing: 1.4
BeatDivisor: 4
GridSize: 16
TimelineZoom: 1.9

[Metadata]
Title:UP NO MORE
TitleUnicode:UP NO MORE
Artist:TWICE
ArtistUnicode:트와이스
Creator:Nabori
Version:Sleepless
Source:
Tags:kpop k-pop Korean Pop jyp entertainment ent tzuyu sana jihyo dahyun nayeon jeongyeon chaeyoung momo mina 쯔위 나연 정연 모모 사나 지효 미나 다현 채영 쯔위 twice 트와이스 fragmented charmcaster futser im eyes wide open full album bside b side girl group doraemonelf dora-
BeatmapID:2684062
BeatmapSetID:1293377

[Difficulty]
HPDrainRate:5
CircleSize:3.8
OverallDifficulty:8
ApproachRate:9
SliderMultiplier:1.8
SliderTickRate:1

[Events]
//Background and Video events
0,0,"bg.jpg",0,0
//Break Periods
2,160850,167975
//Storyboard Layer 0 (Background)
//Storyboard Layer 1 (Fail)
//Storyboard Layer 2 (Pass)
//Storyboard Layer 3 (Foreground)
//Storyboard Layer 4 (Overlay)
//Storyboard Sound Samples

[TimingPoints]
600,500,4,2,1,60,1,0
600,-66.6666666666667,4,2,1,60,0,0
725,-66.6666666666667,4,2,1,5,0,0
850,-66.6666666666667,4,2,1,60,0,0
1600,-133.333333333333,4,2,1,60,0,0
2225,-133.333333333333,4,2,1,5,0,0
2350,-133.333333333333,4,2,2,60,0,0
2725,-133.333333333333,4,2,2,5,0,0
2850,-133.333333333333,4,2,2,60,0,0
3225,-133.333333333333,4,2,2,5,0,0
3287,-66.6666666666667,4,2,3,60,0,0
3787,-66.6666666666667,4,2,3,5,0,0
3850,-1000,4,2,2,60,0,0
4475,-1000,4,2,2,5,0,0
4600,-1000,4,2,2,60,0,0
4850,-1000,4,2,1,60,0,0
5600,-133.333333333333,4,2,1,60,0,0
6350,-133.333333333333,4,2,2,60,0,0
6725,-133.333333333333,4,2,2,5,0,0
6850,-133.333333333333,4,2,2,60,0,0
7225,-133.333333333333,4,2,2,5,0,0
7350,-133.333333333333,4,2,2,60,0,0
8475,-133.333333333333,4,2,2,5,0,0
8600,-133.333333333333,4,2,2,60,0,0
8850,-133.333333333333,4,2,1,60,0,0
10225,-133.333333333333,4,2,1,5,0,0
10350,-133.333333333333,4,2,2,60,0,0
12100,-133.333333333333,4,2,3,60,0,0
12225,-133.333333333333,4,2,3,5,0,0
12350,-133.333333333333,4,2,3,60,0,0
12850,-133.333333333333,4,2,1,65,0,0
14600,-66.6666666666667,4,2,1,75,0,0
14850,-66.6666666666667,4,2,1,5,0,0
14975,-100,4,2,2,75,0,0
15225,-100,4,2,2,5,0,0
15350,-200,4,2,1,75,0,0
16100,-200,4,2,2,75,0,0
16350,-200,4,2,1,75,0,0
16600,-100,4,2,4,70,0,0
16850,-100,4,2,1,70,0,0
16975,-100,4,2,1,5,0,0
17100,-100,4,2,1,70,0,0
17475,-100,4,2,1,5,0,0
17600,-100,4,2,1,70,0,0
19850,-100,4,2,4,70,0,0
19975,-100,4,2,4,5,0,0
20100,-100,4,2,1,70,0,0
22725,-100,4,2,1,5,0,0
22850,-100,4,2,1,70,0,0
23850,-100,4,2,2,70,0,0
24100,-100,4,2,1,70,0,0
25850,-399.999999999997,4,2,1,70,0,0
26224,-399.999999999997,4,2,1,5,0,0
26350,-399.999999999997,4,2,1,70,0,0
26850,-100,4,2,1,70,0,0
27725,-100,4,2,1,5,0,0
27850,-100,4,2,2,70,0,0
27975,-100,4,2,2,5,0,0
28100,-100,4,2,1,70,0,0
28475,-100,4,2,1,5,0,0
28600,-100,4,2,1,70,0,0
28975,-100,4,2,1,5,0,0
29100,-100,4,2,1,70,0,0
29975,-100,4,2,1,5,0,0
30100,-100,4,2,1,70,0,0
31850,-100,4,2,4,70,0,0
32100,-100,4,2,1,70,0,0
32475,-100,4,2,1,5,0,0
32600,-100,4,2,1,75,0,0
32850,-100,4,2,5,75,0,0
33100,-100,4,2,1,75,0,0
33350,-100,4,2,5,75,0,0
33725,-100,4,2,5,5,0,0
33850,-100,4,2,5,75,0,0
34100,-100,4,2,1,75,0,0
34350,-100,4,2,5,75,0,0
35100,-100,4,2,2,75,0,0
35350,-100,4,2,5,75,0,0
35850,-100,4,2,2,75,0,0
36100,-100,4,2,3,75,0,0
37350,-100,4,2,1,75,0,0
39850,-100,4,2,2,75,0,0
40100,-100,4,2,1,75,0,0
40850,-100,4,2,5,75,0,0
41100,-100,4,2,2,75,0,0
41350,-100,4,2,5,75,0,0
42100,-100,4,2,2,75,0,0
42350,-100,4,2,5,75,0,0
43100,-100,4,2,2,75,0,0
43350,-100,4,2,5,75,0,0
43850,-100,4,2,2,75,0,0
44100,-100,4,2,3,75,0,0
44225,-100,4,2,3,5,0,0
44350,-100,4,2,3,75,0,0
45100,-100,4,2,1,75,0,0
46225,-100,4,2,1,5,0,0
46350,-100,4,2,3,75,0,0
46475,-100,4,2,3,5,0,0
46600,-100,4,2,3,75,0,0
46975,-100,4,2,3,5,0,0
47100,-100,4,2,3,75,0,0
47475,-100,4,2,3,5,0,0
47600,-100,4,2,3,75,0,0
47850,-100,4,2,2,75,0,0
48100,-100,4,2,3,75,0,0
48600,-399.999999999997,4,2,18,65,0,0
49474,-399.999999999997,4,2,18,5,0,0
49600,-399.999999999997,4,2,18,65,0,0
50350,-169.491525423729,4,2,18,65,0,0
50724,-169.491525423729,4,2,18,5,0,0
50850,-169.491525423729,4,2,18,65,0,0
51350,-83.3333333333333,4,2,18,65,0,0
51974,-83.3333333333333,4,2,18,5,0,0
52100,-83.3333333333333,4,2,4,65,0,0
52850,-222.222222222221,4,2,4,65,0,0
54600,-399.999999999997,4,2,4,65,0,0
56600,-153.846153846153,4,2,3,70,0,0
56974,-153.846153846153,4,2,3,5,0,0
57100,-153.846153846153,4,2,3,70,0,0
57474,-153.846153846153,4,2,3,5,0,0
57600,-153.846153846153,4,2,3,70,0,0
57974,-153.846153846153,4,2,3,5,0,0
58100,-153.846153846153,4,2,3,70,0,0
58724,-153.846153846153,4,2,3,5,0,0
58850,-153.846153846153,4,2,3,70,0,0
59350,-83.3333333333333,4,2,6,70,0,0
59724,-83.3333333333333,4,2,6,5,0,0
59850,-83.3333333333333,4,2,6,70,0,0
60100,-83.3333333333333,4,2,5,70,0,0
60224,-83.3333333333333,4,2,5,5,0,0
60350,-83.3333333333333,4,2,6,70,0,0
60600,-83.3333333333333,4,2,1,70,0,0
62850,-83.3333333333333,4,2,7,70,0,0
62974,-83.3333333333333,4,2,1,70,0,0
63100,-83.3333333333333,4,2,7,70,0,0
63224,-83.3333333333333,4,2,1,70,0,0
63350,-83.3333333333333,4,2,7,70,0,0
63474,-83.3333333333333,4,2,1,70,0,0
63600,-1000,4,2,3,70,0,0
64600,-1000,4,2,6,85,0,1
64850,-62.5,4,2,6,85,0,1
67850,-62.5,4,2,8,85,0,1
68100,-62.5,4,2,6,85,0,1
71100,-62.5,4,2,3,85,0,1
71850,-62.5,4,2,9,85,0,1
72100,-62.5,4,2,3,85,0,1
72350,-62.5,4,2,3,85,0,0
72600,-62.5,4,2,10,85,0,1
73100,-62.5,4,2,6,85,0,1
73850,-57.1428571428571,4,2,6,85,0,1
74100,-62.5,4,2,6,85,0,1
75600,-50,4,2,6,85,0,1
75850,-50,4,2,8,85,0,1
76100,-50,4,2,6,85,0,1
76600,-62.5,4,2,6,85,0,1
78975,-62.5,4,2,2,85,0,1
79100,-62.5,4,2,3,85,0,1
79475,-62.5,4,2,6,85,0,1
79975,-62.5,4,2,2,85,0,1
80100,-62.5,4,2,6,85,0,1
80225,-62.5,4,2,3,85,0,1
80600,-100,4,2,4,65,0,0
80850,-100,4,2,1,65,0,0
80975,-100,4,2,1,5,0,0
81100,-1000,4,2,1,65,0,0
82100,-100,4,2,1,65,0,0
82225,-100,4,2,1,5,0,0
82350,-100,4,2,1,65,0,0
82725,-100,4,2,1,5,0,0
82850,-100,4,2,1,65,0,0
82975,-100,4,2,1,5,0,0
83100,-100,4,2,1,65,0,0
83850,-100,4,2,4,65,0,0
84100,-100,4,2,1,65,0,0
84975,-100,4,2,1,5,0,0
85100,-100,4,2,1,65,0,0
85475,-100,4,2,1,5,0,0
85600,-100,4,2,1,65,0,0
85975,-100,4,2,1,5,0,0
86100,-100,4,2,1,65,0,0
86975,-100,4,2,1,5,0,0
87100,-100,4,2,1,65,0,0
87850,-100,4,2,4,65,0,0
88100,-100,4,2,1,65,0,0
88225,-100,4,2,1,5,0,0
88350,-100,4,2,1,65,0,0
88600,-100,4,2,1,75,0,0
88850,-100,4,2,3,75,0,0
88975,-100,4,2,3,5,0,0
89100,-100,4,2,3,75,0,0
89225,-100,4,2,3,5,0,0
89350,-100,4,2,3,75,0,0
89475,-100,4,2,3,5,0,0
89600,-100,4,2,3,75,0,0
89725,-100,4,2,3,5,0,0
89850,-100,4,2,3,75,0,0
90975,-100,4,2,3,5,0,0
91100,-100,4,2,3,75,0,0
91225,-100,4,2,3,5,0,0
91350,-100,4,2,3,75,0,0
91475,-100,4,2,3,5,0,0
91600,-100,4,2,3,75,0,0
91725,-100,4,2,3,5,0,0
91850,-100,4,2,9,75,0,0
92350,-100,4,2,5,75,0,0
93100,-100,4,2,2,75,0,0
93350,-100,4,2,5,75,0,0
93600,-40,4,2,5,75,0,0
94100,-40,4,2,2,75,0,0
94350,-40,4,2,5,75,0,0
94600,-100,4,2,5,75,0,0
95100,-100,4,2,2,75,0,0
95350,-100,4,2,5,75,0,0
95600,-100,4,2,3,75,0,0
95850,-100,4,2,2,75,0,0
96100,-100,4,2,1,75,0,0
96475,-100,4,2,1,5,0,0
96600,-1000,4,2,18,65,0,0
97100,-1000,4,2,11,65,0,0
97475,-1000,4,2,11,5,0,0
97600,-1000,4,2,11,65,0,0
97850,-1000,4,2,1,65,0,0
98100,-1000,4,2,11,65,0,0
98350,-169.491525423729,4,2,1,65,0,0
98600,-169.491525423729,4,2,12,65,0,0
98724,-169.491525423729,4,2,12,5,0,0
98850,-169.491525423729,4,2,1,65,0,0
99100,-169.491525423729,4,2,11,65,0,0
99350,-83.3333333333333,4,2,1,65,0,0
99600,-83.3333333333333,4,2,12,65,0,0
99974,-83.3333333333333,4,2,12,5,0,0
100100,-83.3333333333333,4,2,11,65,0,0
100350,-83.3333333333333,4,2,1,65,0,0
100850,-222.222222222222,4,2,1,65,0,0
101099,-222.222222222222,4,2,11,65,0,0
101349,-222.222222222222,4,2,1,65,0,0
101599,-222.222222222222,4,2,11,65,0,0
101850,-222.222222222222,4,2,1,65,0,0
102100,-222.222222222222,4,2,11,65,0,0
102350,-222.222222222222,4,2,1,65,0,0
102600,-400,4,2,11,65,0,0
102850,-400,4,2,1,65,0,0
103100,-400,4,2,12,65,0,0
103350,-400,4,2,1,65,0,0
103600,-400,4,2,11,65,0,0
103850,-400,4,2,1,65,0,0
104100,-400,4,2,11,65,0,0
104600,-153.846153846153,4,2,13,70,0,0
104974,-153.846153846153,4,2,13,5,0,0
105100,-153.846153846153,4,2,13,70,0,0
105474,-153.846153846153,4,2,13,5,0,0
105600,-153.846153846153,4,2,13,70,0,0
105974,-153.846153846153,4,2,13,5,0,0
106100,-153.846153846153,4,2,13,70,0,0
106350,-153.846153846153,4,2,3,70,0,0
106600,-153.846153846153,4,2,12,70,0,0
106724,-153.846153846153,4,2,12,5,0,0
106850,-153.846153846153,4,2,3,70,0,0
107350,-83.3333333333333,4,2,6,70,0,0
107600,-83.3333333333333,4,2,12,70,0,0
107724,-83.3333333333333,4,2,12,5,0,0
107850,-83.3333333333333,4,2,6,70,0,0
108100,-83.3333333333333,4,2,12,70,0,0
108224,-83.3333333333333,4,2,12,5,0,0
108350,-83.3333333333333,4,2,6,70,0,0
108600,-83.3333333333333,4,2,11,70,0,0
108724,-83.3333333333333,4,2,1,70,0,0
108850,-83.3333333333333,4,2,11,70,0,0
108974,-83.3333333333333,4,2,1,70,0,0
109100,-83.3333333333333,4,2,11,70,0,0
109224,-83.3333333333333,4,2,1,70,0,0
109350,-83.3333333333333,4,2,11,70,0,0
109474,-83.3333333333333,4,2,1,70,0,0
109600,-83.3333333333333,4,2,11,70,0,0
109724,-83.3333333333333,4,2,1,70,0,0
109850,-83.3333333333333,4,2,11,70,0,0
109974,-83.3333333333333,4,2,1,70,0,0
110100,-83.3333333333333,4,2,11,70,0,0
110724,-83.3333333333333,4,2,1,70,0,0
110850,-83.3333333333333,4,2,7,70,0,0
110974,-83.3333333333333,4,2,1,70,0,0
111100,-83.3333333333333,4,2,7,70,0,0
111224,-83.3333333333333,4,2,1,70,0,0
111350,-83.3333333333333,4,2,7,70,0,0
111474,-83.3333333333333,4,2,1,70,0,0
111600,-1000,4,2,3,70,0,0
112600,-1000,4,2,6,85,0,1
112850,-62.5,4,2,6,85,0,1
115850,-62.5,4,2,8,85,0,1
116100,-62.5,4,2,6,85,0,1
119100,-62.5,4,2,3,85,0,1
119850,-62.5,4,2,9,85,0,1
120100,-62.5,4,2,3,85,0,1
120350,-62.5,4,2,3,85,0,0
120600,-62.5,4,2,10,85,0,1
121100,-62.5,4,2,6,85,0,1
123600,-50,4,2,6,85,0,1
123850,-50,4,2,8,85,0,1
124100,-50,4,2,6,85,0,1
124600,-285.714285714284,4,2,6,85,0,1
125100,-62.5,4,2,6,85,0,1
126975,-62.5,4,2,2,85,0,1
127100,-62.5,4,2,3,85,0,1
127475,-62.5,4,2,6,85,0,1
127975,-62.5,4,2,2,85,0,1
128100,-62.5,4,2,6,85,0,1
128225,-62.5,4,2,3,85,0,1
128600,-62.5,4,2,5,90,0,0
128850,-62.5,4,2,12,90,0,0
129100,-62.5,4,2,14,90,0,0
129350,-62.5,4,2,12,90,0,0
129600,-62.5,4,2,14,90,0,0
129850,-62.5,4,2,12,90,0,0
130100,-62.5,4,2,14,90,0,0
130475,-62.5,4,2,12,90,0,0
130850,-62.5,4,2,14,90,0,0
130975,-62.5,4,2,12,90,0,0
131100,-62.5,4,2,15,90,0,0
131433,-62.5,4,2,6,90,0,0
131475,-62.5,4,2,12,90,0,0
131600,-222.222222222221,4,2,14,90,0,0
131766,-222.222222222221,4,2,6,90,0,0
131850,-222.222222222221,4,2,16,90,0,0
131933,-222.222222222221,4,2,6,90,0,0
132100,-222.222222222221,4,2,14,90,0,0
132266,-222.222222222221,4,2,6,90,0,0
132350,-222.222222222221,4,2,12,90,0,0
132433,-222.222222222221,4,2,6,90,0,0
132600,-222.222222222221,4,2,14,90,0,0
132850,-40,4,2,17,90,0,0
132975,-40,4,2,12,90,0,0
133100,-40,4,2,15,90,0,0
133600,-222.222222222221,4,2,14,90,0,0
133766,-222.222222222221,4,2,6,90,0,0
133850,-222.222222222221,4,2,12,90,0,0
133933,-222.222222222221,4,2,6,90,0,0
134100,-222.222222222221,4,2,14,90,0,0
134266,-222.222222222221,4,2,6,90,0,0
134350,-222.222222222221,4,2,16,90,0,0
134433,-222.222222222221,4,2,6,90,0,0
134600,-222.222222222221,4,2,14,90,0,0
134850,-40,4,2,17,90,0,0
134975,-40,4,2,12,90,0,0
135100,-40,4,2,15,90,0,0
135600,-62.5,4,2,14,90,0,0
135975,-62.5,4,2,12,90,0,0
136100,-62.5,4,2,14,90,0,0
136475,-62.5,4,2,12,90,0,0
136600,-62.5,4,2,14,90,0,0
136850,-62.5,4,2,12,90,0,0
137100,-62.5,4,2,14,90,0,0
137475,-62.5,4,2,12,90,0,0
137600,-62.5,4,2,14,90,0,0
137850,-62.5,4,2,12,90,0,0
138100,-62.5,4,2,14,90,0,0
138475,-62.5,4,2,12,90,0,0
138850,-62.5,4,2,14,90,0,0
138975,-62.5,4,2,12,90,0,0
139100,-62.5,4,2,15,90,0,0
139600,-222.222222222221,4,2,14,90,0,0
139766,-222.222222222221,4,2,6,90,0,0
139850,-222.222222222221,4,2,16,90,0,0
139933,-222.222222222221,4,2,6,90,0,0
140100,-222.222222222221,4,2,14,90,0,0
140266,-222.222222222221,4,2,6,90,0,0
140350,-222.222222222221,4,2,12,90,0,0
140433,-222.222222222221,4,2,6,90,0,0
140600,-62.5,4,2,14,90,0,0
140850,-62.5,4,2,12,90,0,0
141100,-62.5,4,2,15,90,0,0
141350,-62.5,4,2,14,90,0,0
141850,-62.5,4,2,12,90,0,0
142100,-62.5,4,2,15,90,0,0
142600,-62.5,4,2,12,90,0,0
142850,-62.5,4,2,14,90,0,0
142975,-62.5,4,2,5,90,0,0
143100,-62.5,4,2,7,90,0,0
143475,-62.5,4,2,12,90,0,0
143600,-62.5,4,2,14,90,0,0
143850,-62.5,4,2,8,90,0,0
143975,-62.5,4,2,5,90,0,0
144100,-62.5,4,2,9,90,0,0
144225,-62.5,4,2,7,90,0,0
144475,-62.5,4,2,4,90,0,0
144600,-1000,4,2,7,80,0,0
145350,-83.3333333333333,4,2,18,80,0,0
145412,-83.3333333333333,4,2,19,80,0,0
145600,-83.3333333333333,4,2,18,80,0,0
145850,-83.3333333333333,4,2,7,80,0,0
147350,-83.3333333333333,4,2,19,80,0,0
148850,-83.3333333333333,4,2,7,80,0,0
149350,-83.3333333333333,4,2,18,80,0,0
149412,-83.3333333333333,4,2,19,80,0,0
149600,-83.3333333333333,4,2,18,80,0,0
149850,-83.3333333333333,4,2,7,80,0,0
151350,-83.3333333333333,4,2,19,80,0,0
152350,-83.3333333333333,4,2,7,80,0,0
153100,-1000,4,2,7,80,0,0
153350,-1000,4,2,18,80,0,0
153412,-1000,4,2,19,80,0,0
153600,-1000,4,2,18,80,0,0
153850,-1000,4,2,7,80,0,0
154225,-1000,4,2,7,5,0,0
154350,-1000,4,2,7,80,0,0
154975,-1000,4,2,7,5,0,0
155100,-1000,4,2,7,80,0,0
155350,-1000,4,2,19,80,0,0
156350,-83.3333333333333,4,2,19,80,0,0
156850,-83.3333333333333,4,2,7,80,0,0
157350,-83.3333333333333,4,2,18,80,0,0
157412,-83.3333333333333,4,2,19,80,0,0
157600,-83.3333333333333,4,2,18,80,0,0
157850,-83.3333333333333,4,2,7,80,0,0
157974,-83.3333333333333,4,2,7,5,0,0
158100,-83.3333333333333,4,2,7,80,0,0
159350,-83.3333333333333,4,2,19,80,0,0
160350,-83.3333333333333,4,2,10,80,0,0
160600,-83.3333333333333,4,2,18,70,0,0
168600,-133.333333333333,4,2,1,70,0,0
169100,-133.333333333333,4,2,20,70,0,0
172100,-71.4285714285714,4,2,20,70,0,0
172850,-83.3333333333333,4,2,21,70,0,0
172974,-83.3333333333333,4,2,1,70,0,0
173100,-83.3333333333333,4,2,21,70,0,0
173224,-83.3333333333333,4,2,1,70,0,0
173350,-83.3333333333333,4,2,21,70,0,0
173474,-83.3333333333333,4,2,1,70,0,0
173600,-83.3333333333333,4,2,21,70,0,0
173724,-83.3333333333333,4,2,1,70,0,0
173850,-83.3333333333333,4,2,21,70,0,0
173974,-83.3333333333333,4,2,1,70,0,0
174100,-83.3333333333333,4,2,21,70,0,0
174224,-83.3333333333333,4,2,1,70,0,0
174850,-83.3333333333333,4,2,7,70,0,0
174974,-83.3333333333333,4,2,1,70,0,0
175100,-83.3333333333333,4,2,22,70,0,0
175224,-83.3333333333333,4,2,1,70,0,0
175350,-83.3333333333333,4,2,7,70,0,0
175474,-83.3333333333333,4,2,1,70,0,0
175600,-1000,4,2,3,70,0,0
176350,-40,4,2,3,70,0,0
176475,-40,4,2,3,5,0,0
176600,-62.5,4,2,8,90,0,1
176850,-62.5,4,2,12,90,0,1
177100,-62.5,4,2,14,90,0,1
177350,-62.5,4,2,12,90,0,1
177600,-62.5,4,2,14,90,0,1
177850,-62.5,4,2,12,90,0,1
178100,-62.5,4,2,14,90,0,1
178475,-62.5,4,2,12,90,0,1
178850,-62.5,4,2,14,90,0,1
178975,-62.5,4,2,12,90,0,1
179100,-62.5,4,2,15,90,0,1
179433,-62.5,4,2,6,90,0,1
179475,-62.5,4,2,12,90,0,1
179600,-222.222222222221,4,2,14,90,0,1
179766,-222.222222222221,4,2,6,90,0,1
179850,-222.222222222221,4,2,16,90,0,1
179933,-222.222222222221,4,2,6,90,0,1
180100,-222.222222222221,4,2,14,90,0,1
180266,-222.222222222221,4,2,6,90,0,1
180350,-222.222222222221,4,2,12,90,0,1
180433,-222.222222222221,4,2,6,90,0,1
180600,-222.222222222221,4,2,14,90,0,1
180850,-40,4,2,17,90,0,1
180975,-40,4,2,12,90,0,1
181100,-40,4,2,15,90,0,1
181600,-222.222222222221,4,2,14,90,0,1
181766,-222.222222222221,4,2,6,90,0,1
181850,-222.222222222221,4,2,12,90,0,1
181933,-222.222222222221,4,2,6,90,0,1
182100,-222.222222222221,4,2,14,90,0,1
182266,-222.222222222221,4,2,6,90,0,1
182350,-222.222222222221,4,2,12,90,0,1
182433,-222.222222222221,4,2,6,90,0,1
182600,-222.222222222221,4,2,14,90,0,1
182850,-40,4,2,17,90,0,1
182975,-40,4,2,12,90,0,1
183100,-40,4,2,15,90,0,1
183600,-62.5,4,2,14,90,0,1
183850,-62.5,4,2,23,90,0,1
183975,-62.5,4,2,12,90,0,1
184100,-62.5,4,2,14,90,0,1
184350,-62.5,4,2,14,90,0,0
184475,-62.5,4,2,12,90,0,0
184600,-62.5,4,2,14,90,0,1
184850,-62.5,4,2,12,90,0,1
185100,-62.5,4,2,14,90,0,1
185475,-62.5,4,2,12,90,0,1
185600,-62.5,4,2,14,90,0,1
185850,-62.5,4,2,12,90,0,1
186100,-62.5,4,2,14,90,0,1
186475,-62.5,4,2,12,90,0,1
186850,-62.5,4,2,14,90,0,1
186975,-62.5,4,2,12,90,0,1
187100,-62.5,4,2,15,90,0,1
187600,-222.222222222221,4,2,14,90,0,1
187766,-222.222222222221,4,2,6,90,0,1
187850,-222.222222222221,4,2,16,90,0,1
187933,-222.222222222221,4,2,6,90,0,1
188100,-222.222222222221,4,2,14,90,0,1
188266,-222.222222222221,4,2,6,90,0,1
188350,-222.222222222221,4,2,12,90,0,1
188433,-222.222222222221,4,2,6,90,0,1
188600,-62.5,4,2,14,90,0,1
188850,-62.5,4,2,12,90,0,1
189100,-62.5,4,2,15,90,0,1
189350,-62.5,4,2,14,90,0,1
189850,-62.5,4,2,12,90,0,1
190100,-62.5,4,2,15,90,0,1
190600,-62.5,4,2,12,90,0,1
190850,-62.5,4,2,14,90,0,1
190975,-62.5,4,2,5,90,0,1
191100,-62.5,4,2,7,90,0,1
191475,-62.5,4,2,12,90,0,1
191600,-62.5,4,2,14,90,0,1
191850,-62.5,4,2,8,90,0,0
191975,-62.5,4,2,5,90,0,0
192100,-62.5,4,2,9,90,0,0
192225,-62.5,4,2,7,90,0,0
192475,-62.5,4,2,4,90,0,0
192600,-76.9230769230769,4,2,5,90,0,1
192725,-76.9230769230769,4,2,5,90,0,0
192850,-76.9230769230769,4,2,12,90,0,0
193100,-76.9230769230769,4,2,15,90,0,0
193350,-76.9230769230769,4,2,12,90,0,0
193600,-76.9230769230769,4,2,13,90,0,0
193849,-76.9230769230769,4,2,12,90,0,0
193975,-76.9230769230769,4,2,13,90,0,0
194349,-76.9230769230769,4,2,12,90,0,0
194475,-76.9230769230769,4,2,13,90,0,0
194600,-76.9230769230769,4,2,12,90,0,0
195100,-76.9230769230769,4,2,15,90,0,0
195350,-76.9230769230769,4,2,13,90,0,0
195474,-76.9230769230769,4,2,12,90,0,0
195600,-76.9230769230769,4,2,13,90,0,0
195849,-76.9230769230769,4,2,16,90,0,0
196100,-76.9230769230769,4,2,13,90,0,0
196349,-76.9230769230769,4,2,12,90,0,0
196850,-76.9230769230769,4,2,13,90,0,0
196974,-76.9230769230769,4,2,12,90,0,0
197100,-76.9230769230769,4,2,15,90,0,0
197225,-76.9230769230769,4,2,3,90,0,0
197349,-76.9230769230769,4,2,12,90,0,0
197475,-76.9230769230769,4,2,13,90,0,0
197600,-76.9230769230769,4,2,12,90,0,0
198100,-76.9230769230769,4,2,15,90,0,0
198600,-76.9230769230769,4,2,12,90,0,0
199100,-76.9230769230769,4,2,15,90,0,0
199600,-76.9230769230769,4,2,13,90,0,0
199850,-76.9230769230769,4,2,24,90,0,0
199974,-76.9230769230769,4,2,12,90,0,0
200100,-76.9230769230769,4,2,13,90,0,0
200849,-76.9230769230769,4,2,12,90,0,0
201100,-76.9230769230769,4,2,15,90,0,0
201350,-76.9230769230769,4,2,13,90,0,0
201474,-76.9230769230769,4,2,12,90,0,0
201600,-76.9230769230769,4,2,13,90,0,0
201849,-76.9230769230769,4,2,12,90,0,0
202100,-76.9230769230769,4,2,15,90,0,0
202600,-76.9230769230769,4,2,12,90,0,0
203100,-76.9230769230769,4,2,15,90,0,0
203600,-76.9230769230769,4,2,13,90,0,0
203849,-76.9230769230769,4,2,16,90,0,0
204100,-76.9230769230769,4,2,15,90,0,0
204600,-76.9230769230769,4,2,12,90,0,0
204850,-76.9230769230769,4,2,13,90,0,0
204974,-76.9230769230769,4,2,12,90,0,0
205100,-76.9230769230769,4,2,15,90,0,0
205600,-76.9230769230769,4,2,12,90,0,0
206100,-76.9230769230769,4,2,15,90,0,0
206600,-76.9230769230769,4,2,10,90,0,0
206850,-76.9230769230769,4,2,14,90,0,0
206975,-76.9230769230769,4,2,5,90,0,0
207100,-62.5,4,2,14,90,0,0
207350,-62.5,4,2,7,90,0,0
207475,-62.5,4,2,14,90,0,0
207850,-62.5,4,2,11,90,0,0
207975,-62.5,4,2,12,90,0,0
208100,-62.5,4,2,9,90,0,0
208225,-62.5,4,2,2,90,0,0
208350,-62.5,4,2,13,90,0,0

[Colours]
Combo1 : 175,28,20
Combo2 : 255,213,66
Combo3 : 0,74,0
Combo4 : 244,72,244
Combo5 : 1,151,177
SliderTrackOverride : 48,43,70
SliderBorder : 231,218,180

[HitObjects]
512,363,600,6,0,P|479:368|442:375,1,67.5000025749208,4|0,2:0|2:0,2:0:0:0:
445,374,850,1,2,2:0:0:0:
466,295,1100,1,2,2:0:0:0:
403,239,1350,1,2,2:0:0:0:
420,154,1600,2,0,B|316:141|370:222|263:211,1,168.750006437302,2|0,2:0|2:0,2:0:0:0:
201,188,2350,6,0,P|232:227|225:281,1,101.250003862381,2|0,2:0|2:0,2:0:0:0:
110,341,2850,2,0,P|90:296|116:244,1,101.250003862381,2|0,2:0|2:0,2:0:0:0:
201,188,3287,6,0,B|252:169|277:220|232:265|171:204|171:204|124:157|70:184,1,270.000010299683,2|0,2:0|2:0,2:0:0:0:
4,258,3850,6,0,L|6:235,1,22.5,2|0,2:0|2:0,2:0:0:0:
6,236,4600,5,0,2:0:0:0:
88,290,4850,1,2,2:0:0:0:
154,224,5100,1,2,2:0:0:0:
238,264,5350,1,2,2:0:0:0:
320,206,5600,2,0,P|353:209|392:212,2,67.5000025749208,2|0|0,2:0|2:0|2:0,2:0:0:0:
446,262,6350,6,0,P|465:219|449:165,1,101.250003862381,2|0,2:0|2:0,2:0:0:0:
352,45,6850,2,0,P|332:87|349:142,1,101.250003862381,2|0,2:0|2:0,2:0:0:0:
451,168,7350,1,2,2:0:0:0:
485,130,7475,1,0,2:0:0:0:
460,86,7600,1,0,2:0:0:0:
410,97,7725,1,0,2:0:0:0:
405,148,7850,2,0,B|308:158|359:78|253:82,1,168.750006437302,2|0,2:0|2:0,2:0:0:0:
260,81,8600,5,0,2:0:0:0:
195,16,8850,1,2,2:0:0:0:
108,59,9100,1,2,2:0:0:0:
127,154,9350,1,2,2:0:0:0:
224,163,9600,2,0,B|262:201|262:201|230:317,1,168.750006437302,2|0,2:0|2:0,2:0:0:0:
164,384,10350,6,0,L|99:363,1,67.5000025749208,2|0,2:0|2:0,2:0:0:0:
83,264,10766,1,0,2:0:0:0:
83,264,10850,2,0,L|132:218,1,67.5000025749208,2|0,2:0|2:0,2:0:0:0:
217,246,11266,1,0,2:0:0:0:
217,246,11350,2,0,L|231:311,1,67.5000025749208,2|0,2:0|2:0,2:0:0:0:
155,304,11766,1,0,2:0:0:0:
155,304,11850,1,2,2:0:0:0:
129,164,12100,6,0,L|124:215,1,33.7500012874604,2|0,2:0|2:0,2:0:0:0:
138,151,12350,2,0,L|131:229,1,67.5000025749208,2|0,2:0|2:0,2:0:0:0:
235,284,12766,5,0,2:0:0:0:
235,284,12850,2,0,P|272:282|301:264,1,67.5000025749208,2|2,2:0|2:0,2:0:0:0:
352,138,13266,1,0,2:0:0:0:
352,138,13350,2,0,P|326:167|319:200,1,67.5000025749208,2|2,2:0|2:0,2:0:0:0:
425,245,13766,1,0,2:0:0:0:
425,245,13850,2,0,B|389:232|355:253|371:259|337:282|291:265,1,135.000005149842,2|2,2:0|2:0,2:0:0:0:
487,197,14600,6,0,P|493:129|499:55,1,135.000005149842,8|0,2:3|2:0,2:0:0:0:
425,245,14975,6,0,P|464:272|506:301,1,90,8|0,2:3|2:0,2:0:0:0:
416,168,15350,6,0,P|392:179|367:191,1,45,6|2,2:3|2:0,2:0:0:0:
364,331,15850,5,10,2:3:0:0:
359,321,15975,1,8,2:3:0:0:
315,253,16100,1,14,2:3:0:0:
320,243,16225,1,8,2:3:0:0:
376,188,16350,1,6,2:3:0:0:
372,175,16475,1,4,2:3:0:0:
270,94,16600,6,0,B|299:108|299:108|372:86|372:86|408:98,1,135,6|0,3:2|2:0,2:0:0:0:
404,20,17100,2,0,B|374:7|374:7|301:29|301:29|270:16,1,135,2|0,1:2|2:0,2:0:0:0:
276,18,17600,1,2,3:2:0:0:
194,79,17850,1,10,2:0:0:0:
235,174,18100,1,2,1:2:0:0:
186,265,18350,2,0,B|210:283|210:283|277:271,3,90,10|0|8|0,2:0|3:0|2:0|1:0,2:0:0:0:
342,119,19350,5,10,2:0:0:0:
351,259,19600,1,2,3:2:0:0:
426,140,19850,2,0,L|471:144,1,45,10|0,2:0|2:0,2:0:0:0:
295,193,20100,1,2,1:2:0:0:
433,227,20350,1,10,2:0:0:0:
254,116,20600,6,0,B|142:107|202:186|97:182,1,180,2|0,3:2|1:0,2:0:0:0:
106,100,21350,1,10,2:0:0:0:
21,210,21600,2,0,P|11:169|36:128,3,90,2|8|0|8,3:2|2:0|1:0|2:0,2:0:0:0:
143,185,22600,6,0,L|87:180,1,45,2|0,3:2|2:0,2:0:0:0:
198,119,22850,1,10,2:0:0:0:
179,262,23100,1,2,1:2:0:0:
315,216,23350,1,10,2:0:0:0:
233,195,23600,1,2,3:2:0:0:
283,340,23850,2,0,L|335:344,1,45,8|0,2:0|2:0,2:0:0:0:
179,262,24100,1,6,1:2:0:0:
383,170,24350,6,0,P|400:210|389:252,3,90,10|0|8|0,2:0|3:0|2:0|1:0,2:0:0:0:
234,161,25350,2,0,P|263:130|307:125,1,90,8|0,2:0|3:0,2:0:0:0:
296,285,25850,2,0,P|278:279|260:263,1,33.75,10|0,2:0|2:0,2:0:0:0:
316,209,26350,5,10,2:0:0:0:
271,360,26600,1,2,3:2:0:0:
316,209,26850,2,0,L|404:201,1,90,10|0,2:0|1:0,2:0:0:0:
303,52,27350,1,10,2:0:0:0:
298,57,27475,1,2,2:0:0:0:
293,62,27600,2,0,L|297:107,1,45,2|0,3:2|2:0,2:0:0:0:
405,201,27850,2,0,L|409:155,1,45,8|0,2:0|2:0,2:0:0:0:
183,160,28100,6,0,B|227:141|254:168|243:173|270:200|310:184,1,135,2|0,1:2|2:0,2:0:0:0:
308,176,28600,2,0,B|272:191|245:164|256:159|228:133|181:153,1,135,2|0,3:2|2:0,2:0:0:0:
204,231,29100,1,2,1:2:0:0:
176,74,29350,1,10,2:0:0:0:
77,231,29600,2,0,B|106:245|106:245|179:223|179:223|215:235,1,135,2|0,3:2|2:0,2:0:0:0:
292,236,30100,2,0,B|285:282|285:282|246:308,2,90,2|8|0,1:2|2:0|3:0,2:0:0:0:
188,140,30850,5,10,2:0:0:0:
292,236,31100,1,2,1:2:0:0:
333,101,31350,1,10,2:0:0:0:
269,155,31600,1,2,3:2:0:0:
223,0,31850,2,0,L|172:4,1,45,10|0,2:0|2:0,2:0:0:0:
333,101,32100,2,0,B|368:124|399:95|385:86|425:57|461:73,1,135,6|0,1:2|2:0,2:0:0:0:
443,155,32600,5,0,3:0:0:0:
269,59,32850,2,0,P|255:104|270:150,1,90,10|0,2:0|1:0,2:0:0:0:
352,302,33350,1,10,2:0:0:0:
347,297,33475,1,2,2:0:0:0:
342,292,33600,2,0,L|286:296,1,45,2|0,3:2|2:0,2:0:0:0:
401,233,33850,2,0,L|497:241,1,90,10|0,2:0|1:0,2:0:0:0:
274,109,34350,5,10,2:0:0:0:
265,160,34475,1,2,2:0:0:0:
311,185,34600,1,2,3:2:0:0:
346,147,34725,1,2,2:0:0:0:
325,100,34850,2,0,L|368:96,1,45,10|0,2:0|2:0,2:0:0:0:
475,243,35100,5,2,1:2:0:0:
512,204,35225,1,2,2:0:0:0:
487,155,35350,1,10,2:0:0:0:
434,165,35475,1,2,2:0:0:0:
425,218,35600,2,0,L|380:221,1,45,2|0,3:2|2:0,2:0:0:0:
280,96,35850,2,0,L|324:99,1,45,10|0,2:0|2:0,2:0:0:0:
420,213,36100,6,0,L|375:216,1,45,2|0,1:2|2:0,2:0:0:0:
285,101,36350,2,0,L|329:104,1,45,10|0,2:0|2:0,2:0:0:0:
308,264,36600,6,0,P|291:224|300:181,2,90,0|8|0,3:0|2:0|1:0,2:0:0:0:
390,54,37350,2,0,L|345:57,1,45,10|0,2:0|2:0,2:0:0:0:
435,171,37600,1,2,3:2:0:0:
345,57,37850,2,0,L|390:54,1,45,10|2,2:0|2:0,2:0:0:0:
435,171,38100,2,0,B|406:186|406:186|333:164|333:164|299:181,1,135,2|2,1:2|2:0,2:0:0:0:
332,309,38600,5,2,3:2:0:0:
337,304,38725,1,2,2:0:0:0:
342,299,38850,2,0,L|337:253,1,45,10|0,2:0|2:0,2:0:0:0:
240,155,39100,1,2,1:2:0:0:
206,295,39350,1,10,2:0:0:0:
236,110,39600,6,0,L|240:160,1,45,2|0,3:2|2:0,2:0:0:0:
206,295,39850,2,0,L|210:244,1,45,8|2,2:0|0:3,2:0:0:0:
70,200,40100,2,0,P|106:174|160:183,2,90,6|8|0,1:2|2:0|3:0,2:0:0:0:
127,361,40850,5,10,2:0:0:0:
70,200,41100,2,0,L|74:249,1,45,2|0,1:2|2:0,2:0:0:0:
127,366,41350,1,10,2:0:0:0:
182,200,41600,2,0,L|178:249,1,45,2|0,3:2|2:0,2:0:0:0:
127,371,41850,1,10,2:0:0:0:
70,200,42100,5,2,1:2:0:0:
94,176,42225,1,2,2:0:0:0:
127,170,42350,1,10,2:0:0:0:
160,175,42475,1,2,2:0:0:0:
182,200,42600,6,0,L|178:249,1,45,2|0,3:2|2:0,2:0:0:0:
136,92,42850,1,10,2:0:0:0:
141,87,42975,2,0,L|188:95,1,45,2|0,2:0|1:0,2:0:0:0:
336,219,43225,1,2,2:0:0:0:
330,223,43350,2,0,L|282:214,1,45,10|2,2:0|2:0,2:0:0:0:
295,103,43600,1,2,3:2:0:0:
300,98,43725,1,2,2:0:0:0:
306,93,43850,2,0,L|353:97,1,45,10|0,2:0|2:0,2:0:0:0:
182,200,44100,2,0,L|137:203,1,45,2|0,1:2|2:0,2:0:0:0:
240,152,44350,1,10,2:0:0:0:
296,370,44600,5,0,3:0:0:0:
323,350,44725,1,0,2:0:0:0:
356,356,44850,1,8,2:0:0:0:
345,146,45100,6,0,L|352:222,2,72,2|2|2,1:2|2:0|2:0,2:0:0:0:
389,78,45600,1,2,3:2:0:0:
455,195,45850,1,10,2:0:0:0:
509,76,46100,2,0,L|513:124,1,45,2|0,1:2|2:0,2:0:0:0:
455,195,46350,2,0,L|503:200,1,45,10|0,2:0|2:0,2:0:0:0:
389,78,46600,6,0,L|250:89,1,135,2|0,3:2|2:0,2:0:0:0:
199,147,47100,2,0,B|167:115|167:115|194:21,1,135,2|0,1:2|2:0,2:0:0:0:
191,28,47600,1,2,3:2:0:0:
276,207,47850,2,0,L|272:162,1,45,8|0,2:0|2:0,2:0:0:0:
355,45,48100,1,6,1:2:0:0:
272,81,48350,1,10,2:0:0:0:
432,13,48600,6,0,B|456:9|474:22|465:24|487:41|514:33,1,78.75,4|0,2:0|2:0,2:0:0:0:
505,34,49600,1,2,2:0:0:0:
466,106,49850,1,2,2:0:0:0:
512,172,50100,1,2,2:0:0:0:
395,235,50350,6,0,P|434:238|474:241,1,79.6499972046662,2|0,2:0|2:0,2:0:0:0:
474,241,50850,1,2,2:0:0:0:
512,172,51100,1,2,2:0:0:0:
456,114,51350,6,0,B|476:85|514:87|514:87|453:50|414:89|414:89|370:133|319:105,1,269.999991760254,2|0,2:0|2:0,2:0:0:0:
328,109,52100,1,2,1:2:0:0:
352,35,52350,1,2,2:0:0:0:
352,35,52850,6,0,L|300:40,3,40.4999987640381,2|2|2|2,2:0|2:0|2:0|2:0,2:0:0:0:
256,97,53850,1,2,2:0:0:0:
303,162,54100,1,2,2:0:0:0:
248,221,54350,1,2,2:0:0:0:
293,288,54600,2,0,B|343:283,1,45,2|0,2:0|2:0,2:0:0:0:
466,191,55350,5,2,2:0:0:0:
492,265,55600,1,2,2:0:0:0:
417,292,55850,1,2,2:0:0:0:
389,217,56100,1,2,1:2:0:0:
389,217,56600,6,0,P|343:210|302:242,1,87.749995983124,10|0,2:0|2:0,2:0:0:0:
282,303,57100,2,0,P|299:345|347:365,1,87.749995983124,10|0,2:0|2:0,2:0:0:0:
411,353,57600,2,0,P|438:316|432:265,1,87.749995983124,10|0,2:0|2:0,2:0:0:0:
361,291,58100,1,10,2:0:0:0:
264,218,58350,2,0,P|221:235|201:283,1,87.749995983124,2|0,2:0|2:0,2:0:0:0:
202,270,58850,1,2,2:0:0:0:
26,30,59350,6,0,B|78:7|111:39|98:45|130:78|178:58,1,161.999995056153,2|0,2:0|2:0,2:0:0:0:
173,49,59850,2,0,B|131:67|102:35|111:29|81:-1|23:20,1,161.999995056153,2|0,2:0|2:0,2:0:0:0:
53,98,60350,1,2,2:0:0:0:
245,14,60600,5,10,2:0:0:0:
264,50,60725,1,2,2:0:0:0:
254,93,60850,1,10,2:0:0:0:
218,117,60975,1,2,2:0:0:0:
195,153,61100,1,10,2:0:0:0:
201,196,61225,1,2,2:0:0:0:
230,224,61350,6,0,L|283:219,1,53.9999983520508,10|2,2:0|2:0,2:0:0:0:
179,52,61600,2,0,L|125:56,1,53.9999983520508,10|2,2:0|2:0,2:0:0:0:
237,231,61850,2,0,L|290:226,1,53.9999983520508,10|2,2:0|2:0,2:0:0:0:
171,297,62100,2,0,L|212:330,1,53.9999983520508,10|2,2:0|2:0,2:0:0:0:
81,287,62350,2,0,L|86:355,1,53.9999983520508,10|2,2:0|2:0,2:0:0:0:
79,146,62600,5,10,2:0:0:0:
74,151,62725,1,2,2:0:0:0:
69,156,62850,2,0,L|74:222,1,53.9999983520508,10|2,2:0|2:0,2:0:0:0:
207,118,63100,2,0,L|146:89,1,53.9999983520508,10|2,2:0|2:0,2:0:0:0:
186,255,63350,2,0,L|240:216,1,53.9999983520508,10|2,2:0|2:0,2:0:0:0:
150,177,63600,6,0,L|151:185,3,9,2|2|2|2,2:0|2:0|2:0|2:0,2:0:0:0:
325,34,64600,5,6,3:2:0:0:
340,71,64725,1,2,2:0:0:0:
332,110,64850,2,0,P|297:121|258:108,1,72,10|2,2:0|2:0,2:0:0:0:
444,17,65100,2,0,P|479:6|518:19,1,72,10|2,1:2|2:0,2:0:0:0:
332,110,65350,2,0,P|297:121|258:108,1,72,10|2,2:0|2:0,2:0:0:0:
444,17,65600,1,10,3:2:0:0:
506,221,65850,2,0,P|478:196|470:155,1,72,10|0,2:0|2:0,2:0:0:0:
275,2,66100,2,0,P|333:42|322:124,1,144,10|8,1:2|2:0,2:0:0:0:
165,384,66600,5,10,3:2:0:0:
159,362,66725,1,2,2:0:0:0:
153,340,66850,2,0,L|221:315,1,72,10|2,2:0|2:0,2:0:0:0:
64,183,67100,2,0,L|53:255,1,72,10|2,1:2|2:0,2:0:0:0:
245,182,67350,2,0,L|190:137,1,72,10|2,2:0|2:0,2:0:0:0:
153,340,67600,1,10,3:2:0:0:
311,68,67850,2,0,L|240:74,1,72,10|0,2:0|2:0,2:0:0:0:
244,269,68100,2,0,B|300:264|300:264|316:244|316:244|381:238,1,144,10|10,1:2|2:0,2:0:0:0:
425,176,68475,1,2,2:0:0:0:
430,181,68600,2,0,B|464:215|464:215|437:317,1,144,8|8,3:2|2:0,2:0:0:0:
455,96,69100,6,0,B|398:91|398:91|374:111|374:111|312:105,1,144,10|8,1:2|2:0,2:0:0:0:
453,89,69600,2,0,B|396:84|396:84|372:104|372:104|310:98,1,144,10|8,3:2|2:0,2:0:0:0:
246,0,69975,1,0,2:0:0:0:
241,6,70100,2,0,B|245:62|245:62|225:86|225:86|231:148,1,144,10|10,1:2|2:0,2:0:0:0:
102,194,70475,1,2,2:0:0:0:
107,189,70600,2,0,B|142:179|142:179|207:225|207:225|244:217,1,144,8|8,3:2|2:0,2:0:0:0:
61,119,71100,6,0,B|27:137|27:137|19:173,1,72,10|0,1:2|2:0,2:0:0:0:
145,105,71350,2,0,B|159:72|159:72|146:35,1,72,10|0,2:0|2:0,2:0:0:0:
162,265,71600,1,10,3:2:0:0:
196,227,71725,1,0,2:0:0:0:
170,184,71850,1,10,2:0:0:0:
120,195,71975,1,0,2:0:0:0:
115,245,72100,2,0,P|78:242|38:238,1,72,10|2,1:2|2:0,2:0:0:0:
228,123,72350,2,0,P|263:119|298:116,1,72,10|0,2:0|2:0,2:0:0:0:
349,315,72600,5,14,3:2:0:0:
343,276,72725,1,2,2:0:0:0:
337,237,72850,2,0,P|301:240|265:244,1,72,10|2,2:0|2:0,2:0:0:0:
120,384,73100,1,10,1:2:0:0:
159,378,73225,1,2,2:0:0:0:
198,372,73350,2,0,P|195:336|191:300,1,72,10|2,2:0|2:0,2:0:0:0:
131,162,73600,1,10,3:2:0:0:
120,384,73850,2,0,L|223:368,1,78.7500007510185,10|0,2:0|2:0,2:0:0:0:
131,162,74100,2,0,B|88:135|55:168|69:172|37:204|-7:180,1,144,10|8,1:2|2:0,2:0:0:0:
328,0,74600,6,0,P|344:35|337:76,1,72,10|0,3:2|2:0,2:0:0:0:
217,222,74850,1,10,2:0:0:0:
159,176,74975,1,2,2:0:0:0:
183,109,75100,1,10,1:2:0:0:
256,111,75225,1,2,2:0:0:0:
276,181,75350,1,10,2:0:0:0:
346,204,75475,1,2,2:0:0:0:
417,179,75600,6,0,B|401:0,3,180,10|10|10|10,3:2|2:0|1:2|2:0,2:0:0:0:
494,235,76475,1,2,2:0:0:0:
489,240,76600,6,0,B|425:272|425:272|345:251,1,144,8|8,3:2|2:0,2:0:0:0:
430,58,77100,2,0,B|497:88|497:88|515:166,1,144,10|8,1:2|2:0,2:0:0:0:
307,188,77600,2,0,B|299:114|299:114|358:60,1,144,10|8,3:2|2:0,2:0:0:0:
494,235,77975,1,0,2:0:0:0:
489,240,78100,2,0,B|425:272|425:272|345:251,1,144,10|8,1:2|2:0,2:0:0:0:
202,21,78475,5,2,2:0:0:0:
212,11,78600,2,0,P|246:14|282:17,1,72,10|0,3:2|2:0,2:0:0:0:
146,231,78850,1,10,2:0:0:0:
138,217,78975,1,8,2:3:0:0:
130,203,79100,2,0,P|115:171|99:138,1,72,14|0,1:3|2:0,2:0:0:0:
351,156,79350,1,14,2:3:0:0:
343,170,79475,2,0,P|322:198|302:228,1,72,2|8,2:0|3:2,2:0:0:0:
94,0,79850,5,8,2:3:0:0:
89,10,79975,1,8,2:3:0:0:
45,78,80100,1,10,1:3:0:0:
50,88,80225,1,4,2:3:0:0:
106,143,80350,1,14,2:3:0:0:
102,156,80475,1,4,2:3:0:0:
0,237,80600,6,0,B|29:223|29:223|102:245|102:245|138:233,1,135,4|0,3:2|2:0,2:0:0:0:
181,171,81100,2,0,L|182:182,3,9,0|8|0|8,1:0|2:0|3:0|2:0,2:0:0:0:
172,348,82100,2,0,P|181:324|184:291,1,45,2|0,1:2|2:0,2:0:0:0:
181,171,82350,2,0,P|188:237|184:306,1,135,10|0,2:0|2:0,2:0:0:0:
279,235,82850,2,0,L|322:238,1,45,10|0,2:0|2:0,2:0:0:0:
288,356,83100,1,0,1:0:0:0:
279,235,83350,5,10,2:0:0:0:
389,287,83600,1,2,3:2:0:0:
288,356,83850,2,0,L|243:359,1,45,10|0,2:0|2:0,2:0:0:0:
279,235,84100,1,2,1:2:0:0:
288,356,84350,1,10,2:0:0:0:
389,287,84600,6,0,B|424:266|457:282|457:282|474:319|517:318,1,135,2|0,3:2|2:0,2:0:0:0:
503,326,85100,2,0,B|464:321|450:289|450:289|412:279|385:301,1,135,2|0,1:2|2:0,2:0:0:0:
303,338,85600,2,0,P|342:289|328:217,1,135,2|0,3:2|2:0,2:0:0:0:
259,267,86100,1,2,1:2:0:0:
331,221,86350,1,10,2:0:0:0:
238,123,86600,6,0,B|194:104|167:131|178:136|151:163|109:154,1,135,0|0,3:0|2:0,2:0:0:0:
104,0,87100,2,0,P|127:38|113:93,1,90,0|8,1:0|2:0,2:0:0:0:
37,179,87475,5,2,2:0:0:0:
32,169,87600,2,0,L|36:123,1,45,2|2,3:2|2:0,2:0:0:0:
61,253,87850,2,0,L|19:272,1,45,10|0,2:0|2:0,2:0:0:0:
120,185,88100,2,0,L|157:211,1,45,6|0,1:2|2:0,2:0:0:0:
92,325,88350,1,10,2:0:0:0:
125,101,88600,5,0,3:0:0:0:
203,282,88850,2,0,L|249:277,1,45,10|0,2:0|2:0,2:0:0:0:
208,289,89100,2,0,L|254:284,1,45,2|0,1:2|2:0,2:0:0:0:
120,186,89350,2,0,L|74:191,1,45,10|0,2:0|2:0,2:0:0:0:
115,179,89600,2,0,L|69:184,1,45,2|0,3:2|2:0,2:0:0:0:
208,289,89850,1,10,2:0:0:0:
213,294,89975,1,2,2:0:0:0:
218,299,90100,2,0,L|308:291,2,90,2|8|0,1:2|2:0|3:0,2:0:0:0:
361,149,90850,6,0,L|366:195,1,45,10|0,2:0|2:0,2:0:0:0:
354,154,91100,2,0,L|359:200,1,45,2|0,1:2|2:0,2:0:0:0:
449,337,91350,2,0,L|444:291,1,45,10|0,2:0|2:0,2:0:0:0:
456,332,91600,2,0,L|451:286,1,45,2|0,3:2|2:0,2:0:0:0:
354,154,91850,1,10,2:0:0:0:
349,159,91975,1,2,2:0:0:0:
344,164,92100,2,0,L|351:254,1,90,2|8,1:2|2:0,2:0:0:0:
409,19,92600,5,2,3:2:0:0:
435,61,92725,1,2,2:0:0:0:
404,99,92850,1,10,2:0:0:0:
358,80,92975,1,2,2:0:0:0:
359,31,93100,2,0,L|313:35,1,45,2|0,1:2|2:0,2:0:0:0:
124,41,93350,1,10,2:0:0:0:
129,46,93475,1,2,2:0:0:0:
134,51,93600,6,0,L|357:31,1,225,2|8,3:2|2:0,2:0:0:0:
450,241,94100,5,2,1:2:0:0:
479,201,94225,1,2,2:0:0:0:
451,160,94350,1,10,2:0:0:0:
404,175,94475,1,2,2:0:0:0:
401,224,94600,2,0,L|354:220,1,45,2|2,3:2|2:0,2:0:0:0:
293,91,94850,1,10,2:0:0:0:
298,96,94975,1,2,2:0:0:0:
303,101,95100,2,0,L|299:147,1,45,2|0,1:2|2:0,2:0:0:0:
271,287,95350,1,10,2:0:0:0:
266,282,95475,1,2,2:0:0:0:
261,277,95600,6,0,L|264:230,1,45,2|0,3:2|2:0,2:0:0:0:
306,359,95850,2,0,B|327:350|327:350|339:327,1,45,8|0,2:0|2:0,2:0:0:0:
144,338,96100,2,0,B|124:360|124:360|236:350,1,135,4|0,1:2|2:0,2:0:0:0:
143,260,96600,6,0,P|126:262|111:269,1,31.5,4|0,2:0|2:0,2:0:0:0:
112,267,97600,1,2,2:0:0:0:
69,205,97850,1,2,2:0:0:0:
127,149,98100,1,2,2:0:0:0:
43,46,98350,6,0,P|46:85|49:125,1,79.6499972046662,2|0,2:0|2:0,2:0:0:0:
49,125,98850,1,2,2:0:0:0:
127,149,99100,1,2,2:0:0:0:
195,96,99350,6,0,B|178:71|178:71|147:66|147:66|234:58|234:58|260:88|260:88|358:78,1,269.999991760254,2|0,2:0|2:0,2:0:0:0:
342,79,100100,1,2,1:2:0:0:
304,11,100350,1,2,2:0:0:0:
304,11,100850,6,0,L|356:6,3,40.4999987640381,2|2|2|2,2:0|2:0|2:0|2:0,2:0:0:0:
409,55,101850,1,2,2:0:0:0:
362,120,102100,1,2,2:0:0:0:
417,179,102350,1,2,2:0:0:0:
372,246,102600,2,0,B|322:241,1,45,2|2,2:0|2:0,2:0:0:0:
260,345,103350,5,2,2:0:0:0:
212,288,103600,1,2,2:0:0:0:
254,225,103850,1,2,2:0:0:0:
327,241,104100,1,2,1:2:0:0:
327,241,104600,6,0,B|348:254|369:249|369:249|354:232|328:232,1,87.749995983124,10|0,2:0|2:0,2:0:0:0:
244,245,105100,2,0,B|221:256|215:277|215:277|237:272|251:250,1,87.749995983124,10|0,2:0|2:0,2:0:0:0:
278,167,105600,2,0,B|282:144|264:128|264:128|258:150|270:173,1,87.749995983124,10|0,2:0|2:0,2:0:0:0:
327,241,106100,1,10,2:0:0:0:
269,170,106350,2,0,B|258:149|264:128|264:128|279:136|279:168,1,87.749995983124,2|0,2:0|2:0,2:0:0:0:
244,245,106850,1,2,2:0:0:0:
372,43,107350,6,0,B|406:25|406:25|486:77|486:77|526:57,1,161.999995056153,2|0,2:0|2:0,2:0:0:0:
512,55,107850,2,0,B|486:67|486:67|407:16|407:16|372:33,1,161.999995056153,2|0,2:0|2:0,2:0:0:0:
402,109,108350,1,2,2:0:0:0:
194,0,108600,6,0,L|250:4,1,53.9999983520508,10|2,2:0|2:0,2:0:0:0:
198,7,108850,2,0,L|254:11,1,53.9999983520508,10|2,2:0|2:0,2:0:0:0:
159,159,109100,6,0,L|134:107,1,53.9999983520508,10|2,2:0|2:0,2:0:0:0:
163,152,109350,2,0,L|138:100,1,53.9999983520508,10|2,2:0|2:0,2:0:0:0:
313,126,109600,6,0,L|280:172,1,53.9999983520508,10|2,2:0|2:0,2:0:0:0:
304,126,109850,2,0,L|271:172,1,53.9999983520508,10|2,2:0|2:0,2:0:0:0:
212,318,110100,5,10,2:0:0:0:
160,301,110225,1,2,2:0:0:0:
160,247,110350,1,10,2:0:0:0:
212,230,110475,1,2,2:0:0:0:
247,272,110600,6,0,P|275:277|301:267,1,53.9999983520508,10|2,2:0|2:0,2:0:0:0:
380,79,110850,2,0,P|372:106|380:133,1,53.9999983520508,10|2,2:0|2:0,2:0:0:0:
314,182,111100,2,0,P|334:202|361:208,1,53.9999983520508,10|2,2:0|2:0,2:0:0:0:
374,289,111350,2,0,P|401:281|420:261,1,53.9999983520508,10|2,2:0|2:0,2:0:0:0:
459,185,111600,6,0,L|451:186,3,9,2|2|2|2,2:0|2:0|2:0|2:0,2:0:0:0:
276,38,112600,5,6,3:2:0:0:
261,75,112725,1,2,2:0:0:0:
269,114,112850,2,0,B|305:125|305:125|344:114,1,72,10|2,2:0|2:0,2:0:0:0:
503,13,113100,2,0,B|469:30|469:30|449:66,1,72,10|2,1:2|2:0,2:0:0:0:
448,255,113350,2,0,B|459:219|459:219|448:179,1,72,10|2,2:0|2:0,2:0:0:0:
368,27,113600,1,10,3:2:0:0:
414,334,113850,2,0,B|450:345|450:345|489:334,1,72,10|0,2:0|2:0,2:0:0:0:
366,127,114100,2,0,B|371:186|371:186|356:204|356:204|362:274,1,144,10|8,1:2|2:0,2:0:0:0:
19,17,114600,5,10,3:2:0:0:
50,11,114725,1,2,2:0:0:0:
78,27,114850,2,0,P|91:61|77:99,1,72,10|2,2:0|2:0,2:0:0:0:
8,258,115100,2,0,P|-6:223|8:186,1,72,10|2,1:2|2:0,2:0:0:0:
169,127,115350,2,0,P|153:161|118:177,1,72,10|2,2:0|2:0,2:0:0:0:
0,106,115600,1,10,3:2:0:0:
36,340,115850,2,0,P|70:324|86:289,1,72,10|0,2:0|2:0,2:0:0:0:
169,127,116100,2,0,P|142:191|169:257,1,144,10|10,1:2|2:0,2:0:0:0:
299,331,116475,1,2,2:0:0:0:
294,326,116600,2,0,B|251:299|218:332|232:336|200:368|156:344,1,144,8|8,3:2|2:0,2:0:0:0:
358,256,117100,6,0,P|391:325|362:392,1,144,10|8,1:2|2:0,2:0:0:0:
368,254,117600,2,0,P|400:324|373:393,1,144,10|8,3:2|2:0,2:0:0:0:
336,189,117975,1,0,2:0:0:0:
341,184,118100,2,0,B|370:162|410:180|410:180|427:218|471:224,1,144,10|10,1:2|2:0,2:0:0:0:
489,0,118475,1,2,2:0:0:0:
484,5,118600,2,0,P|475:77|478:154,1,144,8|8,3:2|2:0,2:0:0:0:
512,384,119100,6,0,P|498:349|454:331,1,72,10|0,1:2|2:0,2:0:0:0:
304,258,119350,2,0,P|339:268|380:250,1,72,10|0,2:0|2:0,2:0:0:0:
336,95,119600,1,10,3:2:0:0:
305,135,119725,1,0,2:0:0:0:
335,176,119850,1,10,2:0:0:0:
383,161,119975,1,0,2:0:0:0:
384,110,120100,2,0,P|420:112|463:116,1,72,10|2,1:2|2:0,2:0:0:0:
262,199,120350,2,0,P|226:202|191:205,1,72,10|0,2:0|2:0,2:0:0:0:
307,28,120600,5,14,3:2:0:0:
346,24,120725,1,2,2:0:0:0:
382,41,120850,2,0,B|394:78|394:78|381:120,1,72,10|2,2:0|2:0,2:0:0:0:
190,205,121100,1,10,1:2:0:0:
186,166,121225,1,2,2:0:0:0:
203,130,121350,2,0,B|240:118|240:118|282:131,1,72,10|2,2:0|2:0,2:0:0:0:
375,220,121600,1,10,3:2:0:0:
276,49,121850,2,0,B|238:41|238:41|200:52,1,72,10|0,2:0|2:0,2:0:0:0:
375,220,122100,2,0,B|410:188|410:188|390:72,1,144,10|8,1:2|2:0,2:0:0:0:
105,175,122600,6,0,P|138:187|179:171,1,72,10|0,3:2|2:0,2:0:0:0:
79,0,122850,1,10,2:0:0:0:
36,57,122975,1,2,2:0:0:0:
52,127,123100,1,10,1:2:0:0:
105,175,123225,1,2,2:0:0:0:
128,242,123350,1,10,2:0:0:0:
108,311,123475,1,2,2:0:0:0:
37,342,123600,6,0,B|21:163,3,180,10|10|10|10,3:2|2:0|1:2|2:0,2:0:0:0:
152,71,124475,1,2,2:0:0:0:
147,76,124600,2,0,P|128:74|108:72,1,31.4999990386963,8|8,3:2|2:0,2:0:0:0:
502,228,125100,6,0,B|514:180|483:142|483:142|498:175|476:207,1,144,10|8,1:2|2:0,2:0:0:0:
344,357,125600,2,0,B|379:392|427:383|427:383|391:380|375:344,1,144,10|8,3:2|2:0,2:0:0:0:
332,146,126100,2,0,B|284:158|267:204|267:204|288:175|326:178,1,144,10|8,1:2|2:0,2:0:0:0:
485,0,126475,5,2,2:0:0:0:
491,12,126600,2,0,B|501:46|501:46|480:96,1,72,10|0,3:2|2:0,2:0:0:0:
307,47,126850,1,10,2:0:0:0:
321,40,126975,1,8,2:3:0:0:
335,33,127100,2,0,B|371:21|371:21|417:39,1,72,14|0,1:3|2:0,2:0:0:0:
402,216,127350,1,14,2:3:0:0:
408,204,127475,2,0,B|418:170|418:170|397:120,1,72,2|8,2:0|3:2,2:0:0:0:
39,348,127850,5,8,2:3:0:0:
49,343,127975,1,8,2:3:0:0:
117,299,128100,1,10,1:3:0:0:
127,304,128225,1,4,2:3:0:0:
182,360,128350,1,14,2:3:0:0:
195,356,128475,1,4,2:3:0:0:
265,316,128600,6,0,B|296:305|296:305|368:342|368:342|405:329,1,144,4|10,3:2|2:0,2:0:0:0:
401,148,128975,1,2,2:0:0:0:
391,139,129100,2,0,B|359:112|359:112|371:252|371:252|398:220,1,216,10|2,1:2|2:0,2:0:0:0:
481,349,129600,2,0,B|474:310|474:310|328:336|328:336|322:302,1,216,10|2,3:2|2:0,2:0:0:0:
188,154,130100,2,0,B|169:187|169:187|175:223,1,72,10|0,1:2|2:0,2:0:0:0:
252,342,130350,2,0,B|242:283|242:283|257:261|257:261|246:203,2,144,10|10|10,2:0|3:2|2:0,2:0:0:0:
327,384,130975,1,2,2:0:0:0:
327,384,131100,1,10,1:2:0:0:
441,23,131350,6,0,P|477:26|517:29,1,72,10|2,2:0|2:0,2:0:0:0:
366,52,131600,6,0,P|363:39|359:26,2,26.9999991760254,10|2|2,3:2|2:0|2:0,2:0:0:0:
332,126,132100,6,0,P|321:118|309:110,2,26.9999991760254,10|2|2,1:2|2:0|2:0,2:0:0:0:
355,204,132600,5,10,3:2:0:0:
139,83,132850,6,0,B|164:51|164:51|177:196|177:196|147:171,1,225,10|10,2:0|1:2,2:0:0:0:
397,264,133350,1,10,2:0:0:0:
398,235,133475,1,2,2:0:0:0:
381,206,133600,6,0,P|362:203|343:206,2,26.9999991760254,10|2|2,3:2|2:0|2:0,2:0:0:0:
265,282,134100,6,0,P|277:267|284:249,2,26.9999991760254,10|2|2,1:2|2:0|2:0,2:0:0:0:
267,165,134600,5,10,3:2:0:0:
417,372,134850,2,0,B|451:330|451:330|376:337|376:337|363:353|363:353|288:360,1,225,10|10,2:0|1:2,2:0:0:0:
267,165,135350,1,10,2:0:0:0:
154,384,135600,6,0,P|158:347|188:320,1,72,10|0,3:2|2:0,2:0:0:0:
350,195,135850,1,10,2:0:0:0:
337,235,135975,1,2,2:0:0:0:
297,248,136100,2,0,P|257:253|214:228,1,72,10|0,1:2|2:0,2:0:0:0:
345,117,136350,2,0,P|383:119|418:151,1,72,10|2,2:0|2:0,2:0:0:0:
269,377,136600,6,0,B|247:305|307:270|308:292|366:258|348:186,1,216,14|2,3:2|2:0,2:0:0:0:
84,139,137100,6,0,P|127:141|168:119,1,72,10|0,1:2|2:0,2:0:0:0:
267,58,137350,2,0,P|226:61|187:88,1,72,10|2,2:0|2:0,2:0:0:0:
84,139,137600,2,0,B|156:161|190:101|169:100|203:42|275:60,1,216,10|2,3:2|2:0,2:0:0:0:
328,11,138100,2,0,P|345:44|343:81,1,72,10|0,1:2|2:0,2:0:0:0:
225,166,138350,2,0,B|249:128|287:132|287:132|309:164|362:159,2,144,10|10|10,2:0|3:2|2:0,2:0:0:0:
194,242,138975,1,2,2:0:0:0:
194,242,139100,1,10,1:2:0:0:
468,166,139350,1,10,2:0:0:0:
463,161,139475,1,2,2:0:0:0:
457,156,139600,6,0,P|441:158|424:160,2,26.9999991760254,10|2|2,3:2|2:0|2:0,2:0:0:0:
486,250,140100,6,0,P|501:252|518:254,2,26.9999991760254,10|2|2,1:2|2:0|2:0,2:0:0:0:
420,358,140600,6,0,B|383:390|332:370|326:322|353:289|391:280|430:319|430:319|469:358|515:335,1,288,10|10,3:2|1:2,2:0:0:0:
336,228,141350,1,10,2:0:0:0:
304,244,141475,1,2,2:0:0:0:
287,276,141600,6,0,B|266:307|271:344|271:344|221:294|261:238|261:238|294:188|262:142,1,288,10|10,3:2|1:2,2:0:0:0:
361,331,142350,1,10,2:0:0:0:
361,331,142475,1,2,2:0:0:0:
361,331,142600,1,10,3:2:0:0:
195,187,142850,5,10,2:0:0:0:
189,182,142975,1,10,2:3:0:0:
184,177,143100,2,0,P|149:191|108:181,1,72,14|0,1:3|2:0,2:0:0:0:
105,46,143350,2,0,P|139:31|180:41,1,72,14|2,2:3|2:0,2:0:0:0:
145,112,143600,1,10,3:2:0:0:
377,0,143850,5,10,2:3:0:0:
372,10,143975,1,10,2:3:0:0:
328,78,144100,1,10,1:3:0:0:
333,88,144225,1,4,2:3:0:0:
389,143,144350,1,14,2:3:0:0:
385,156,144475,1,6,2:3:0:0:
340,223,144600,6,0,L|360:225,1,22.5,0|0,3:0|2:0,2:0:0:0:
385,156,145350,2,0,P|386:142|387:129,2,26.9999991760254,8|8|8,2:0|2:0|2:0,2:0:0:0:
283,267,145600,2,0,P|285:293|287:322,1,53.9999983520508,8|0,1:2|2:0,2:0:0:0:
155,252,145850,2,0,P|179:236|202:221,1,53.9999983520508,8|0,2:0|2:0,2:0:0:0:
172,367,146100,1,8,3:2:0:0:
162,377,146225,2,0,B|112:372|112:372|101:381|101:381|46:376,1,107.999996704102,0|0,2:0|2:0,2:0:0:0:
79,222,146600,5,8,2:0:0:0:
74,232,146725,1,0,2:0:0:0:
69,242,146850,2,0,P|71:268|73:295,1,53.9999983520508,8|0,2:0|2:0,2:0:0:0:
201,260,147100,1,8,3:2:0:0:
191,255,147225,1,0,2:0:0:0:
181,250,147350,2,0,P|167:252|154:254,2,26.9999991760254,8|8|8,2:0|2:0|2:0,2:0:0:0:
281,168,147600,2,0,P|290:144|299:117,1,53.9999983520508,8|0,1:2|2:0,2:0:0:0:
323,313,147850,2,0,P|314:301|305:292,2,26.9999991760254,8|8|8,3:2|2:0|2:0,2:0:0:0:
281,168,148100,2,0,P|290:144|299:117,1,53.9999983520508,8|0,2:0|2:0,2:0:0:0:
181,250,148350,2,0,P|167:252|154:254,2,26.9999991760254,8|8|8,3:2|2:0|3:2,2:0:0:0:
256,238,148600,5,8,3:2:0:0:
131,62,148850,2,0,P|79:42|20:72,1,107.999996704102,8|8,3:2|3:2,2:0:0:0:
74,222,149350,2,0,P|75:209|76:196,2,26.9999991760254,8|8|8,2:0|2:0|2:0,2:0:0:0:
81,119,149600,1,8,1:2:0:0:
307,164,149850,5,8,2:0:0:0:
297,159,149975,1,0,2:0:0:0:
287,154,150100,2,0,P|261:156|234:158,1,53.9999983520508,8|0,3:2|2:0,2:0:0:0:
295,250,150350,2,0,B|341:254|341:254|354:243|354:243|407:247,1,107.999996704102,8|8,3:2|2:0,2:0:0:0:
361,12,150850,6,0,B|355:40|355:40|367:67,1,53.9999983520508,8|0,3:2|2:0,2:0:0:0:
501,0,151100,2,0,B|511:27|511:27|503:55,1,53.9999983520508,8|0,3:2|2:0,2:0:0:0:
442,136,151350,2,0,L|439:110,2,26.9999991760254,8|8|8,2:0|2:0|2:0,2:0:0:0:
433,29,151600,1,8,1:2:0:0:
450,238,151850,2,0,L|452:263,2,26.9999991760254,8|8|8,3:2|2:0|2:0,2:0:0:0:
439,109,152100,2,0,L|443:163,1,53.9999983520508,8|0,3:2|2:0,2:0:0:0:
307,330,152350,5,8,3:2:0:0:
381,299,152475,1,0,3:0:0:0:
459,362,152600,2,0,P|486:360|513:358,1,53.9999983520508,12|0,3:2|2:0,2:0:0:0:
479,232,152850,5,8,2:0:0:0:
474,227,152975,1,0,2:0:0:0:
469,222,153100,2,0,L|456:225,1,13.5,8|8,3:2|2:0,2:0:0:0:
371,309,153600,5,8,1:2:0:0:
376,304,153725,1,0,2:0:0:0:
381,299,153850,2,0,L|385:286,1,13.5,8|0,2:0|2:0,2:0:0:0:
358,174,154350,5,8,3:2:0:0:
353,179,154475,1,0,2:0:0:0:
348,184,154600,2,0,L|358:195,1,13.5,8|0,2:0|2:0,2:0:0:0:
469,222,155100,6,0,L|456:225,1,13.5,8|8,3:2|2:0,2:0:0:0:
381,299,155600,2,0,L|384:287,1,9,8|8,1:2|3:2,2:0:0:0:
299,124,156100,1,8,2:0:0:0:
195,303,156350,2,0,L|193:277,2,26.9999991760254,8|8|8,3:2|2:0|3:2,2:0:0:0:
210,174,156600,6,0,B|182:151|182:151|194:286,1,161.999995056153,8|0,3:2|2:0,2:0:0:0:
338,217,157100,2,0,P|310:221|279:226,1,53.9999983520508,8|0,3:2|2:0,2:0:0:0:
292,102,157350,2,0,P|289:114|287:127,2,26.9999991760254,8|8|8,2:0|2:0|2:0,2:0:0:0:
284,225,157600,2,0,B|403:208|403:208|433:238,1,161.999995056153,8|0,1:2|2:0,2:0:0:0:
355,308,158100,1,8,3:2:0:0:
210,174,158350,2,0,B|153:162|153:162|99:193,1,107.999996704102,8|8,3:2|2:0,2:0:0:0:
184,369,158850,1,8,3:2:0:0:
184,369,159100,1,8,3:2:0:0:
169,267,159350,2,0,P|167:254|165:240,2,26.9999991760254,8|8|8,2:0|2:0|2:0,2:0:0:0:
173,124,159600,6,0,B|144:120|144:120|115:134,1,53.9999983520508,8|0,1:2|2:0,2:0:0:0:
78,302,159850,2,0,P|79:289|80:276,2,26.9999991760254,8|8|8,3:2|2:0|2:0,2:0:0:0:
122,131,160100,2,0,B|145:120|145:120|174:124,1,53.9999983520508,8|0,2:0|2:0,2:0:0:0:
256,232,160350,2,0,B|233:218|233:218|224:191,1,53.9999983520508,8|0,1:2|2:0,2:0:0:0:
288,91,160600,5,6,2:0:0:0:
384,100,168600,6,0,P|382:117|381:133,3,33.7500012874604,10|2|2|2,2:0|2:0|2:0|2:0,2:0:0:0:
488,82,169100,2,0,P|474:71|460:62,3,33.7500012874604,10|2|2|2,1:2|2:0|2:0|2:0,2:0:0:0:
454,181,169600,2,0,P|469:174|484:167,1,33.7500012874604,10|0,2:0|2:0,2:0:0:0:
460,62,169850,2,0,P|474:71|487:81,1,33.7500012874604,2|0,2:0|2:0,2:0:0:0:
380,133,170100,2,0,P|381:116|383:99,3,33.7500012874604,10|0|0|0,1:2|2:0|2:0|2:0,2:0:0:0:
321,195,170600,6,0,P|309:182|299:169,3,33.7500012874604,8|0|0|0,2:0|2:0|2:0|2:0,2:0:0:0:
321,280,171100,2,0,P|304:278|288:276,3,33.7500012874604,8|0|0|0,1:2|2:0|2:0|2:0,2:0:0:0:
381,342,171600,2,0,P|368:353|355:363,2,33.7500012874604,8|0|0,2:0|2:0|2:0,2:0:0:0:
119,275,172100,6,0,P|151:265|184:275,1,62.9999980773926,8|0,1:2|2:0,2:0:0:0:
288,276,172350,2,0,P|229:300|175:267,1,125.999996154785,0|10,2:0|2:0,2:0:0:0:
228,165,172725,5,2,2:0:0:0:
233,170,172850,2,0,P|241:198|233:224,1,53.9999983520508,10|2,2:0|2:0,2:0:0:0:
249,85,173100,2,0,P|277:92|295:111,1,53.9999983520508,10|2,1:2|2:0,2:0:0:0:
183,27,173350,2,0,P|203:6|229:0,1,53.9999983520508,10|2,2:0|2:0,2:0:0:0:
102,57,173600,2,0,P|94:29|101:3,1,53.9999983520508,10|2,2:0|2:0,2:0:0:0:
86,143,173850,2,0,P|57:135|39:116,1,53.9999983520508,10|2,2:0|2:0,2:0:0:0:
151,200,174100,2,0,P|130:220|104:227,1,53.9999983520508,10|2,1:2|2:0,2:0:0:0:
228,165,174350,1,10,2:0:0:0:
233,170,174475,1,2,2:0:0:0:
238,175,174600,2,0,P|246:203|238:229,1,53.9999983520508,10|2,2:0|2:0,2:0:0:0:
115,316,174850,6,0,P|135:295|159:287,1,53.9999983520508,10|2,2:0|2:0,2:0:0:0:
310,344,175100,2,0,P|281:336|263:317,1,53.9999983520508,10|2,1:2|2:0,2:0:0:0:
120,323,175350,2,0,P|140:302|164:294,1,53.9999983520508,10|2,2:0|2:0,2:0:0:0:
202,372,175600,2,0,L|200:363,2,9,2|2|2,2:0|2:0|2:0,2:0:0:0:
316,130,176350,6,0,P|336:183|316:242,1,112.5,2|0,2:0|2:0,2:0:0:0:
196,279,176600,6,0,B|289:260|242:335|345:315,1,144,4|10,3:2|2:0,2:0:0:0:
452,197,176975,1,2,2:0:0:0:
442,204,177100,2,0,P|396:295|455:386,1,216,10|2,1:2|2:0,2:0:0:0:
479,107,177600,2,0,B|339:82|413:195|274:170,1,216,10|2,3:2|2:0,2:0:0:0:
268,46,178100,2,0,P|299:67|308:105,1,72,10|0,1:2|2:0,2:0:0:0:
169,146,178350,2,0,B|204:116|240:130|240:130|254:169|300:173,2,144,10|10|10,2:0|3:2|2:0,2:0:0:0:
128,217,178975,1,2,2:0:0:0:
128,217,179100,1,10,1:2:0:0:
443,0,179350,6,0,P|446:36|449:76,1,72,10|2,2:0|2:0,2:0:0:0:
407,145,179600,6,0,P|393:136|384:117,2,26.9999991760254,10|2|2,3:2|2:0|2:0,2:0:0:0:
512,126,180100,6,0,P|503:136|492:143,2,26.9999991760254,10|2|2,1:2|2:0|2:0,2:0:0:0:
448,71,180600,5,10,3:2:0:0:
385,275,180850,6,0,B|372:258|372:258|344:252|344:252|417:246|417:246|438:267|438:267|515:260,1,225,10|10,2:0|1:2,2:0:0:0:
286,197,181350,1,10,2:0:0:0:
266,219,181475,1,2,2:0:0:0:
263,253,181600,6,0,P|266:272|280:288,2,26.9999991760254,10|2|2,3:2|2:0|2:0,2:0:0:0:
215,353,182100,6,0,P|230:364|252:366,2,26.9999991760254,10|2|2,1:2|2:0|2:0,2:0:0:0:
326,350,182600,5,10,3:2:0:0:
262,79,182850,6,0,B|219:122|219:122|271:284,1,225,10|10,2:0|1:2,2:0:0:0:
101,167,183350,1,10,2:0:0:0:
259,367,183600,2,0,B|296:369|296:369|326:350,1,72,10|0,3:2|2:0,2:0:0:0:
412,130,183850,1,10,2:0:0:0:
370,141,183975,1,2,2:0:0:0:
346,175,184100,2,0,B|335:210|335:210|347:245,1,72,10|0,1:2|2:0,2:0:0:0:
478,361,184350,2,0,B|461:328|461:328|425:313,1,72,10|2,2:0|2:0,2:0:0:0:
184,330,184600,6,0,B|154:364|154:364|324:349,1,216,14|2,3:2|2:0,2:0:0:0:
274,77,185100,2,0,L|280:149,1,72,10|0,1:2|2:0,2:0:0:0:
244,278,185350,2,0,L|237:206,1,72,10|2,2:0|2:0,2:0:0:0:
274,77,185600,2,0,B|280:148|280:148|237:207|237:207|244:284,1,216,10|2,3:2|2:0,2:0:0:0:
232,13,186100,2,0,B|264:-1|264:-1|300:3,1,72,10|0,1:2|2:0,2:0:0:0:
196,82,186350,2,0,B|134:87|134:87|114:71|114:71|51:76,2,144,10|10|10,2:0|3:2|2:0,2:0:0:0:
232,13,186975,1,2,2:0:0:0:
232,13,187100,1,10,1:2:0:0:
140,276,187350,1,10,2:0:0:0:
134,280,187475,1,2,2:0:0:0:
129,285,187600,6,0,P|131:301|133:318,2,26.9999991760254,10|2|2,3:2|2:0|2:0,2:0:0:0:
234,228,188100,6,0,P|236:213|238:196,2,26.9999991760254,10|2|2,1:2|2:0|2:0,2:0:0:0:
176,105,188600,6,0,B|139:73|88:93|82:141|109:174|147:183|186:144|186:144|225:105|271:128,1,288,10|10,3:2|1:2,2:0:0:0:
335,325,189350,1,10,2:0:0:0:
333,315,189475,1,2,2:0:0:0:
331,305,189600,2,0,B|320:182|320:182|344:153|344:153|332:10,1,288,10|10,3:2|1:2,2:0:0:0:
429,226,190350,1,10,2:0:0:0:
429,226,190475,1,2,2:0:0:0:
429,226,190600,1,10,3:2:0:0:
260,121,190850,5,10,2:0:0:0:
254,126,190975,1,10,2:3:0:0:
251,132,191100,2,0,B|215:124|215:124|174:141,1,72,14|0,1:3|2:0,2:0:0:0:
193,272,191350,2,0,B|228:281|228:281|270:265,1,72,14|2,2:3|2:0,2:0:0:0:
223,201,191600,1,10,3:2:0:0:
131,353,191850,5,10,2:3:0:0:
126,343,191975,1,10,2:3:0:0:
82,275,192100,1,10,1:3:0:0:
87,265,192225,1,4,2:3:0:0:
143,210,192350,1,14,2:3:0:0:
139,197,192475,1,6,2:3:0:0:
94,126,192600,6,0,B|142:103|142:103|205:135|205:135|255:112,1,175.499991966248,4|2,3:2|2:0,2:0:0:0:
374,9,193100,2,0,B|335:48|335:48|376:163,1,175.499991966248,10|2,1:2|2:0,2:0:0:0:
445,350,193600,2,0,L|400:226,1,116.999994644165,10|10,3:2|2:0,2:0:0:0:
385,2,193975,1,2,2:0:0:0:
374,9,194100,2,0,B|335:48|335:48|360:117,1,116.999994644165,10|10,1:2|2:0,2:0:0:0:
405,240,194475,1,2,2:0:0:0:
405,240,194600,1,10,3:2:0:0:
512,55,194850,5,10,2:0:0:0:
512,55,194975,1,2,2:0:0:0:
512,55,195100,1,10,1:2:0:0:
481,358,195350,2,0,B|450:367|450:367|410:355,1,58.4999973220826,10|2,2:0|2:0,2:0:0:0:
295,240,195600,2,0,B|352:220|352:220|416:243,1,116.999994644165,10|10,3:2|2:0,2:0:0:0:
492,351,195975,1,2,2:0:0:0:
481,358,196100,2,0,B|450:367|450:367|364:340,1,116.999994644165,10|10,1:2|2:0,2:0:0:0:
295,240,196475,1,2,2:0:0:0:
295,240,196600,1,10,3:2:0:0:
111,384,196850,6,0,P|125:360|120:320,1,58.4999973220826,10|2,2:0|2:0,2:0:0:0:
105,156,197100,2,0,P|79:211|101:263,1,116.999994644165,10|10,1:2|2:0,2:0:0:0:
209,357,197475,1,2,2:0:0:0:
209,357,197600,1,10,3:2:0:0:
6,316,197850,1,10,2:0:0:0:
6,316,197975,1,2,2:0:0:0:
6,316,198100,1,10,1:2:0:0:
106,68,198350,6,0,P|140:71|168:100,1,58.4999973220826,10|2,2:0|2:0,2:0:0:0:
105,156,198600,1,0,3:0:0:0:
242,38,198850,2,0,P|255:69|245:107,1,58.4999973220826,10|2,2:0|2:0,2:0:0:0:
229,268,199100,2,0,P|203:217|231:159,1,116.999994644165,10|10,1:2|2:0,2:0:0:0:
333,117,199475,1,2,2:0:0:0:
333,117,199600,5,10,3:2:0:0:
457,315,199850,2,0,P|454:285|451:250,1,58.4999973220826,10|2,2:0|2:0,2:0:0:0:
333,117,200100,1,10,1:2:0:0:
367,384,200350,1,10,2:0:0:0:
388,48,200600,2,0,P|331:28|274:52,1,116.999994644165,10|10,3:2|2:0,2:0:0:0:
184,113,200975,1,2,2:0:0:0:
184,113,201100,1,10,1:2:0:0:
470,17,201350,6,0,P|479:43|468:83,1,58.4999973220826,10|2,2:0|2:0,2:0:0:0:
360,164,201600,2,0,P|415:152|464:194,1,116.999994644165,10|10,3:2|2:0,2:0:0:0:
512,297,201975,1,2,2:0:0:0:
512,297,202100,1,10,1:2:0:0:
285,132,202350,6,0,P|276:162|291:202,1,58.4999973220826,10|2,2:0|2:0,2:0:0:0:
373,263,202600,1,10,3:2:0:0:
280,41,202850,2,0,P|249:48|222:81,1,58.4999973220826,10|2,2:0|2:0,2:0:0:0:
74,136,203100,2,0,P|131:148|186:113,1,116.999994644165,10|10,1:2|2:0,2:0:0:0:
34,71,203475,1,2,2:0:0:0:
23,78,203600,6,0,P|-3:129|14:185,1,116.999994644165,10|10,3:2|2:0,2:0:0:0:
146,247,203975,1,2,2:0:0:0:
146,247,204100,1,10,1:2:0:0:
113,0,204350,1,10,2:0:0:0:
113,0,204475,1,2,2:0:0:0:
113,0,204600,1,10,3:2:0:0:
193,319,204850,6,0,P|216:300|227:265,1,58.4999973220826,10|2,2:0|2:0,2:0:0:0:
146,159,205100,1,10,1:2:0:0:
93,319,205350,2,0,P|69:300|58:265,1,58.4999973220826,10|2,2:0|2:0,2:0:0:0:
146,159,205600,1,10,3:2:0:0:
292,384,205850,1,10,2:0:0:0:
292,384,205975,1,2,2:0:0:0:
292,384,206100,1,10,1:2:0:0:
422,162,206350,2,0,L|427:228,1,58.4999973220826,10|2,2:0|2:0,2:0:0:0:
507,321,206600,1,10,3:0:0:0:
293,92,206850,5,10,2:0:0:0:
300,99,206975,1,10,2:3:0:0:
308,106,207100,2,0,B|342:91|342:91|385:101,1,72,10|0,1:2|2:0,2:0:0:0:
390,234,207350,2,0,B|357:248|357:248|312:240,1,72,14|2,2:3|2:0,2:0:0:0:
348,169,207600,1,10,3:2:0:0:
116,384,207850,5,10,2:3:0:0:
111,374,207975,1,10,2:3:0:0:
67,306,208100,1,10,1:3:0:0:
72,296,208225,1,8,2:3:0:0:
128,241,208350,1,14,2:3:0:0:
124,228,208475,1,6,2:3:0:0:
