osu file format v14

[General]
AudioFilename: audio.mp3
AudioLeadIn: 0
PreviewTime: 148834
Countdown: 0
SampleSet: Soft
StackLeniency: 0.4
Mode: 0
LetterboxInBreaks: 0
WidescreenStoryboard: 1

[Editor]
DistanceSpacing: 1
BeatDivisor: 6
GridSize: 4
TimelineZoom: 2.3

[Metadata]
Title:The Best Thing I Ever Did
TitleUnicode:올해 제일 잘한 일
Artist:TWICE
ArtistUnicode:트와이스
Creator:CharmCaster
Version:The Best Thing
Source:
Tags:korean korea k-pop kpop pop christmas the year of yes nayeon jeongyeon momo sana jihyo mina dahyun chaeyoung tzuyu snow 나연 정연 모모 사나 지효 미나 다현 채영 쯔위
BeatmapID:1978594
BeatmapSetID:892704

[Difficulty]
HPDrainRate:5
CircleSize:3.7
OverallDifficulty:6
ApproachRate:7
SliderMultiplier:1.4
SliderTickRate:1

[Events]
//Background and Video events
0,0,"TWICE-pr-ch-billboard-1548.jpg",0,0
Video,158,"twice the best thing i ever did.mp4"
//Break Periods
2,132834,141002
//Storyboard Layer 0 (Background)
//Storyboard Layer 1 (Fail)
//Storyboard Layer 2 (Pass)
//Storyboard Layer 3 (Foreground)
//Storyboard Sound Samples

[TimingPoints]
2548.77358490566,571.428571428571,4,2,1,50,1,0
20834,-100,4,2,1,40,0,0
39120,-95.2380952380952,4,2,1,50,0,0
47405,-133.333333333333,4,2,1,50,0,0
48263,-86.9565217391304,4,2,1,70,0,1
56834,-86.9565217391304,4,2,1,70,0,0
57405,-86.9565217391304,4,2,1,70,0,1
65977,-86.9565217391304,4,2,1,70,0,0
66548,-86.9565217391304,4,2,1,70,0,1
75120,-86.9565217391304,4,2,1,70,0,0
75691,-86.9565217391304,4,2,1,70,0,1
84834,-86.9565217391304,4,2,1,70,0,0
86834,-86.9565217391304,4,2,1,40,0,0
87120,-100,4,2,1,40,0,0
105405,-95.2380952380952,4,2,1,50,0,0
113691,-133.333333333333,4,2,1,50,0,0
114548,-86.9565217391303,4,2,1,70,0,1
123120,-86.9565217391303,4,2,1,70,0,0
123691,-86.9565217391303,4,2,1,70,0,1
132834,-100,4,2,1,40,0,0
151120,-79.9999999999999,4,2,1,70,0,1
159691,-79.9999999999999,4,2,1,70,0,0
160263,-79.9999999999999,4,2,1,70,0,1
168834,-79.9999999999999,4,2,1,70,0,0
169405,-79.9999999999999,4,2,1,70,0,1
177977,-79.9999999999999,4,2,1,70,0,0
178548,-79.9999999999999,4,2,1,70,0,1
187691,-100,4,2,1,50,0,0
205834,-100,4,2,1,20,0,0

[Colours]
Combo1 : 255,140,140
Combo2 : 130,192,255
Combo3 : 18,124,255
Combo4 : 192,192,192

[HitObjects]
320,256,2548,6,0,L|400:248,1,70,2|0,0:0|0:0,0:0:0:0:
272,176,3120,2,0,L|352:168,1,70
248,96,3691,2,0,P|208:120|192:168,1,70,2|0,0:0|0:0,0:0:0:0:
200,224,4263,2,0,P|232:256|288:256,1,70
340,260,4691,1,0,0:0:0:0:
340,260,4834,6,0,L|332:340,1,70,2|0,0:0|0:0,0:0:0:0:
428,212,5405,2,0,L|421:281,1,70
408,124,5977,2,0,B|400:88|400:88|358:60,1,70,2|0,0:0|0:0,0:0:0:0:
299,115,6548,2,0,B|306:150|306:150|348:178,1,70
216,144,7120,6,0,L|209:213,1,70,2|0,0:0|0:0,0:0:0:0:
128,184,7691,2,0,L|121:253,1,70
48,144,8263,2,0,L|54:74,1,70,2|0,0:0|0:0,0:0:0:0:
136,104,8834,2,0,L|142:34,1,70
264,64,9405,6,0,P|304:72|352:64,1,70,2|0,0:0|0:0,0:0:0:0:
424,16,9977,1,0,0:0:0:0:
384,160,10263,2,0,P|384:256|416:304,2,140
240,128,11691,6,0,L|168:120,1,70,2|0,0:0|0:0,0:0:0:0:
96,72,12263,2,0,L|88:144,1,70
40,216,12834,2,0,L|112:224,1,70,2|0,0:0|0:0,0:0:0:0:
184,272,13405,2,0,L|192:200,1,70
256,160,13834,1,0,0:0:0:0:
256,160,13977,6,0,P|312:160|336:176,1,70,2|0,0:0|0:0,0:0:0:0:
408,64,14548,2,0,P|408:120|392:144,1,70
504,216,15120,2,0,P|448:216|424:200,1,70,2|0,0:0|0:0,0:0:0:0:
352,312,15691,2,0,P|352:256|368:232,1,70
256,160,16263,6,0,L|168:168,1,70,2|0,0:0|0:0,0:0:0:0:
216,80,16834,2,0,L|304:72,1,70
344,144,17405,2,0,L|336:232,1,70,2|0,0:0|0:0,0:0:0:0:
424,184,17977,2,0,L|432:96,1,70
368,48,18548,6,0,P|328:40|296:48,1,70,2|0,0:0|0:0,0:0:0:0:
224,104,19120,2,0,P|189:110|156:102,1,70
64,56,19691,2,0,L|72:136,1,70,2|0,0:0|0:0,0:0:0:0:
48,216,20263,1,0,0:0:0:0:
48,216,20834,6,0,L|136:208,1,70,2|0,0:0|0:0,0:0:0:0:
212,180,21405,1,0,0:0:0:0:
304,212,21691,1,0,0:0:0:0:
380,272,21977,1,2,0:0:0:0:
476,248,22263,1,0,0:0:0:0:
508,156,22548,1,0,0:0:0:0:
456,72,22834,1,0,0:0:0:0:
376,136,23120,6,0,P|336:144|280:136,1,70,2|0,0:0|0:0,0:0:0:0:
196,76,23691,2,0,P|215:40|257:2,1,70
368,67,24263,2,0,P|378:100|376:134,1,70,2|0,0:0|0:0,0:0:0:0:
368,256,24834,2,0,L|256:272,1,105
232,304,25405,5,2,0:0:0:0:
144,328,25691,1,0,0:0:0:0:
80,256,25977,1,0,0:0:0:0:
136,176,26263,1,0,0:0:0:0:
176,80,26548,1,2,0:0:0:0:
96,16,26834,1,0,0:0:0:0:
0,64,27120,1,0,0:0:0:0:
24,168,27405,1,0,0:0:0:0:
24,168,27548,1,0,0:0:0:0:
24,168,27691,6,0,P|72:168|104:152,1,70,2|0,0:0|0:0,0:0:0:0:
176,80,28263,1,0,0:0:0:0:
296,176,28548,2,0,B|320:232|320:232|304:336,1,140
224,208,29405,2,0,P|216:168|240:120,1,70
336,64,29977,6,0,L|408:56,1,70,2|0,0:0|0:0,0:0:0:0:
496,104,30548,1,0,0:0:0:0:
504,200,30834,1,0,0:0:0:0:
432,272,31120,1,2,0:0:0:0:
336,240,31405,2,0,P|288:248|256:280,2,70
400,136,32263,6,0,L|392:48,1,70,2|0,0:0|0:0,0:0:0:0:
272,24,32834,2,0,B|184:24|184:24|144:88,1,140,0|2,0:0|0:0,0:0:0:0:
128,160,33691,1,0,0:0:0:0:
176,248,33977,2,0,P|224:264|264:264,1,70
368,208,34548,6,0,L|361:120,1,70,2|0,0:0|0:0,0:0:0:0:
408,136,34977,2,0,L|416:248,1,105
288,152,35691,2,0,L|295:64,1,70,2|0,0:0|0:0,0:0:0:0:
248,80,36120,2,0,L|240:192,1,105
176,256,36834,6,0,P|144:264|96:256,1,70,2|0,0:0|0:0,0:0:0:0:
48,184,37405,1,0,0:0:0:0:
240,184,37691,2,0,P|272:248|240:328,1,140
176,256,38548,1,0,0:0:0:0:
160,160,38834,1,0,0:0:0:0:
296,72,39120,6,0,L|384:64,1,73.4999977569581,6|0,3:2|0:0,0:0:0:0:
512,120,39691,2,0,L|424:128,1,73.4999977569581
280,160,40263,2,0,L|368:152,1,73.4999977569581,2|0,0:0|0:0,0:0:0:0:
496,208,40834,2,0,L|408:216,1,73.4999977569581
232,232,41405,6,0,P|200:192|200:160,1,73.4999977569581,2|0,0:0|0:0,0:0:0:0:
246,99,41977,2,0,P|278:139|278:171,1,73.4999977569581
296,280,42548,2,0,P|252:312|228:312,1,73.4999977569581,2|0,0:0|0:0,0:0:0:0:
172,264,43120,2,0,P|216:232|240:232,1,73.4999977569581
279,159,43548,1,0,0:0:0:0:
279,159,43691,6,0,L|247:87,1,73.4999977569581,2|0,0:0|0:0,0:0:0:0:
332,20,44263,2,0,L|364:92,1,73.4999977569581
376,184,44834,1,2,0:0:0:0:
308,252,45120,1,0,0:0:0:0:
208,240,45405,1,0,0:0:0:0:
132,188,45691,6,0,B|72:224|140:272|72:316,1,146.999995513916
156,368,46548,2,0,B|216:332|148:284|216:240,1,146.999995513916
292,344,47405,2,0,L|404:336,1,105.000004005432,0|2,0:0|0:0,0:0:0:0:
432,272,48120,1,2,0:0:0:0:
432,272,48263,6,0,L|440:168,1,80.5000015354157,2|0,3:2|3:2,0:0:0:0:
384,72,48834,1,0,0:0:0:0:
288,168,49120,2,0,L|284:192,2,20.1250003838539
256,136,49405,1,8,0:0:0:0:
256,136,49548,2,0,P|224:128|200:128,1,40.2500007677078,0|0,0:0|3:2,0:0:0:0:
128,32,49977,2,0,B|176:8|176:8|280:8,1,120.750002303124,0|0,3:2|0:0,0:0:0:0:
304,56,50548,5,2,3:2:0:0:
368,168,50834,1,0,3:2:0:0:
280,264,51120,1,0,0:0:0:0:
160,208,51405,1,0,0:0:0:0:
48,288,51691,2,0,P|48:344|64:368,1,80.5000015354157,8|0,0:0|3:2,0:0:0:0:
160,312,52263,2,0,L|184:312,4,20.1250003838539
320,256,52834,6,0,L|312:336,1,80.5000015354157,2|0,3:2|3:2,0:0:0:0:
432,296,53405,1,0,0:0:0:0:
392,168,53691,2,0,L|396:136,4,20.1250003838539,0|0|0|0|8,0:0|0:0|0:0|0:0|0:0,0:0:0:0:
248,152,54263,1,0,3:2:0:0:
160,256,54548,2,0,P|208:280|240:280,1,80.5000015354157,0|0,3:2|0:0,0:0:0:0:
80,152,55120,6,0,L|72:232,1,80.5000015354157,2|0,3:2|3:2,0:0:0:0:
192,152,55691,1,0,0:0:0:0:
136,32,55977,1,0,0:0:0:0:
260,92,56263,2,0,P|278:127|280:167,1,80.5000015354157,8|0,0:0|3:2,0:0:0:0:
204,276,56834,1,0,0:0:0:0:
364,252,57120,1,0,0:0:0:0:
364,252,57263,1,0,0:0:0:0:
364,252,57405,6,0,L|444:244,1,80.5000015354157,2|0,3:2|3:2,0:0:0:0:
512,140,57977,1,0,0:0:0:0:
464,16,58263,2,0,L|440:8,4,20.1250003838539,0|0|0|0|8,0:0|0:0|0:0|0:0|0:0,0:0:0:0:
376,104,58834,1,0,3:2:0:0:
256,68,59120,2,0,P|224:68|192:84,1,40.2500007677078,0|0,3:2|0:0,0:0:0:0:
164,128,59405,1,0,0:0:0:0:
52,236,59691,6,0,L|68:324,1,80.5000015354157,2|0,3:2|3:0,0:0:0:0:
192,296,60263,1,0,0:0:0:0:
200,244,60453,2,0,L|185:164,1,80.5000015354157
200,144,60834,2,0,B|240:128|240:128|304:144,1,80.5000015354157,8|0,0:0|3:2,0:0:0:0:
400,184,61405,2,0,L|432:176,4,20.1250003838539
288,272,61977,6,0,P|288:320|312:352,1,80.5000015354157,2|0,3:2|3:2,0:0:0:0:
440,360,62548,1,0,0:0:0:0:
488,224,62834,2,0,L|480:192,4,20.1250003838539,0|0|0|0|8,0:0|0:0|0:0|0:0|0:0,0:0:0:0:
376,144,63405,1,0,3:2:0:0:
256,216,63691,2,0,P|208:224|168:208,1,80.5000015354157,0|0,3:2|0:0,0:0:0:0:
96,56,64263,6,0,L|184:48,1,80.5000015354157,2|0,3:2|3:0,0:0:0:0:
320,64,64834,1,0,0:0:0:0:
208,128,65120,1,0,0:0:0:0:
352,136,65405,2,0,P|392:96|392:56,1,80.5000015354157,8|0,0:0|3:2,0:0:0:0:
251,66,65977,2,0,P|211:106|211:146,1,80.5000015354157
376,224,66548,6,0,L|480:216,1,80.5000015354157,2|0,3:2|3:0,0:0:0:0:
424,344,67120,1,0,0:0:0:0:
424,344,67405,2,0,L|396:348,4,20.1250003838539,0|0|0|0|8,0:0|0:0|0:0|0:0|0:0,0:0:0:0:
304,292,67977,1,0,3:0:0:0:
192,336,68263,2,0,L|100:332,1,80.5000015354157,0|0,3:0|0:0,0:0:0:0:
32,220,68834,6,0,L|112:216,1,80.5000015354157,2|0,3:2|3:0,0:0:0:0:
204,104,69405,2,0,P|220:136|220:192,1,80.5000015354157
204,256,69834,1,0,0:0:0:0:
204,256,69977,1,8,0:0:0:0:
332,220,70263,1,0,3:0:0:0:
448,280,70548,2,0,L|452:304,4,20.1250003838539
484,212,70977,1,0,0:0:0:0:
484,212,71120,6,0,L|472:120,1,80.5000015354157,2|0,3:2|3:2,0:0:0:0:
416,80,71548,2,0,P|392:80|368:88,1,40.2500007677078
248,136,71977,2,0,L|228:136,4,20.1250003838539,0|0|0|0|8,0:0|0:0|0:0|0:0|0:0,0:0:0:0:
312,244,72548,2,0,L|268:244,2,40.2500007677078,0|0|0,3:2|0:0|3:0,0:0:0:0:
176,320,73120,2,0,L|128:320,1,40.2500007677078
72,272,73405,5,2,3:2:0:0:
56,224,73548,1,0,0:0:0:0:
64,176,73691,2,0,P|88:144|136:128,1,80.5000015354157,0|0,3:0|0:0,0:0:0:0:
248,176,74263,1,0,0:0:0:0:
400,108,74548,2,0,L|392:28,1,80.5000015354157,8|0,0:0|3:0,0:0:0:0:
264,12,75120,2,0,L|256:92,1,80.5000015354157
184,240,75691,6,0,P|128:248|104:240,1,80.5000015354157,2|0,3:2|3:0,0:0:0:0:
56,120,76263,1,0,0:0:0:0:
56,120,76548,2,0,L|52:92,4,20.1250003838539,0|0|0|0|8,0:0|0:0|0:0|0:0|0:0,0:0:0:0:
176,80,77120,1,0,3:0:0:0:
272,208,77405,2,0,L|280:288,1,80.5000015354157,0|0,3:0|0:0,0:0:0:0:
408,328,77977,5,2,3:2:0:0:
464,208,78263,1,0,3:0:0:0:
304,128,78548,2,0,P|272:120|208:152,1,80.5000015354157
168,184,78977,1,0,0:0:0:0:
168,184,79120,2,0,L|160:264,1,80.5000015354157,8|0,0:0|3:0,0:0:0:0:
52,344,79691,2,0,L|48:368,4,20.1250003838539
16,276,80120,1,0,0:0:0:0:
16,276,80263,6,0,P|8:220|24:176,1,80.5000015354157,2|0,3:2|3:0,0:0:0:0:
72,144,80691,2,0,L|132:136,1,40.2500007677078
236,184,81120,2,0,L|244:208,4,20.1250003838539,0|0|0|0|8,0:0|0:0|0:0|0:0|0:0,0:0:0:0:
344,116,81691,2,0,L|364:168,2,40.2500007677078,0|0|0,3:2|0:0|3:2,0:0:0:0:
240,32,82263,2,0,P|208:32|184:40,1,40.2500007677078
136,72,82548,5,2,3:2:0:0:
144,120,82691,1,0,0:0:0:0:
160,168,82834,2,0,P|192:192|256:192,1,80.5000015354157,0|0,3:0|0:0,0:0:0:0:
352,144,83405,1,0,0:0:0:0:
472,272,83691,2,0,L|480:360,1,80.5000015354157,8|0,0:0|3:0,0:0:0:0:
352,320,84263,2,0,L|344:239,1,80.5000015354157
448,96,84834,6,0,B|400:56|336:40|296:40|296:40|336:80|384:128|392:160|392:160|352:128|312:104|240:104,1,483.000009212494,0|2,0:0|0:0,0:0:0:0:
88,160,86834,1,0,0:0:0:0:
88,160,86977,1,0,0:0:0:0:
88,160,87120,6,0,L|96:240,1,70,2|0,0:0|0:0,0:0:0:0:
208,264,87691,2,0,L|200:184,1,70
248,96,88263,1,2,0:0:0:0:
340,148,88548,2,0,L|392:148,1,35
420,160,88834,1,0,0:0:0:0:
456,132,88977,1,0,0:0:0:0:
488,104,89120,1,0,0:0:0:0:
400,0,89405,6,0,L|304:8,1,70,2|0,0:0|0:0,0:0:0:0:
248,96,89977,2,0,L|344:104,1,70
416,160,90548,1,2,0:0:0:0:
416,160,90691,1,0,0:0:0:0:
416,160,90834,2,0,P|424:208|416:248,2,70
264,240,91691,6,0,P|216:248|144:200,1,140,2|0,0:0|0:0,0:0:0:0:
176,88,92548,1,0,0:0:0:0:
48,144,92834,2,0,L|32:224,1,70,2|0,0:0|0:0,0:0:0:0:
129,267,93405,2,0,L|145:187,1,70
272,152,93977,6,0,B|320:136|320:136|400:144,2,105,2|0|0,0:0|0:0|0:0,0:0:0:0:
424,216,95120,1,2,0:0:0:0:
468,180,95310,2,0,L|472:84,1,93.3333333333333
368,8,95977,1,0,0:0:0:0:
240,96,96263,6,0,L|248:136,1,35,6|0,3:2|0:0,0:0:0:0:
168,136,96548,2,0,L|160:184,1,35
88,152,96834,2,0,P|48:160|8:144,1,70
168,136,97405,2,0,L|192:264,1,105,2|0,0:0|0:0,0:0:0:0:
224,272,97977,1,0,0:0:0:0:
328,304,98263,1,0,0:0:0:0:
416,232,98548,5,2,0:0:0:0:
432,192,98691,1,0,0:0:0:0:
440,152,98834,1,0,0:0:0:0:
432,112,98977,1,0,0:0:0:0:
416,72,99120,2,0,P|376:72|352:80,2,35
288,24,99691,2,0,P|272:80|304:144,1,116.666666666667,2|0,0:0|0:0,0:0:0:0:
312,144,100263,1,0,0:0:0:0:
381,71,100548,1,0,0:0:0:0:
464,184,100834,5,2,0:0:0:0:
480,236,101024,2,0,L|472:312,2,70
360,268,101882,1,0,0:0:0:0:
328,180,102120,1,0,0:0:0:0:
328,180,102263,2,0,P|264:184|248:176,1,70
204,104,102834,1,0,0:0:0:0:
136,168,103120,5,2,0:0:0:0:
104,208,103310,2,0,L|112:296,2,70
88,200,103977,1,0,0:0:0:0:
168,136,104263,1,2,0:0:0:0:
248,80,104548,1,0,0:0:0:0:
336,120,104834,2,0,P|392:120|432:104,1,70
464,232,105405,6,0,L|456:320,1,73.4999977569581,6|0,3:2|0:0,0:0:0:0:
336,340,105977,2,0,L|344:252,1,73.4999977569581
240,200,106548,2,0,L|232:288,1,73.4999977569581,2|0,0:0|0:0,0:0:0:0:
112,308,107120,2,0,L|120:220,1,73.4999977569581
168,112,107691,6,0,P|200:88|256:88,1,73.4999977569581,2|0,0:0|0:0,0:0:0:0:
240,176,108263,2,0,P|208:200|152:200,1,73.4999977569581
56,152,108834,2,0,P|32:128|16:80,1,73.4999977569581,2|0,0:0|0:0,0:0:0:0:
64,8,109405,2,0,P|88:32|104:80,1,73.4999977569581
144,136,109834,1,0,0:0:0:0:
144,136,109977,6,0,L|216:120,1,73.4999977569581,2|0,0:0|0:0,0:0:0:0:
312,200,110548,2,0,L|240:216,1,73.4999977569581
160,280,111120,1,2,0:0:0:0:
80,216,111405,1,0,0:0:0:0:
144,136,111691,1,0,0:0:0:0:
312,200,111977,6,0,B|352:232|352:280|320:304|272:280|288:240|320:248,1,146.999995513916
248,128,112834,2,0,B|208:96|208:48|240:24|288:48|272:88|240:80,1,146.999995513916
400,168,113691,2,0,P|424:216|424:288,1,105.000004005432,0|2,0:0|0:0,0:0:0:0:
392,336,114405,1,2,0:0:0:0:
392,336,114548,6,0,L|312:328,1,80.5000015354157,2|0,3:2|3:0,0:0:0:0:
200,256,115120,1,0,0:0:0:0:
304,176,115405,2,0,L|336:176,2,20.1250003838539
272,144,115691,1,8,0:0:0:0:
272,144,115834,2,0,P|264:120|264:88,1,40.2500007677078,0|0,0:0|3:0,0:0:0:0:
152,32,116263,2,0,B|80:40|80:40|56:88,1,120.750002303124,0|0,3:0|0:0,0:0:0:0:
72,160,116834,5,2,3:2:0:0:
196,216,117120,1,0,3:2:0:0:
324,184,117405,1,0,0:0:0:0:
268,304,117691,1,0,0:0:0:0:
132,280,117977,2,0,P|108:240|124:176,1,80.5000015354157,8|0,0:0|3:2,0:0:0:0:
184,108,118548,2,0,L|200:92,4,20.1250003838539
312,216,119120,6,0,L|400:208,1,80.5000015354157,2|0,3:2|3:2,0:0:0:0:
480,112,119691,1,0,0:0:0:0:
352,88,119977,2,0,L|336:72,4,20.1250003838539,0|0|0|0|8,0:0|0:0|0:0|0:0|0:0,0:0:0:0:
392,208,120548,1,0,3:2:0:0:
304,312,120834,2,0,P|264:320|224:312,1,80.5000015354157,0|0,3:2|0:0,0:0:0:0:
88,212,121405,6,0,L|72:132,1,80.5000015354157,2|0,3:2|3:2,0:0:0:0:
168,48,121977,1,0,0:0:0:0:
256,152,122263,1,0,0:0:0:0:
376,216,122548,2,0,P|424:208|456:176,1,80.5000015354157,8|0,0:0|3:2,0:0:0:0:
480,56,123120,1,0,0:0:0:0:
328,32,123405,1,0,0:0:0:0:
328,32,123548,1,0,0:0:0:0:
328,32,123691,6,0,L|248:40,1,80.5000015354157,2|0,3:2|3:2,0:0:0:0:
128,92,124263,1,0,0:0:0:0:
148,224,124548,2,0,L|132:236,4,20.1250003838539,0|0|0|0|8,0:0|0:0|0:0|0:0|0:0,0:0:0:0:
272,176,125120,1,0,3:2:0:0:
400,208,125405,2,0,P|416:240|416:256,1,40.2500007677078,0|0,3:2|0:0,0:0:0:0:
416,320,125691,1,0,0:0:0:0:
256,336,125977,6,0,L|241:256,1,80.5000015354157,2|0,3:2|3:3,0:0:0:0:
121,224,126548,1,0,0:0:0:0:
88,264,126739,2,0,L|103:344,1,80.5000015354157
80,360,127120,2,0,B|44:352|44:352|20:300,1,80.5000015354157,8|0,0:0|3:0,0:0:0:0:
120,196,127691,2,0,L|152:188,4,20.1250003838539
288,220,128263,6,0,P|296:260|288:300,1,80.5000015354157,2|0,3:2|3:2,0:0:0:0:
168,344,128834,1,0,0:0:0:0:
72,256,129120,2,0,L|48:248,4,20.1250003838539,0|0|0|0|8,0:0|0:0|0:0|0:0|0:0,0:0:0:0:
168,160,129691,1,0,3:0:0:0:
288,220,129977,2,0,P|328:220|368:188,1,80.5000015354157,0|0,3:2|0:2,0:2:0:0:
296,32,130548,6,0,L|215:39,1,80.5000015354157,2|0,3:2|3:2,0:0:0:0:
104,112,131120,1,0,0:0:0:0:
232,152,131405,1,0,0:0:0:0:
136,248,131691,2,0,P|136:296|152:328,1,80.5000015354157,8|0,0:0|3:2,0:0:0:0:
280,336,132263,2,0,P|280:288|264:256,1,80.5000015354157
336,248,141977,6,0,L|416:240,1,70
456,144,142548,1,2,0:0:0:0:
368,88,142834,1,0,0:0:0:0:
280,144,143120,2,0,P|240:144|192:112,1,70
160,48,143691,1,2,0:0:0:0:
72,160,143977,1,0,0:0:0:0:
72,160,144120,1,0,0:0:0:0:
72,160,144263,6,0,L|80:240,1,70
160,296,144834,1,2,0:0:0:0:
248,240,145120,1,0,0:0:0:0:
376,296,145405,2,0,P|432:288|456:264,1,70
488,184,145977,1,2,0:0:0:0:
384,96,146263,6,0,B|352:84|352:84|312:96,1,70
264,172,146834,1,0,0:0:0:0:
172,152,147120,1,2,0:0:0:0:
132,284,147405,2,0,B|164:296|164:296|208:284,1,70
288,324,147977,1,0,0:0:0:0:
344,240,148263,2,0,P|352:208|352:168,1,70,2|0,0:0|0:0,0:0:0:0:
328,96,148691,1,0,0:0:0:0:
328,96,148834,6,0,L|256:88,1,70
144,168,149405,2,0,L|213:175,1,70,2|0,0:0|0:0,0:0:0:0:
384,200,149977,2,0,P|392:248|384:288,1,70
328,352,150548,1,2,0:0:0:0:
256,288,150834,1,2,0:0:0:0:
256,288,150977,1,2,0:0:0:0:
256,288,151120,6,0,P|200:312|168:304,1,87.5,2|0,3:2|3:0,0:0:0:0:
80,208,151691,1,0,0:0:0:0:
184,120,151977,2,0,L|216:112,2,21.875
136,96,152263,1,8,0:0:0:0:
136,96,152405,2,0,P|120:80|112:48,1,43.75,0|0,0:0|3:0,0:0:0:0:
248,24,152834,2,0,B|288:48|288:48|312:160,1,131.25,0|0,3:0|0:0,0:0:0:0:
296,208,153405,5,2,3:2:0:0:
192,304,153691,1,0,3:0:0:0:
104,192,153977,1,0,0:0:0:0:
208,100,154263,1,0,0:0:0:0:
296,208,154548,2,0,L|408:192,1,87.5,8|0,0:0|3:0,0:0:0:0:
440,64,155120,2,0,L|448:32,4,21.875
504,192,155691,6,0,P|504:232|488:288,1,87.5,2|0,3:2|3:0,0:0:0:0:
360,336,156263,1,0,0:0:0:0:
296,208,156548,2,0,L|304:176,4,21.875,0|0|0|0|8,0:0|0:0|0:0|0:0|0:0,0:0:0:0:
184,288,157120,1,0,3:0:0:0:
56,224,157405,2,0,L|40:128,1,87.5,0|0,3:0|0:0,0:0:0:0:
176,24,157977,6,0,P|224:24|256:48,1,87.5,2|0,3:2|3:0,0:0:0:0:
328,168,158548,1,0,0:0:0:0:
216,256,158834,1,0,0:0:0:0:
328,344,159120,2,0,P|376:344|416:320,1,87.5,8|0,0:0|3:0,0:0:0:0:
488,208,159691,1,0,0:0:0:0:
432,40,159977,1,0,0:0:0:0:
432,40,160120,1,0,0:0:0:0:
432,40,160263,6,0,L|304:56,1,87.5,2|0,3:2|3:0,0:0:0:0:
280,160,160834,1,0,0:0:0:0:
152,176,161120,2,0,L|128:164,4,21.875,0|0|0|0|8,0:0|0:0|0:0|0:0|0:0,0:0:0:0:
240,276,161691,1,0,3:0:0:0:
368,240,161977,2,0,P|384:208|384:184,1,43.75,0|0,3:0|0:0,0:0:0:0:
388,120,162263,1,0,0:0:0:0:
240,32,162548,6,0,L|136:40,1,87.5,2|0,3:2|3:0,0:0:0:0:
104,168,163120,1,0,0:0:0:0:
152,200,163310,2,0,L|239:193,1,87.5
264,192,163691,2,0,B|288:224|288:224|272:288,1,87.5,8|0,0:0|3:2,0:0:0:0:
144,328,164263,2,0,L|112:332,4,21.875
308,360,164834,6,0,L|404:348,1,87.5,2|0,3:2|3:0,0:0:0:0:
496,248,165405,1,0,0:0:0:0:
444,116,165691,2,0,L|452:80,4,21.875,0|0|0|0|8,0:0|0:0|0:0|0:0|0:0,0:0:0:0:
344,216,166263,1,0,3:0:0:0:
208,184,166548,2,0,P|192:144|196:92,1,87.5,0|0,3:0|0:0,0:0:0:0:
348,16,167120,6,0,L|360:104,1,87.5,2|0,3:2|3:0,0:0:0:0:
272,216,167691,1,0,0:0:0:0:
140,168,167977,1,0,0:0:0:0:
88,296,168263,2,0,P|128:308|176:304,1,87.5,8|0,0:0|3:0,0:0:0:0:
140,168,168834,2,0,P|100:156|52:160,1,87.5
272,216,169405,6,0,L|264:128,1,87.5,2|0,3:2|3:0,0:0:0:0:
368,32,169977,1,0,0:0:0:0:
368,32,170263,2,0,L|400:24,4,21.875,0|0|0|0|8,0:0|0:0|0:0|0:0|0:0,0:0:0:0:
472,120,170834,1,0,3:0:0:0:
424,248,171120,2,0,P|392:264|320:256,1,87.5,0|0,3:0|0:0,0:0:0:0:
216,200,171691,6,0,L|224:312,1,87.5,2|0,3:2|3:0,0:0:0:0:
104,352,172263,2,0,P|80:312|88:256,1,87.5
128,208,172691,1,0,0:0:0:0:
128,208,172834,1,8,0:0:0:0:
264,240,173120,1,0,3:0:0:0:
344,120,173405,2,0,L|376:104,4,21.875
264,128,173834,1,0,0:0:0:0:
264,128,173977,6,0,P|200:120|160:88,1,87.5,2|0,3:2|3:0,0:0:0:0:
136,40,174405,2,0,L|72:48,1,43.75
16,160,174834,2,0,L|8:184,4,21.875,0|0|0|0|8,0:0|0:0|0:0|0:0|0:0,0:0:0:0:
152,192,175405,2,0,L|128:272,2,43.75,0|0|0,3:0|0:0|3:0,0:0:0:0:
288,144,175977,2,0,L|300:102,1,43.75
360,56,176263,5,2,3:2:0:0:
408,56,176405,1,0,0:0:0:0:
456,56,176548,2,0,P|480:96|480:152,1,87.5,0|0,3:0|0:0,0:0:0:0:
432,264,177120,1,0,0:0:0:0:
296,240,177405,2,0,P|248:240|200:256,1,87.5,8|0,0:0|3:0,0:0:0:0:
304,352,177977,2,0,P|352:352|400:336,1,87.5
488,200,178548,6,0,L|480:104,1,87.5,2|0,3:2|3:0,0:0:0:0:
368,32,179120,1,0,0:0:0:0:
368,32,179405,2,0,L|336:24,4,21.875,0|0|0|0|8,0:0|0:0|0:0|0:0|0:0,0:0:0:0:
248,104,179977,1,0,3:0:0:0:
200,240,180263,2,0,L|208:336,1,87.5,0|0,3:0|0:0,0:0:0:0:
72,296,180834,5,2,3:2:0:0:
144,176,181120,1,0,3:0:0:0:
304,248,181405,2,0,P|352:240|384:184,1,87.5
376,136,181834,1,0,0:0:0:0:
376,136,181977,2,0,L|344:48,1,87.5,8|0,0:0|3:0,0:0:0:0:
208,24,182548,2,0,L|184:28,4,21.875
264,80,182977,1,0,0:0:0:0:
264,80,183120,6,0,P|272:116|264:184,1,87.5,2|0,3:2|3:0,0:0:0:0:
216,228,183548,2,0,L|156:224,1,43.75
40,172,183977,2,0,L|32:136,4,21.875,0|0|0|0|8,0:0|0:0|0:0|0:0|0:0,0:0:0:0:
160,96,184548,2,0,L|148:44,2,43.75,0|0|0,3:0|0:0|3:0,0:0:0:0:
300,128,185120,2,0,P|336:136|364:132,1,43.75
416,108,185405,5,2,3:2:0:0:
432,152,185548,1,0,0:0:0:0:
448,196,185691,2,0,P|440:248|408:296,1,87.5,0|0,3:0|0:0,0:0:0:0:
296,336,186263,1,0,0:0:0:0:
152,240,186548,2,0,B|128:200|128:200|128:136,1,87.5,8|0,0:0|3:0,0:0:0:0:
244,72,187120,2,0,B|268:112|268:112|268:176,1,87.5
396,256,187691,6,0,L|476:248,1,70,2|0,0:0|0:0,0:0:0:0:
360,176,188263,2,0,L|440:168,1,70
312,248,188834,2,0,P|288:216|280:160,1,70,2|0,0:0|0:0,0:0:0:0:
327,115,189405,2,0,P|351:147|359:203,1,70
400,248,189834,1,0,0:0:0:0:
400,248,189977,6,0,L|392:328,1,70,2|0,0:0|0:0,0:0:0:0:
240,352,190548,2,0,L|248:272,1,70
184,160,191120,2,0,B|152:144|152:144|104:160,1,70,2|0,0:0|0:0,0:0:0:0:
40,256,191691,2,0,B|72:272|72:272|120:256,1,70
240,168,192263,6,0,L|247:99,1,70,2|0,0:0|0:0,0:0:0:0:
336,64,192834,2,0,L|329:133,1,70
408,192,193405,2,0,L|414:122,1,70,2|0,0:0|0:0,0:0:0:0:
496,80,193977,2,0,L|490:150,1,70
440,280,194548,6,0,P|405:282|371:274,1,70,2|0,0:0|0:0,0:0:0:0:
296,208,195120,1,0,0:0:0:0:
188,288,195405,2,0,P|108:304|44:284,2,140
283,275,196834,6,0,P|270:221|250:201,1,70,2|0,0:0|0:0,0:0:0:0:
342,106,197405,2,0,P|288:118|268:139,1,70
173,46,197977,2,0,P|185:101|206:121,1,70,2|0,0:0|0:0,0:0:0:0:
113,216,198548,2,0,P|168:204|188:183,1,70
193,111,198977,1,0,0:0:0:0:
193,111,199120,6,0,L|260:91,1,70,2|0,0:0|0:0,0:0:0:0:
324,30,199691,2,0,L|344:99,1,70
404,162,200263,2,0,L|334:182,1,70,2|0,0:0|0:0,0:0:0:0:
272,243,200834,2,0,L|251:173,1,70
136,224,201405,6,0,L|48:232,1,70,2|0,0:0|0:0,0:0:0:0:
96,144,201977,2,0,L|184:136,1,70
240,184,202548,2,0,L|246:114,1,70,2|0,0:0|0:0,0:0:0:0:
328,88,203120,2,0,L|321:157,1,70
376,284,203691,6,0,B|408:300|408:300|464:268,1,70,2|0,0:0|0:0,0:0:0:0:
504,204,204263,1,0,0:0:0:0:
472,68,204548,2,0,P|440:80|384:76,1,70,0|2,0:0|0:0,0:0:0:0:
296,60,205120,2,0,B|328:136|328:136|292:236,1,175
