osu file format v14

[General]
AudioFilename: audio.ogg
AudioLeadIn: 0
PreviewTime: 56853
Countdown: 0
SampleSet: Soft
StackLeniency: 0.4
Mode: 0
LetterboxInBreaks: 0
WidescreenStoryboard: 1

[Editor]
Bookmarks: 2478,42478,50478,90478,98478,122478,130478,172478
DistanceSpacing: 1.3
BeatDivisor: 4
GridSize: 4
TimelineZoom: 1

[Metadata]
Title:Talk that Talk
TitleUnicode:Talk that Talk
Artist:TWICE
ArtistUnicode:트와이스
Creator:Gero
Version:Hard to Z
Source:
Tags:BETWEEN 1&2 Nayeon Sana Momo Tzuyu Jeongyeon Mina Jihyo Chaeyoung Dahyun Korean Corean Pop iYiyo P_A_N P A N Fragmented Nabori Skymin Collab Collaboration
BeatmapID:3771729
BeatmapSetID:1836345

[Difficulty]
HPDrainRate:5
CircleSize:4
OverallDifficulty:7
ApproachRate:8
SliderMultiplier:1.6
SliderTickRate:2

[Events]
//Background and Video events
0,0,"BG.jpg",0,0
Video,840,"Las Dos Veces.m4v"
//Break Periods
2,42678,49728
2,90678,97728
2,122678,129728
//Storyboard Layer 0 (Background)
//Storyboard Layer 1 (Fail)
//Storyboard Layer 2 (Pass)
//Storyboard Layer 3 (Foreground)
//Storyboard Layer 4 (Overlay)
//Storyboard Sound Samples

[TimingPoints]
2478,500,4,2,1,65,1,0
6478,-100,4,2,70,70,0,0
8478,-100,4,2,70,75,0,0
9603,-100,4,2,80,85,0,0
9978,-100,4,2,81,85,0,0
10103,-100,4,2,82,85,0,0
10228,-100,4,2,83,85,0,0
10478,-100,4,2,1,80,0,0
14228,-100,4,2,5,80,0,0
14478,-100,4,2,2,80,0,0
14728,-100,4,2,1,80,0,0
17353,-100,4,2,1,80,0,0
18478,-100,4,2,6,80,0,0
18728,-100,4,2,44,80,0,0
19228,-100,4,2,1,80,0,0
20478,-100,4,2,6,80,0,0
20728,-100,4,2,44,80,0,0
21228,-100,4,2,1,80,0,0
22478,-100,4,2,3,80,0,0
24728,-100,4,2,2,80,0,0
24978,-100,4,2,1,80,0,0
25603,-100,4,2,80,80,0,0
26103,-100,4,2,81,80,0,0
26228,-100,4,2,82,80,0,0
26478,-100,4,2,88,80,0,0
26728,-100,4,2,39,80,0,0
28103,-100,4,2,40,80,0,0
28228,-100,4,2,39,80,0,0
28478,-100,4,2,4,80,0,0
28728,-100,4,2,39,80,0,0
30103,-100,4,2,40,80,0,0
30228,-100,4,2,39,80,0,0
30353,-100,4,2,1,80,0,0
30478,-100,4,2,4,80,0,0
30728,-100,4,2,1,80,0,0
34728,-100,4,2,39,80,0,0
36103,-100,4,2,40,80,0,0
36228,-100,4,2,39,80,0,0
37353,-100,4,2,61,80,0,0
37478,-100,4,2,60,80,0,0
37728,-100,4,2,62,80,0,0
37978,-100,4,2,63,80,0,0
38228,-100,4,2,62,80,0,0
38478,-100,4,2,63,80,0,0
38728,-100,4,2,4,80,0,0
41603,-100,4,2,80,80,0,0
42103,-100,4,2,82,80,0,0
42228,-100,4,2,83,80,0,0
42478,-100,4,2,71,80,0,0
42728,-100,4,2,70,80,0,0
58478,-100,4,2,10,85,0,1
58978,-100,4,2,2,85,0,1
60228,-100,4,2,11,85,0,1
60478,-100,4,2,2,85,0,1
62478,-100,4,2,12,85,0,1
62728,-100,4,2,2,85,0,1
64228,-100,4,2,13,85,0,1
64478,-100,4,2,2,85,0,1
64978,-100,4,2,50,85,0,1
65478,-100,4,2,51,85,0,1
65978,-100,4,2,52,85,0,0
66478,-100,4,2,53,85,0,1
66853,-100,4,2,2,85,0,1
68228,-100,4,2,11,85,0,1
68478,-100,4,2,2,85,0,1
70478,-100,4,2,12,85,0,1
70978,-100,4,2,2,85,0,1
73603,-100,4,2,80,85,0,1
74103,-100,4,2,82,85,0,1
74228,-100,4,2,83,85,0,1
74478,-100,4,2,88,85,0,0
74978,-100,4,2,1,85,0,0
82478,-100,4,2,88,85,0,0
82603,-100,4,2,1,85,0,0
89603,-100,4,2,80,85,0,0
90103,-100,4,2,82,85,0,0
90228,-100,4,2,83,85,0,0
90353,-100,4,2,84,85,0,0
90478,-100,4,2,71,85,0,0
90728,-100,4,2,70,85,0,0
106478,-100,4,2,10,85,0,1
106978,-100,4,2,2,85,0,1
108228,-100,4,2,11,85,0,1
108478,-100,4,2,2,85,0,1
110478,-100,4,2,12,85,0,1
110728,-100,4,2,2,85,0,1
112228,-100,4,2,13,85,0,1
112478,-100,4,2,2,85,0,1
112978,-100,4,2,50,85,0,1
113478,-100,4,2,51,85,0,1
113978,-100,4,2,52,85,0,0
114478,-100,4,2,53,85,0,1
114853,-100,4,2,2,85,0,1
116228,-100,4,2,11,85,0,1
116478,-100,4,2,2,85,0,1
118478,-100,4,2,12,85,0,1
118978,-100,4,2,2,85,0,1
121603,-100,4,2,80,85,0,1
122103,-100,4,2,82,85,0,1
122228,-100,4,2,83,85,0,1
122478,-100,4,2,89,85,0,0
122978,-100,4,2,1,70,0,0
126978,-100,4,2,1,75,0,0
128228,-100,4,2,1,80,0,0
130478,-100,4,2,70,85,0,0
139603,-100,4,2,80,85,0,0
140103,-100,4,2,82,85,0,0
140228,-100,4,2,83,85,0,0
140478,-100,4,2,35,85,0,1
140978,-100,4,2,2,85,0,1
142228,-100,4,2,11,85,0,1
142478,-100,4,2,2,85,0,1
144478,-100,4,2,12,85,0,1
144728,-100,4,2,2,85,0,1
146228,-100,4,2,13,85,0,1
146478,-100,4,2,2,85,0,1
146978,-100,4,2,50,85,0,1
147478,-100,4,2,51,85,0,1
147978,-100,4,2,52,85,0,0
148478,-100,4,2,53,85,0,1
148853,-100,4,2,2,85,0,1
150228,-100,4,2,11,85,0,1
150478,-100,4,2,2,85,0,1
151228,-100,4,2,2,85,0,0
152478,-100,4,2,12,85,0,1
152728,-100,4,2,2,85,0,1
154478,-100,4,2,99,85,0,1
154728,-100,4,2,2,85,0,1
155603,-100,4,2,80,85,0,1
155978,-100,4,2,80,85,0,0
156103,-100,4,2,82,85,0,0
156228,-100,4,2,83,85,0,0
156478,-100,4,2,10,85,0,1
156978,-100,4,2,2,85,0,1
158228,-100,4,2,11,85,0,1
158478,-100,4,2,2,85,0,1
160478,-100,4,2,12,85,0,1
160978,-100,4,2,2,85,0,1
162228,-100,4,2,13,85,0,1
162478,-100,4,2,2,85,0,1
162978,-100,4,2,50,85,0,1
163478,-100,4,2,51,85,0,1
163978,-100,4,2,52,85,0,0
164478,-100,4,2,53,85,0,1
164853,-100,4,2,2,85,0,1
166228,-100,4,2,11,85,0,1
166478,-100,4,2,2,85,0,1
168478,-100,4,2,12,85,0,1
168728,-100,4,2,2,85,0,1
171603,-100,4,2,80,85,0,1
172103,-100,4,2,82,85,0,1
172228,-100,4,2,83,85,0,1
172478,-100,4,2,1,85,0,0

[Colours]
Combo1 : 236,191,100
Combo2 : 252,122,122
Combo3 : 109,188,231
Combo4 : 222,84,222

[HitObjects]
346,315,2478,6,0,P|400:272|424:337,1,160,4|8,1:2|0:0,0:0:0:0:
272,244,3478,2,0,P|217:201|193:266,1,160,0|8,1:0|0:0,0:0:0:0:
256,328,4228,6,0,L|180:92,1,240,0|8,1:0|0:0,0:0:0:0:
256,52,5228,1,0,1:0:0:0:
176,12,5478,2,0,P|124:28|104:64,1,80,0|0,1:0|1:0,0:0:0:0:
9,93,5978,2,0,P|48:99|76:128,1,80,8|0,0:0|1:0,0:0:0:0:
140,192,6478,5,0,3:0:0:0:
140,192,6728,1,0,3:0:0:0:
72,244,6978,1,8,3:2:0:0:
72,244,7228,1,0,3:0:0:0:
124,316,7478,1,0,3:0:0:0:
124,316,7728,1,0,3:0:0:0:
196,268,7978,2,0,L|221:343,1,80,8|0,3:2|3:0,0:0:0:0:
278,232,8478,6,0,L|291:270,3,40,0|0|0|0,3:0|3:0|3:0|3:0,0:0:0:0:
336,280,8978,2,0,L|348:317,3,40,8|0|0|0,3:2|3:0|3:0|3:0,0:0:0:0:
393,327,9478,5,0,0:0:0:0:
393,327,9603,2,0,L|405:364,1,40,8|8,0:0|0:0,0:0:0:0:
480,220,9978,1,10,0:0:0:0:
480,220,10103,2,0,L|468:257,1,40,8|8,3:0|3:0,0:0:0:0:
392,156,10478,5,0,1:0:0:0:
392,156,10603,1,0,0:0:0:0:
392,156,10728,1,2,0:0:0:0:
480,120,10978,2,0,P|492:80|480:44,1,80,2|2,1:2|0:0,0:0:0:0:
444,12,11353,2,0,B|400:24|400:24|328:0,1,120,2|2,0:0|0:0,0:0:0:0:
256,64,11978,1,2,1:2:0:0:
340,124,12228,5,2,0:0:0:0:
340,124,12353,2,0,P|359:176|343:236,1,120,2|2,0:0|0:0,0:0:0:0:
264,184,12978,2,0,P|235:156|196:152,1,80,2|2,1:2|0:0,0:0:0:0:
172,112,13353,2,0,B|160:231,1,120,2|2,0:0|0:0,0:0:0:0:
84,288,13978,1,2,1:2:0:0:
176,320,14228,1,6,0:0:0:0:
256,264,14478,6,0,P|272:312|260:356,1,80,4|2,1:2|0:0,0:0:0:0:
236,376,14853,1,0,0:0:0:0:
236,376,14978,1,2,1:2:0:0:
344,360,15228,1,2,0:0:0:0:
344,360,15353,2,0,B|393:352|393:352|410:361|410:361|468:352,1,120,2|2,0:0|0:0,0:0:0:0:
431,259,15978,6,0,L|376:200,1,80,2|2,1:2|0:0,0:0:0:0:
344,168,16353,2,0,L|456:104,1,120,2|2,0:0|0:0,0:0:0:0:
380,44,16978,1,2,1:2:0:0:
296,92,17228,5,0,0:0:0:0:
296,92,17353,2,0,B|272:80|244:96|244:96|216:112|181:96,1,120,2|2,0:0|0:0,0:0:0:0:
104,40,17978,2,0,L|108:0,2,40,2|0|2,1:2|0:0|0:0,0:0:0:0:
32,104,18478,5,6,1:2:0:0:
104,152,18728,1,2,0:0:0:0:
40,224,18978,1,0,1:0:0:0:
40,224,19103,2,0,L|62:300,1,80,2|2,0:0|0:0,0:0:0:0:
84,264,19478,2,0,L|106:340,1,80,0|2,0:0|0:0,0:0:0:0:
184,284,19978,1,2,1:2:0:0:
256,340,20228,1,2,0:0:0:0:
316,272,20478,5,6,1:2:0:0:
247,211,20728,2,0,P|227:156|239:98,2,120,2|2|2,0:0|0:0|1:2,0:0:0:0:
316,148,21728,1,2,0:0:0:0:
380,208,21978,2,0,P|428:216|468:200,1,80,2|2,1:2|0:0,0:0:0:0:
416,120,22478,6,0,B|376:72|376:72|352:72|352:72|307:13,1,160,6|6,1:2|1:2,0:0:0:0:
224,56,23228,1,0,0:0:0:0:
224,56,23353,2,0,P|168:36|112:56,1,120,6|6,0:0|0:0,0:0:0:0:
28,136,23978,2,0,P|84:132|112:152,1,80,0|2,1:0|0:0,0:0:0:0:
160,224,24478,5,4,1:2:0:0:
92,288,24728,1,4,1:2:0:0:
28,356,24978,1,2,0:0:0:0:
24,352,25478,5,2,0:0:0:0:
24,352,25603,1,8,0:0:0:0:
24,352,25728,1,8,0:0:0:0:
92,288,25978,5,8,0:0:0:0:
92,288,26103,1,8,3:0:0:0:
92,288,26228,1,8,3:0:0:0:
160,224,26478,6,0,P|196:212|236:224,1,80,4|2,1:2|0:0,0:0:0:0:
300,176,26853,2,0,B|311:192|311:192|328:204,1,40,2|8,0:0|1:2,0:0:0:0:
392,156,27103,2,0,B|412:159|412:159|432:155,1,40,2|0,0:0|0:0,0:0:0:0:
412,80,27353,2,0,B|428:68|428:68|440:51,1,40,2|0,0:0|1:0,0:0:0:0:
372,12,27603,2,0,B|332:24|332:24|292:8,1,80,2|2,0:0|0:0,0:0:0:0:
220,36,27978,2,0,B|200:32|200:32|176:36,2,40,10|2|2,1:2|0:0|0:0,0:0:0:0:
80,116,28478,6,0,B|76:148|76:148|84:164|84:164|80:196,1,80,4|2,1:2|0:0,0:0:0:0:
24,252,28853,2,0,P|40:264|68:272,1,40,2|8,0:0|1:2,0:0:0:0:
112,328,29103,2,0,P|128:312|136:284,1,40,2|0,0:0|0:0,0:0:0:0:
228,264,29353,2,0,P|216:280|216:312,1,40,2|0,0:0|1:0,0:0:0:0:
292,312,29603,2,0,B|304:328|328:336|328:336|352:328|364:312,1,80,2|2,0:0|0:0,0:0:0:0:
428,280,29978,2,0,L|440:232,2,40,10|2|2,1:2|0:0|0:0,0:0:0:0:
336,152,30478,6,0,L|356:68,1,80,4|2,1:2|0:0,0:0:0:0:
300,16,30853,2,0,L|260:28,1,40,2|8,0:0|1:2,0:0:0:0:
260,108,31103,2,0,L|220:96,1,40,2|0,0:0|0:0,0:0:0:0:
184,28,31353,2,0,L|144:40,1,40,2|0,0:0|1:0,0:0:0:0:
144,120,31603,2,0,L|104:108,1,40,2|0,0:0|0:0,0:0:0:0:
40,60,31853,2,0,L|20:152,1,80,2|0,0:0|0:0,0:0:0:0:
80,192,32228,1,2,0:0:0:0:
200,296,32478,6,0,B|204:324|204:324|184:372,1,80,2|2,1:2|0:0,0:0:0:0:
320,300,32978,1,8,1:2:0:0:
320,300,33103,2,0,L|312:236,1,40,2|0,0:0|0:0,0:0:0:0:
396,260,33353,2,0,L|408:204,1,40,2|0,0:0|1:0,0:0:0:0:
476,184,33603,2,0,L|464:128,1,40,2|0,0:0|0:0,0:0:0:0:
492,68,33853,2,0,B|460:72|460:72|444:60|444:60|412:64,1,80,2|0,0:0|0:0,0:0:0:0:
352,16,34228,1,2,0:0:0:0:
176,84,34478,6,0,P|216:112|228:152,1,80,0|2,1:0|0:0,0:0:0:0:
148,156,34853,2,0,L|109:145,1,40,2|8,0:0|1:2,0:0:0:0:
36,172,35103,2,0,L|55:206,1,40,2|0,0:0|0:0,0:0:0:0:
124,248,35353,2,0,L|113:286,1,40,2|0,0:0|1:0,0:0:0:0:
140,360,35603,2,0,L|216:312,1,80,2|2,0:0|0:0,0:0:0:0:
276,276,35978,2,0,L|288:336,2,40,10|2|2,1:2|0:0|0:0,0:0:0:0:
380,156,36478,6,0,L|372:252,1,80,0|2,1:2|0:0,0:0:0:0:
444,272,36853,2,0,L|450:192,1,80,2|2,0:0|0:0,0:0:0:0:
500,128,37228,1,0,0:0:0:0:
396,8,37478,5,2,1:2:0:0:
284,124,37728,1,2,0:0:0:0:
404,20,37978,1,10,1:2:0:0:
292,136,38228,1,2,0:0:0:0:
180,20,38478,6,0,B|136:16|136:16|92:48,1,80,6|2,1:2|0:0,0:0:0:0:
8,164,38978,2,0,B|36:185|36:185|80:181,1,80,10|2,1:2|0:0,0:0:0:0:
216,96,39478,5,4,1:2:0:0:
216,96,39603,2,0,P|208:132|224:188,1,80,2|0,0:0|0:0,0:0:0:0:
284,220,39978,1,12,1:2:0:0:
284,220,40103,2,0,P|292:256|276:312,1,80,2|0,0:0|0:0,0:0:0:0:
244,368,40478,5,4,1:2:0:0:
244,368,40603,2,0,P|280:376|336:360,1,80,2|0,0:0|0:0,0:0:0:0:
392,328,40978,1,10,1:2:0:0:
504,212,41228,1,2,0:0:0:0:
388,100,41478,5,2,1:2:0:0:
388,100,41603,1,8,0:0:0:0:
388,100,41728,1,8,0:0:0:0:
284,220,41978,5,8,0:0:0:0:
284,220,42103,1,8,3:0:0:0:
284,220,42228,1,8,3:0:0:0:
392,328,42478,5,6,1:2:0:0:
384,144,50478,6,0,P|407:112|410:73,1,80,2|2,3:2|0:0,0:0:0:0:
316,76,50978,2,0,P|310:36|284:7,1,80,2|2,3:2|0:0,0:0:0:0:
220,80,51478,2,0,P|188:56|149:53,1,80,2|2,3:2|0:0,0:0:0:0:
152,148,51978,2,0,P|112:153|83:179,1,80,2|2,3:2|0:0,0:0:0:0:
156,244,52478,6,0,P|132:275|129:314,1,80,2|2,3:2|0:0,0:0:0:0:
224,312,52978,2,0,P|229:351|255:380,1,80,2|2,3:2|0:0,0:0:0:0:
320,308,53478,2,0,P|351:331|390:334,1,80,2|2,3:2|0:0,0:0:0:0:
388,240,53978,2,0,P|427:234|456:208,1,80,2|0,3:2|0:0,0:0:0:0:
388,140,54478,5,2,1:2:0:0:
324,68,54728,1,2,3:2:0:0:
232,96,54978,1,2,1:2:0:0:
236,192,55228,1,2,3:2:0:0:
168,260,55478,5,2,1:2:0:0:
88,204,55728,5,2,3:2:0:0:
88,204,55853,1,2,0:0:0:0:
88,204,55978,1,2,1:2:0:0:
112,112,56228,1,2,3:2:0:0:
208,108,56478,6,0,L|225:72,3,40,0|0|0|0,3:0|3:0|3:0|3:0,0:0:0:0:
272,84,56978,2,0,L|307:66,3,40,2|0|2|0,3:2|3:0|3:2|3:0,0:0:0:0:
336,104,57478,2,0,L|371:121,3,40,2|0|0|0,3:2|3:0|3:0|3:0,0:0:0:0:
359,168,57978,1,2,0:0:0:0:
359,168,58478,6,0,P|347:205|354:244,1,80,6|0,1:2|0:0,0:0:0:0:
440,304,58978,1,10,1:2:0:0:
348,352,59228,1,2,0:0:0:0:
260,296,59478,2,0,L|180:328,1,80,2|0,1:2|0:0,0:0:0:0:
116,356,59853,1,2,0:0:0:0:
116,356,59978,1,8,0:0:0:0:
32,288,60228,1,6,0:0:0:0:
112,188,60478,6,0,P|176:224|124:256,1,160,0|10,1:0|1:2,0:0:0:0:
32,164,61228,1,2,0:0:0:0:
100,84,61478,2,0,B|140:76|140:76|180:88,1,80,2|2,1:2|0:0,0:0:0:0:
244,136,61853,2,0,B|284:144|284:144|324:132,1,80,2|2,0:0|0:0,0:0:0:0:
380,76,62228,1,2,0:0:0:0:
436,164,62478,5,4,1:2:0:0:
360,232,62728,1,2,0:0:0:0:
456,276,62978,1,10,1:2:0:0:
456,276,63103,1,2,0:0:0:0:
456,276,63228,2,0,L|436:328,1,40,2|2,0:0|0:0,0:0:0:0:
373,357,63478,2,0,L|492:376,2,120,2|2|6,1:2|0:0|0:0,0:0:0:0:
308,276,64478,6,0,B|256:284|256:284|220:316|220:316|156:324,3,160,0|14|6|14,1:0|1:2|1:2|1:2,0:0:0:0:
72,268,66228,1,0,0:0:0:0:
164,212,66478,6,0,P|172:160|160:128,1,80,6|0,1:2|0:0,0:0:0:0:
108,80,66853,2,0,P|96:56|100:12,1,40,2|8,0:0|1:2,0:0:0:0:
172,40,67103,2,0,P|180:14|214:-13,1,40,2|0,0:0|0:0,0:0:0:0:
248,56,67353,2,0,L|360:64,1,80,2|0,0:0|0:0,0:0:0:0:
400,28,67728,1,2,0:0:0:0:
440,124,67978,1,10,1:2:0:0:
400,28,68228,1,6,0:0:0:0:
440,124,68478,6,0,L|416:208,1,80,0|0,1:0|0:0,0:0:0:0:
472,260,68853,2,0,L|432:280,1,40,2|8,0:0|1:2,0:0:0:0:
428,360,69103,2,0,L|376:336,1,40,2|0,0:0|0:0,0:0:0:0:
336,284,69353,2,0,L|296:360,1,80,2|0,0:0|0:0,0:0:0:0:
228,324,69728,1,2,0:0:0:0:
156,248,69978,1,8,1:2:0:0:
256,224,70228,1,2,0:0:0:0:
132,356,70478,6,0,B|120:320|72:308|72:308|84:272|48:228,1,160,6|8,1:2|1:2,0:0:0:0:
92,88,71228,2,0,P|112:124|96:188,1,80,2|0,0:0|1:0,0:0:0:0:
216,80,71728,2,0,P|218:121|177:172,1,80,2|8,0:0|1:2,0:0:0:0:
276,296,72228,2,0,P|256:260|272:196,1,80,2|0,0:0|1:0,0:0:0:0:
152,304,72728,2,0,P|149:262|190:211,1,80,2|10,0:0|1:2,0:0:0:0:
62,238,73228,1,2,0:0:0:0:
111,162,73478,5,0,1:0:0:0:
111,162,73603,1,8,0:0:0:0:
111,162,73728,1,8,0:0:0:0:
167,230,73978,5,8,0:0:0:0:
167,230,74103,1,8,3:0:0:0:
167,230,74228,1,8,3:0:0:0:
252,140,74478,6,0,P|304:124|372:148,1,120,6|0,1:2|0:0,0:0:0:0:
404,176,74978,2,0,L|396:84,1,80,2|0,1:2|0:0,0:0:0:0:
488,156,75478,6,0,B|492:208|492:208|484:216|484:216|488:280,2,120,2|0|2,1:2|0:0|0:0,0:0:0:0:
488,52,76478,5,0,0:0:0:0:
397,96,76728,1,2,0:0:0:0:
308,40,76978,1,2,1:2:0:0:
308,40,77103,1,2,0:0:0:0:
308,40,77228,1,2,0:0:0:0:
216,92,77478,6,0,P|165:90|188:135,2,120,2|0|2,1:2|0:0|0:0,0:0:0:0:
288,168,78478,5,0,0:0:0:0:
204,228,78728,1,2,0:0:0:0:
204,228,78853,1,2,0:0:0:0:
204,228,78978,2,0,L|160:260,2,40,2|2|2,1:2|0:0|0:0,0:0:0:0:
300,272,79478,2,0,L|365:226,1,80,2|0,1:2|0:0,0:0:0:0:
416,240,79853,2,0,L|375:171,1,80,2|0,0:0|0:0,0:0:0:0:
416,136,80228,2,0,L|396:100,1,40,2|2,0:0|0:0,0:0:0:0:
400,44,80478,5,2,1:2:0:0:
308,96,80728,1,2,0:0:0:0:
308,96,80853,1,2,1:2:0:0:
308,96,80978,1,2,0:0:0:0:
224,36,81228,1,0,0:0:0:0:
224,36,81353,2,0,B|188:63|188:63|184:138,1,120,0|2,0:0|1:2,0:0:0:0:
256,227,81978,2,0,L|260:188,2,40,8|0|0,0:0|0:0|1:0,0:0:0:0:
152,256,82478,5,6,1:2:0:0:
152,256,82603,1,2,0:0:0:0:
152,256,82728,2,0,L|168:304,1,40,2|2,0:0|0:0,0:0:0:0:
224,348,82978,2,0,L|146:368,1,80,10|2,1:2|0:0,0:0:0:0:
248,268,83478,2,0,B|304:284|304:284|328:320|328:320|392:336,1,160,2|8,1:2|1:2,0:0:0:0:
440,228,84228,1,2,0:0:0:0:
360,128,84478,5,2,1:2:0:0:
360,128,84603,1,2,0:0:0:0:
360,128,84728,2,0,L|344:80,1,40,2|2,0:0|0:0,0:0:0:0:
288,36,84978,2,0,L|365:15,1,80,10|2,1:2|0:0,0:0:0:0:
264,116,85478,2,0,B|208:100|208:100|184:64|184:64|120:48,1,160,2|8,1:2|1:2,0:0:0:0:
72,156,86228,1,0,0:0:0:0:
156,284,86478,6,0,P|160:232|184:200,1,80,2|0,1:2|0:0,0:0:0:0:
356,284,86978,2,0,P|352:232|328:200,1,80,10|0,1:2|0:0,0:0:0:0:
256,144,87478,1,2,1:2:0:0:
174,209,87728,1,2,0:0:0:0:
256,144,87978,1,10,1:2:0:0:
338,209,88228,6,0,L|385:56,1,160,2|0,0:0|0:0,0:0:0:0:
292,12,88978,1,2,0:0:0:0:
392,60,89228,2,0,L|344:212,1,160,2|8,0:0|0:0,0:0:0:0:
256,144,89978,5,8,0:0:0:0:
256,144,90103,1,8,3:0:0:0:
256,144,90228,2,0,L|240:192,1,40,8|8,3:0|3:0,0:0:0:0:
224,232,90478,5,6,1:2:0:0:
92,312,98478,6,0,P|79:274|90:236,1,80,2|2,3:2|0:0,0:0:0:0:
176,176,98978,1,2,3:2:0:0:
236,260,99228,2,0,B|284:244|284:244|412:268,1,160,2|2,0:0|0:0,0:0:0:0:
492,244,99978,1,2,3:2:0:0:
432,160,100228,6,0,B|384:176|384:176|256:152,1,160,2|2,0:0|0:0,0:0:0:0:
340,72,100978,1,2,3:2:0:0:
248,28,101228,2,0,P|172:12|184:80,1,160,2|2,0:0|0:0,0:0:0:0:
84,120,101978,2,0,P|108:152|112:200,1,80,2|2,3:2|3:2,0:0:0:0:
40,264,102478,5,2,1:2:0:0:
88,352,102728,1,2,3:2:0:0:
184,356,102978,1,2,1:2:0:0:
256,288,103228,1,2,3:2:0:0:
288,188,103478,5,2,1:2:0:0:
380,136,103728,5,2,3:2:0:0:
380,136,103853,1,2,0:0:0:0:
380,136,103978,1,2,1:2:0:0:
448,216,104228,5,2,3:2:0:0:
448,216,104353,1,0,0:0:0:0:
448,216,104478,2,0,L|440:260,3,40,0|0|0|0,3:0|3:0|3:0|3:0,0:0:0:0:
392,268,104978,2,0,L|400:312,3,40,2|0|2|0,3:2|3:0|3:2|3:0,0:0:0:0:
364,344,105478,5,0,0:0:0:0:
364,344,106478,6,0,L|333:269,1,80,6|0,1:2|0:0,0:0:0:0:
256,204,106978,1,10,1:2:0:0:
178,270,107228,1,2,0:0:0:0:
108,192,107478,2,0,P|96:154|110:117,1,80,2|0,1:2|0:0,0:0:0:0:
160,56,107853,1,2,0:0:0:0:
160,56,107978,1,8,0:0:0:0:
256,96,108228,1,6,0:0:0:0:
348,32,108478,6,0,B|360:88|360:88|344:120|344:120|360:188,1,160,0|10,1:0|1:2,0:0:0:0:
436,256,109228,1,2,0:0:0:0:
372,336,109478,2,0,B|332:354|294:334,1,80,2|2,1:2|0:0,0:0:0:0:
252,260,109853,2,0,B|212:242|174:261,1,80,2|2,1:2|0:0,0:0:0:0:
112,320,110228,1,2,0:0:0:0:
76,220,110478,5,4,1:2:0:0:
152,152,110728,1,2,0:0:0:0:
56,108,110978,1,10,1:2:0:0:
56,108,111103,1,2,0:0:0:0:
56,108,111228,2,0,L|76:56,1,40,2|2,0:0|0:0,0:0:0:0:
139,27,111478,2,0,L|20:8,2,120,2|2|6,1:2|0:0|0:0,0:0:0:0:
204,108,112478,6,0,B|256:100|256:100|292:68|292:68|356:60,3,160,0|14|6|14,1:0|1:2|1:2|1:2,0:0:0:0:
440,116,114228,1,0,0:0:0:0:
348,172,114478,6,0,P|340:224|352:256,1,80,6|0,1:2|0:0,0:0:0:0:
404,304,114853,2,0,P|416:328|412:372,1,40,2|8,0:0|1:2,0:0:0:0:
340,344,115103,2,0,P|332:370|298:397,1,40,2|0,0:0|0:0,0:0:0:0:
264,328,115353,2,0,L|152:320,1,80,2|0,0:0|0:0,0:0:0:0:
112,356,115728,1,2,0:0:0:0:
72,260,115978,1,10,1:2:0:0:
112,356,116228,1,6,0:0:0:0:
72,260,116478,6,0,L|96:176,1,80,0|0,1:0|0:0,0:0:0:0:
40,124,116853,2,0,L|80:104,1,40,2|8,0:0|1:2,0:0:0:0:
84,24,117103,2,0,L|136:48,1,40,2|0,0:0|0:0,0:0:0:0:
176,100,117353,2,0,L|216:24,1,80,2|0,0:0|0:0,0:0:0:0:
284,60,117728,1,2,0:0:0:0:
356,136,117978,1,8,1:2:0:0:
256,160,118228,1,2,0:0:0:0:
380,28,118478,6,0,B|392:64|440:76|440:76|428:112|464:156,1,160,6|8,1:2|1:2,0:0:0:0:
420,296,119228,2,0,P|400:260|416:196,1,80,2|0,0:0|1:0,0:0:0:0:
296,304,119728,2,0,P|294:263|335:212,1,80,2|8,0:0|1:2,0:0:0:0:
236,88,120228,2,0,P|256:124|240:188,1,80,2|0,0:0|1:0,0:0:0:0:
360,80,120728,2,0,P|363:122|322:173,1,80,2|10,0:0|1:2,0:0:0:0:
450,146,121228,1,2,0:0:0:0:
401,222,121478,5,0,1:0:0:0:
401,222,121603,1,8,0:0:0:0:
401,222,121728,1,8,0:0:0:0:
346,155,121978,5,8,0:0:0:0:
346,155,122103,1,8,3:0:0:0:
346,155,122228,2,0,L|323:121,2,40,8|0|2,3:0|0:0|0:0,0:0:0:0:
345,153,130478,6,0,P|335:115|307:87,1,80,0|0,3:0|0:0,0:0:0:0:
252,12,130978,2,0,P|223:39|214:78,1,80,2|2,3:2|0:0,0:0:0:0:
120,88,131478,2,0,P|129:126|157:154,1,80,2|0,3:2|0:0,0:0:0:0:
213,229,131978,2,0,P|241:201|250:162,1,80,0|2,3:0|0:0,0:0:0:0:
119,239,132478,6,0,P|128:277|156:305,1,80,0|2,3:0|0:0,0:0:0:0:
212,380,132978,2,0,P|240:352|249:313,1,80,2|2,3:2|0:0,0:0:0:0:
344,304,133478,2,0,P|334:265|306:237,1,80,2|0,3:2|0:0,0:0:0:0:
251,163,133978,2,0,P|222:190|213:229,1,80,0|2,3:0|0:0,0:0:0:0:
345,153,134478,5,0,3:0:0:0:
345,153,134728,1,2,3:2:0:0:
312,64,134978,1,2,3:2:0:0:
312,64,135228,1,0,3:0:0:0:
218,74,135478,1,0,3:0:0:0:
218,74,135728,1,2,3:2:0:0:
251,163,135978,1,0,3:0:0:0:
251,163,136228,1,2,3:2:0:0:
157,173,136478,6,0,L|147:211,1,40,2|0,3:2|3:0,0:0:0:0:
90,211,136728,2,0,L|81:173,1,40,2|0,3:2|3:0,0:0:0:0:
119,144,136978,5,2,3:2:0:0:
157,115,137103,1,0,3:0:0:0:
143,70,137228,1,2,3:2:0:0:
95,70,137353,1,0,3:0:0:0:
80,115,137478,6,0,L|60:110,6,20,2|0|0|0|0|0|0,3:2|3:0|3:0|3:0|3:0|3:0|3:0,0:0:0:0:
32,92,137978,6,0,L|12:87,6,20,2|0|0|0|0|0|0,3:2|3:0|3:0|3:0|3:0|3:0|3:0,0:0:0:0:
32,92,139603,5,8,0:0:0:0:
32,92,139728,1,8,0:0:0:0:
116,140,139978,5,8,0:0:0:0:
116,140,140103,1,8,3:0:0:0:
116,140,140228,1,8,3:0:0:0:
172,52,140478,6,0,L|250:65,1,80,6|0,1:2|0:0,0:0:0:0:
344,20,140978,1,10,1:2:0:0:
408,100,141228,1,2,0:0:0:0:
316,148,141478,2,0,P|303:185|312:224,1,80,2|0,1:2|0:0,0:0:0:0:
364,284,141853,1,2,0:0:0:0:
364,284,141978,1,8,0:0:0:0:
288,356,142228,1,6,0:0:0:0:
200,284,142478,6,0,B|220:252|220:252|98:267,1,160,0|10,1:0|1:2,0:0:0:0:
24,192,143228,1,2,0:0:0:0:
124,96,143478,2,0,B|110:174,1,80,2|2,1:2|0:0,0:0:0:0:
188,184,143853,2,0,B|201:105,1,80,2|2,0:0|0:0,0:0:0:0:
280,120,144228,1,2,0:0:0:0:
412,140,144478,5,4,1:2:0:0:
348,224,144728,1,2,0:0:0:0:
448,248,144978,1,10,1:2:0:0:
448,248,145103,1,2,0:0:0:0:
448,248,145228,2,0,L|428:300,1,40,2|2,0:0|0:0,0:0:0:0:
365,329,145478,2,0,P|424:324|464:368,2,120,2|2|6,1:2|0:0|0:0,0:0:0:0:
296,248,146478,6,0,B|260:268|264:316|264:316|236:284|192:292,3,160,0|14|6|14,1:0|1:2|1:2|1:2,0:0:0:0:
116,356,148228,1,0,0:0:0:0:
112,240,148478,6,0,L|100:152,1,80,6|0,1:2|0:0,0:0:0:0:
136,88,148853,2,0,L|189:45,1,40,2|8,0:0|1:2,0:0:0:0:
232,112,149103,2,0,L|260:60,1,40,2|0,0:0|0:0,0:0:0:0:
276,4,149353,2,0,L|336:56,1,80,2|0,0:0|0:0,0:0:0:0:
404,104,149728,1,2,0:0:0:0:
476,28,149978,1,10,1:2:0:0:
508,128,150228,1,6,0:0:0:0:
436,200,150478,6,0,L|412:284,1,80,0|0,1:0|0:0,0:0:0:0:
340,248,150853,2,0,L|300:268,1,40,2|8,0:0|1:2,0:0:0:0:
272,340,151103,2,0,L|220:316,1,40,2|0,0:0|0:0,0:0:0:0:
188,232,151478,5,0,1:0:0:0:
112,300,151728,1,2,0:0:0:0:
44,220,151978,1,8,1:2:0:0:
128,156,152228,5,2,0:0:0:0:
128,156,152353,1,0,0:0:0:0:
128,156,152478,2,0,B|116:120|68:108|68:108|80:72|44:28,1,160,6|8,1:2|1:2,0:0:0:0:
148,60,153228,1,2,0:0:0:0:
304,64,153478,2,0,L|240:16,1,80,2|2,1:2|0:0,0:0:0:0:
232,124,153978,2,0,L|296:172,1,80,10|2,1:2|0:0,0:0:0:0:
412,216,154478,6,0,B|360:224|360:224|324:256|324:256|260:264,1,160,6|8,1:2|1:2,0:0:0:0:
184,328,155228,1,2,0:0:0:0:
176,224,155478,5,0,1:0:0:0:
176,224,155603,1,8,0:0:0:0:
176,224,155728,1,8,0:0:0:0:
92,284,155978,5,8,0:0:0:0:
92,284,156103,1,8,3:0:0:0:
92,284,156228,1,8,3:0:0:0:
47,109,156478,6,0,L|84:180,1,80,6|0,1:2|0:0,0:0:0:0:
176,128,156978,1,10,1:2:0:0:
124,40,157228,1,2,0:0:0:0:
228,32,157478,2,0,P|265:43|304:36,1,80,2|0,1:2|0:0,0:0:0:0:
380,8,157853,1,2,0:0:0:0:
380,8,157978,1,8,0:0:0:0:
460,72,158228,1,6,0:0:0:0:
360,140,158478,6,0,B|328:188|328:188|352:287,1,160,0|10,1:0|1:2,0:0:0:0:
284,364,159228,1,2,0:0:0:0:
226,214,159478,2,0,B|208:292,1,80,2|0,1:2|0:0,0:0:0:0:
112,184,159978,2,0,B|130:261,1,80,10|0,1:2|0:0,0:0:0:0:
184,136,160478,5,4,1:2:0:0:
92,88,160728,1,0,0:0:0:0:
176,28,160978,1,10,1:2:0:0:
176,28,161103,1,0,0:0:0:0:
176,28,161228,2,0,L|228:48,1,40,2|0,0:0|0:0,0:0:0:0:
300,16,161478,2,0,L|275:133,2,120,2|2|6,1:2|0:0|0:0,0:0:0:0:
420,68,162478,6,0,B|384:92|384:92|372:164|372:164|396:204,3,160,0|14|6|14,1:0|1:2|1:2|1:2,0:0:0:0:
484,148,164228,1,0,0:0:0:0:
504,248,164478,6,0,L|476:344,1,80,6|0,1:2|0:0,0:0:0:0:
408,292,164853,2,0,L|384:340,1,40,2|8,0:0|1:2,0:0:0:0:
320,284,165103,2,0,L|301:319,1,40,2|0,0:0|0:0,0:0:0:0:
232,280,165353,2,0,L|172:228,1,80,2|0,0:0|0:0,0:0:0:0:
112,172,165728,1,2,0:0:0:0:
200,116,165978,1,10,1:2:0:0:
108,64,166228,1,6,0:0:0:0:
200,12,166478,6,0,L|284:36,1,80,0|0,1:0|0:0,0:0:0:0:
316,104,166853,2,0,L|336:144,1,40,2|8,0:0|1:2,0:0:0:0:
408,164,167103,2,0,L|384:216,1,40,2|0,0:0|0:0,0:0:0:0:
448,264,167353,2,0,L|348:280,1,80,2|0,0:0|0:0,0:0:0:0:
292,292,167728,1,2,0:0:0:0:
204,348,167978,1,8,1:2:0:0:
144,264,168228,5,2,0:0:0:0:
144,264,168353,1,0,0:0:0:0:
144,264,168478,2,0,B|168:228|146:192|146:192|124:156|148:112,1,160,6|8,1:2|1:2,0:0:0:0:
232,52,169228,2,0,P|252:88|236:152,1,80,2|0,0:0|1:0,0:0:0:0:
356,44,169728,2,0,P|358:85|317:136,1,80,2|8,0:0|1:2,0:0:0:0:
416,260,170228,2,0,P|396:224|412:160,1,80,2|0,0:0|1:0,0:0:0:0:
292,268,170728,2,0,P|289:226|330:175,1,80,2|10,0:0|1:2,0:0:0:0:
202,202,171228,1,2,0:0:0:0:
251,126,171478,5,0,1:0:0:0:
251,126,171603,1,8,0:0:0:0:
251,126,171728,1,8,0:0:0:0:
306,194,171978,5,8,0:0:0:0:
306,194,172103,1,8,3:0:0:0:
306,194,172228,1,8,3:0:0:0:
208,292,172478,5,2,0:0:0:0:
