osu file format v14

[General]
AudioFilename: audio.mp3
AudioLeadIn: 0
PreviewTime: 12884
Countdown: 1
SampleSet: Soft
StackLeniency: 0.7
Mode: 0
LetterboxInBreaks: 0
WidescreenStoryboard: 0

[Editor]
DistanceSpacing: 0.2
BeatDivisor: 4
GridSize: 32
TimelineZoom: 1.8

[Metadata]
Title:TWICE Timeline
TitleUnicode:TWICE Timeline
Artist:TWICE
ArtistUnicode:트와이스
Creator:Kim Dahyun
Version:ONCE Upon a Time
Source:
Tags:
BeatmapID:1967368
BeatmapSetID:942202

[Difficulty]
HPDrainRate:6
CircleSize:4
OverallDifficulty:8.6
ApproachRate:9.2
SliderMultiplier:1.4
SliderTickRate:1

[Events]
//Background and Video events
0,0,"kpop-fandom-ranking-april-2017-twice.jpg",0,0
//Break Periods
2,40970,43712
2,66158,69765
2,100535,102073
2,132266,135656
2,164119,166298
2,196614,197950
2,227623,229061
2,253126,255920
2,281097,283889
2,316615,320600
2,391495,395184
//Storyboard Layer 0 (Background)
//Storyboard Layer 1 (Fail)
//Storyboard Layer 2 (Pass)
//Storyboard Layer 3 (Foreground)
//Storyboard Layer 4 (Overlay)
//Storyboard Sound Samples

[TimingPoints]
-1482,422.535211267606,4,2,1,100,1,0
208,-133.333333333333,4,2,1,100,0,0
12461,-133.333333333333,4,2,2,100,0,0
12884,-133.333333333333,4,2,1,100,0,0
13306,-200,4,2,1,100,0,0
13729,-80,4,2,2,100,0,1
25560,-80,4,2,1,100,0,1
25982,-80,4,2,2,100,0,1
26405,-80,4,2,1,100,0,1
26827,-80,4,2,2,100,0,1
39081,-80,4,2,1,100,0,1
39503,-80,4,2,2,100,0,1
39926,-80,4,2,1,100,0,1
40348,-200,4,2,2,100,0,1
40771,-80,4,2,2,100,0,0
41508,346.820809248555,4,2,2,100,1,0
44282,-80,4,2,2,100,0,1
65958,-80,4,2,2,100,0,0
68951,461.538461538462,4,2,0,100,1,0
70335,-200,4,2,3,100,0,0
70797,-100,4,2,3,100,0,0
84643,-100,4,2,2,100,0,0
85566,-66.6666666666667,4,2,3,100,0,1
99874,-200,4,2,3,100,0,1
100335,-80,4,2,3,100,0,0
102643,461.538461538462,4,2,1,100,1,0
102643,-80,4,2,1,100,0,1
132181,-80,4,2,1,100,0,0
133919,576.923076923077,4,2,3,100,1,0
136226,-50,4,2,3,100,0,1
154688,-66.6666666666667,4,2,3,100,0,0
161611,-100,4,2,3,100,0,0
165505,454.545454545455,4,2,1,100,1,0
167323,-66.6666666666667,4,2,1,100,0,0
181868,-50,4,2,1,100,0,1
195505,-200,4,2,1,100,0,0
198155,365.853658536585,4,2,2,100,1,0
198520,-200,4,2,2,100,0,0
199618,-80,4,2,2,100,0,1
223033,-200,4,2,2,100,0,0
225959,-66.6666666666667,4,2,2,100,0,0
226691,-200,4,2,2,100,0,0
228926,352.941176470588,4,2,2,100,1,0
229631,-200,4,2,2,100,0,0
230337,-80,4,2,2,100,0,1
252926,-80,4,2,2,100,0,0
254457,508.474576271186,4,2,3,100,1,0
256490,-66.6666666666667,4,2,3,100,0,1
272762,-100,4,2,3,100,0,0
283372,434.782608695652,4,2,2,100,1,0
284458,-133.333333333333,4,2,2,100,0,0
285111,-80,4,2,2,100,0,1
312937,-200,4,2,2,100,0,0
315980,-66.6666666666667,4,2,2,100,0,0
319170,571.428571428571,4,2,1,100,1,0
321170,-133.333333333333,4,2,1,100,0,0
321455,-100,4,2,1,100,0,1
358027,-133.333333333333,4,2,1,100,0,0
359932,454.545454545455,4,2,3,100,1,0
360386,454.545454545455,4,2,3,100,1,0
362204,-62.111801242236,4,2,3,100,0,1
376295,-312.5,4,2,3,100,0,0
376749,-62.111801242236,4,2,3,100,0,1
389476,-51.8134715025907,4,2,3,100,0,0
390840,-77.5193798449612,4,2,3,100,0,0
391294,-104.166666666667,4,2,3,100,0,0
395056,465.116279069767,4,2,1,100,1,0
395754,-133.333333333333,4,2,2,100,0,0
396451,-400,4,2,2,100,0,0
396916,-66.6666666666667,4,2,2,100,0,0
411335,-66.6666666666667,4,2,2,100,0,0
411800,-50,4,2,2,100,0,1
426683,-400,4,2,2,100,0,0

[HitObjects]
206,77,208,6,0,P|199:149|208:246,2,157.500006008148,4|0|0,0:0|0:0|0:0,0:0:0:0:
376,92,1898,2,0,P|383:164|374:261,2,157.500006008148,0|0|0,0:0|0:0|0:0,0:0:0:0:
253,268,3588,6,0,P|178:314|136:259,2,157.500006008148,0|0|0,0:0|0:0|0:0,0:0:0:0:
273,140,5278,2,0,P|348:94|390:149,1,157.500006008148,0|0,0:0|0:0,0:0:0:0:
387,133,6546,2,0,L|385:223,1,78.7500030040742,0|0,0:0|0:0,0:0:0:0:
384,243,6968,6,0,B|309:270|309:270|237:227,2,157.500006008148,4|0|0,0:0|0:0|0:0,0:0:0:0:
242,230,8658,2,0,B|175:190|175:190|100:217,2,157.500006008148,0|0|0,0:0|0:0|0:0,0:0:0:0:
112,67,10348,6,0,B|85:101|102:142|102:142|120:183|99:216,2,157.500006008148,0|0|0,0:0|0:0|0:0,0:0:0:0:
229,32,12039,5,8,0:0:0:0:
236,57,12144,1,8,0:0:0:0:
240,83,12250,1,8,0:0:0:0:
239,109,12355,1,8,0:0:0:0:
234,134,12461,5,8,0:0:0:0:
228,159,12567,1,8,0:0:0:0:
228,185,12672,1,8,0:0:0:0:
231,211,12778,1,8,0:0:0:0:
239,236,12884,5,8,0:0:0:0:
247,261,12989,1,8,0:0:0:0:
250,287,13095,1,8,0:0:0:0:
250,313,13200,1,8,0:0:0:0:
246,340,13306,6,0,P|216:341|186:350,1,52.5,2|0,0:0|0:0,0:0:0:0:
168,364,13729,6,0,P|109:320|100:197,1,175,6|8,0:0|0:0,0:0:0:0:
166,117,14363,1,2,0:0:0:0:
276,172,14574,2,0,P|284:224|279:268,1,87.5,0|0,0:0|0:0,0:0:0:0:
395,126,14996,2,0,P|387:74|392:30,1,87.5,8|0,0:0|0:0,0:0:0:0:
472,300,15419,5,2,0:0:0:0:
400,141,15630,1,0,0:0:0:0:
493,185,15841,1,8,0:0:0:0:
306,210,16053,2,0,P|313:260|312:300,1,87.5,2|0,0:0|0:0,0:0:0:0:
186,75,16475,1,0,0:0:0:0:
186,75,16898,1,0,0:0:0:0:
65,122,17109,6,0,L|77:257,1,131.25,2|0,0:0|0:0,0:0:0:0:
84,285,17532,2,0,P|122:315|164:329,1,87.5,8|2,0:0|0:0,0:0:0:0:
311,367,17954,2,0,L|299:232,1,131.25,0|0,0:0|0:0,0:0:0:0:
292,204,18377,2,0,P|254:174|212:160,1,87.5,8|0,0:0|0:0,0:0:0:0:
161,284,18799,5,2,0:0:0:0:
281,213,19010,1,0,0:0:0:0:
115,190,19222,1,8,0:0:0:0:
277,108,19433,2,0,P|354:112|379:100,1,87.5,2|0,0:0|0:0,0:0:0:0:
74,37,19856,2,0,P|34:68|24:205,1,175,0|0,0:0|0:0,0:0:0:0:
290,233,20489,6,0,L|278:342,1,87.5,2|0,0:0|0:0,0:0:0:0:
200,156,20912,1,8,0:0:0:0:
400,177,21123,1,2,0:0:0:0:
187,155,21334,2,0,L|196:68,1,87.5,0|0,0:0|0:0,0:0:0:0:
59,180,21757,2,0,L|49:266,1,87.5,8|0,0:0|0:0,0:0:0:0:
271,295,22180,5,2,0:0:0:0:
187,155,22391,1,0,0:0:0:0:
173,318,22602,1,8,0:0:0:0:
279,195,22814,1,2,0:0:0:0:
121,231,23025,2,0,P|83:271|71:317,1,87.5,0|0,0:0|0:0,0:0:0:0:
279,195,23447,2,0,P|286:140|268:96,1,87.5,8|0,0:0|0:0,0:0:0:0:
108,50,23870,6,0,L|111:146,1,87.5,2|0,0:0|0:0,0:0:0:0:
190,245,24292,1,8,0:0:0:0:
283,138,24503,1,2,0:0:0:0:
388,238,24715,2,0,L|391:334,1,87.5,0|0,0:0|0:0,0:0:0:0:
484,124,25137,2,0,L|481:36,1,87.5,8|0,0:0|0:0,0:0:0:0:
223,18,25560,5,8,0:0:0:0:
221,47,25665,1,8,0:0:0:0:
219,76,25771,1,8,0:0:0:0:
217,105,25876,1,8,0:0:0:0:
231,135,25982,5,8,0:0:0:0:
229,164,26087,1,8,0:0:0:0:
227,193,26193,1,8,0:0:0:0:
225,222,26298,1,8,0:0:0:0:
204,250,26405,5,8,0:0:0:0:
175,248,26510,1,8,0:0:0:0:
146,246,26616,1,8,0:0:0:0:
117,244,26721,1,8,0:0:0:0:
87,258,26827,5,8,0:0:0:0:
58,256,26932,1,8,0:0:0:0:
29,254,27038,1,8,0:0:0:0:
0,252,27143,1,8,0:0:0:0:
20,223,27250,6,0,P|45:278|1:390,1,175,6|8,0:0|0:0,0:0:0:0:
153,298,27884,1,2,0:0:0:0:
270,231,28095,2,0,P|260:288|274:326,1,87.5,0|0,0:0|0:0,0:0:0:0:
385,210,28518,2,0,P|394:152|380:114,1,87.5,8|0,0:0|0:0,0:0:0:0:
183,107,28940,5,2,0:0:0:0:
274,215,29151,1,0,0:0:0:0:
266,48,29363,1,8,0:0:0:0:
196,273,29574,2,0,P|191:334|199:373,1,87.5,2|0,0:0|0:0,0:0:0:0:
376,348,29996,1,0,0:0:0:0:
376,348,30419,1,0,0:0:0:0:
393,142,30630,6,0,P|391:187|344:150,1,131.25,2|0,0:0|0:0,0:0:0:0:
363,129,31053,2,0,L|346:36,1,87.5,8|2,0:0|0:0,0:0:0:0:
145,92,31475,2,0,P|147:47|194:84,1,131.25,0|0,0:0|0:0,0:0:0:0:
175,105,31898,2,0,L|192:198,1,87.5,8|0,0:0|0:0,0:0:0:0:
254,340,32320,5,2,0:0:0:0:
324,156,32532,1,0,0:0:0:0:
360,249,32743,1,8,0:0:0:0:
181,196,32954,2,0,P|170:149|176:111,1,87.5,2|0,0:0|0:0,0:0:0:0:
378,75,33377,2,0,L|355:288,1,175,0|0,0:0|0:0,0:0:0:0:
229,27,34010,6,0,L|240:133,1,87.5,2|0,0:0|0:0,0:0:0:0:
211,250,34433,1,8,0:0:0:0:
340,169,34644,1,2,0:0:0:0:
120,122,34856,2,0,P|112:168|126:208,1,87.5,0|0,0:0|0:0,0:0:0:0:
352,253,35278,2,0,P|360:207|346:167,1,87.5,8|0,0:0|0:0,0:0:0:0:
197,45,35701,5,2,0:0:0:0:
258,206,35912,1,0,0:0:0:0:
277,86,36123,1,8,0:0:0:0:
183,249,36334,1,2,0:0:0:0:
385,285,36546,2,0,P|391:228|387:199,1,87.5,0|0,0:0|0:0,0:0:0:0:
97,73,36968,2,0,L|86:216,1,131.25,8|0,0:0|0:0,0:0:0:0:
85,236,37391,5,2,0:0:0:0:
85,236,37813,1,8,0:0:0:0:
212,322,38025,1,2,0:0:0:0:
350,252,38236,2,0,P|368:203|364:154,1,87.5,0|0,0:0|0:0,0:0:0:0:
254,95,38658,2,0,P|254:51|271:11,1,87.5,8|0,0:0|0:0,0:0:0:0:
99,55,39081,5,8,0:0:0:0:
91,75,39186,1,8,0:0:0:0:
89,97,39292,1,8,0:0:0:0:
93,118,39397,1,8,0:0:0:0:
104,137,39503,5,8,0:0:0:0:
114,156,39609,1,8,0:0:0:0:
118,177,39714,1,8,0:0:0:0:
116,199,39820,1,8,0:0:0:0:
109,219,39926,5,8,0:0:0:0:
101,239,40031,1,8,0:0:0:0:
99,261,40137,1,8,0:0:0:0:
103,282,40242,1,8,0:0:0:0:
115,301,40348,6,0,L|192:308,1,70,8|0,0:0|0:0,0:0:0:0:
130,60,44282,5,6,0:0:0:0:
258,111,44455,1,0,0:0:0:0:
79,218,44629,1,8,0:0:0:0:
299,301,44802,2,0,P|351:303|426:208,1,175,0|2,0:0|0:0,0:0:0:0:
375,31,45323,2,0,P|364:79|376:130,1,87.5,8|0,0:0|0:0,0:0:0:0:
490,201,45669,5,2,0:0:0:0:
289,219,45843,1,0,0:0:0:0:
481,300,46016,1,8,0:0:0:0:
280,216,46190,2,0,P|279:173|293:129,1,87.5,0|0,0:0|0:0,0:0:0:0:
370,344,46536,5,2,0:0:0:0:
411,182,46710,1,8,0:0:0:0:
365,361,46883,1,2,0:0:0:0:
190,77,47057,5,2,0:0:0:0:
231,239,47230,2,0,P|235:291|222:331,1,87.5,0|8,0:0|0:0,0:0:0:0:
327,131,47577,2,0,P|322:78|335:38,1,87.5,0|0,0:0|0:0,0:0:0:0:
457,216,47924,2,0,P|461:268|448:308,1,87.5,2|8,0:0|0:0,0:0:0:0:
313,372,48271,1,0,0:0:0:0:
199,139,48444,5,2,0:0:0:0:
141,285,48617,1,2,0:0:0:0:
141,285,48704,1,2,0:0:0:0:
141,285,48791,1,8,0:0:0:0:
205,129,48964,1,2,0:0:0:0:
255,241,49138,1,0,0:0:0:0:
370,83,49311,5,2,0:0:0:0:
111,187,49484,1,8,0:0:0:0:
467,283,49658,1,2,0:0:0:0:
113,374,49831,6,0,P|86:340|75:290,1,87.5,6|0,0:0|0:0,0:0:0:0:
120,92,50178,1,8,0:0:0:0:
250,206,50351,1,0,0:0:0:0:
250,227,50437,1,0,0:0:0:0:
251,248,50525,2,0,L|252:295,1,43.75,0|0,0:0|0:0,0:0:0:0:
383,152,50698,2,0,L|382:108,1,43.75,2|0,0:0|0:0,0:0:0:0:
222,23,50872,2,0,L|223:113,1,87.5,8|0,0:0|0:0,0:0:0:0:
362,284,51218,5,2,0:0:0:0:
283,188,51392,1,0,0:0:0:0:
264,376,51565,1,8,0:0:0:0:
130,103,51739,2,0,P|163:154|142:278,1,175,0|2,0:0|0:0,0:0:0:0:
33,355,52259,1,8,0:0:0:0:
20,191,52432,1,2,0:0:0:0:
254,210,52606,5,2,0:0:0:0:
206,348,52779,1,8,0:0:0:0:
184,347,52865,1,8,0:0:0:0:
162,347,52952,1,8,0:0:0:0:
117,64,53126,2,0,P|173:79|194:108,1,87.5,2|0,0:0|0:0,0:0:0:0:
25,272,53473,2,0,P|9:216|24:183,1,87.5,2|8,0:0|0:0,0:0:0:0:
232,208,53820,1,2,0:0:0:0:
232,208,54166,6,0,P|241:222|252:233,4,21.875,8|0|0|0|2,0:0|0:0|0:0|0:0|0:0,0:0:0:0:
111,351,54513,1,0,0:0:0:0:
148,130,54686,5,8,0:0:0:0:
353,341,54860,1,2,0:0:0:0:
420,71,55033,5,8,0:0:0:0:
145,288,55207,1,2,0:0:0:0:
75,29,55380,5,6,0:0:0:0:
246,110,55554,1,0,0:0:0:0:
35,144,55727,1,8,0:0:0:0:
259,7,55901,2,0,P|318:38|333:163,1,175,0|2,0:0|0:0,0:0:0:0:
275,250,56421,2,0,P|260:298|273:344,1,87.5,8|0,0:0|0:0,0:0:0:0:
465,345,56768,6,0,L|467:208,1,131.25,2|0,0:0|0:0,0:0:0:0:
466,191,57114,1,8,0:0:0:0:
315,60,57288,2,0,P|300:113|309:155,1,87.5,0|0,0:0|0:0,0:0:0:0:
377,280,57635,5,2,0:0:0:0:
172,255,57808,1,8,0:0:0:0:
386,283,57981,1,2,0:0:0:0:
222,26,58155,5,2,0:0:0:0:
304,144,58328,2,0,P|306:193|294:236,1,87.5,0|8,0:0|0:0,0:0:0:0:
141,152,58675,2,0,P|139:103|151:60,1,87.5,0|0,0:0|0:0,0:0:0:0:
234,279,59022,2,0,P|236:328|224:371,1,87.5,2|8,0:0|0:0,0:0:0:0:
54,287,59369,1,0,0:0:0:0:
292,157,59542,5,2,0:0:0:0:
138,109,59716,1,2,0:0:0:0:
139,130,59802,1,2,0:0:0:0:
141,152,59889,1,8,0:0:0:0:
315,258,60062,1,2,0:0:0:0:
186,319,60236,1,0,0:0:0:0:
469,338,60409,5,2,0:0:0:0:
197,207,60583,1,8,0:0:0:0:
477,106,60756,1,2,0:0:0:0:
111,33,60929,6,0,P|91:72|89:117,1,87.5,6|0,0:0|0:0,0:0:0:0:
197,221,61276,1,8,0:0:0:0:
310,108,61450,1,0,0:0:0:0:
309,86,61536,1,0,0:0:0:0:
308,64,61623,2,0,L|306:5,1,43.75,0|0,0:0|0:0,0:0:0:0:
443,53,61797,2,0,L|444:96,1,43.75,2|0,0:0|0:0,0:0:0:0:
205,156,61970,2,0,L|201:38,1,87.5,8|0,0:0|0:0,0:0:0:0:
377,208,62317,6,0,P|382:261|378:304,1,87.5,2|0,0:0|0:0,0:0:0:0:
370,319,62577,1,0,0:0:0:0:
370,319,62664,1,8,0:0:0:0:
197,164,62837,2,0,P|214:252|193:347,1,175,0|2,0:0|0:0,0:0:0:0:
69,150,63357,2,0,P|60:104|68:59,1,87.5,8|2,0:0|0:0,0:0:0:0:
357,68,63704,5,2,0:0:0:0:
376,204,63877,1,8,0:0:0:0:
357,215,63963,1,8,0:0:0:0:
339,227,64050,1,8,0:0:0:0:
235,132,64224,1,2,0:0:0:0:
235,132,64571,5,2,0:0:0:0:
434,117,64744,1,8,0:0:0:0:
347,296,64918,1,2,0:0:0:0:
226,101,65091,5,0,0:0:0:0:
464,125,65265,2,0,L|487:108,4,21.875,8|0|0|0|2,0:0|0:0|0:0|0:0|0:0,0:0:0:0:
324,318,65612,1,0,0:0:0:0:
174,18,65785,5,8,0:0:0:0:
512,216,65958,1,2,0:0:0:0:
128,96,70335,6,0,P|124:133|125:157,1,52.5,2|0,0:0|0:0,0:0:0:0:
134,161,70797,6,0,P|140:210|136:254,1,70,6|0,0:0|0:0,0:0:0:0:
122,357,71258,1,8,0:0:0:0:
235,260,71489,1,2,0:0:0:0:
322,367,71720,1,0,0:0:0:0:
239,244,71951,1,2,0:0:0:0:
415,184,72181,1,8,0:0:0:0:
415,184,72297,2,0,P|419:227|412:257,1,70,0|0,0:0|0:0,0:0:0:0:
400,287,72643,5,2,0:0:0:0:
277,115,72874,2,0,P|280:142|280:161,1,35,0|0,0:0|0:0,0:0:0:0:
257,290,73104,2,0,L|155:319,2,105,8|0|2,0:0|0:0|0:0,0:0:0:0:
375,201,74027,1,8,0:0:0:0:
375,201,74143,2,0,P|379:245|367:269,1,70,0|0,0:0|0:0,0:0:0:0:
348,288,74489,5,2,0:0:0:0:
208,229,74720,1,0,0:0:0:0:
312,153,74951,1,8,0:0:0:0:
334,302,75181,1,2,0:0:0:0:
206,211,75412,2,0,P|193:181|192:130,1,70,0|2,0:0|0:0,0:0:0:0:
381,22,75874,1,8,0:0:0:0:
381,22,75989,2,0,L|381:117,1,70,0|0,0:0|0:0,0:0:0:0:
387,124,76335,5,2,0:0:0:0:
188,293,76566,1,0,0:0:0:0:
433,227,76797,1,8,0:0:0:0:
203,193,77027,1,2,0:0:0:0:
379,310,77258,1,0,0:0:0:0:
270,123,77489,1,2,0:0:0:0:
283,305,77720,1,8,0:0:0:0:
371,138,77951,2,0,L|358:179,1,35,0|0,0:0|0:0,0:0:0:0:
204,17,78181,6,0,L|256:181,1,140,2|8,0:0|0:0,0:0:0:0:
212,292,78874,1,2,0:0:0:0:
212,292,78989,1,0,0:0:0:0:
212,292,79104,1,0,0:0:0:0:
152,172,79335,1,2,0:0:0:0:
77,283,79566,2,0,P|74:317|77:352,1,70,8|0,0:0|0:0,0:0:0:0:
295,216,80027,6,0,P|308:159|280:70,1,140,2|8,0:0|0:0,0:0:0:0:
132,61,80720,1,2,0:0:0:0:
132,61,80835,1,0,0:0:0:0:
132,61,80951,1,0,0:0:0:0:
211,211,81181,1,2,0:0:0:0:
292,63,81412,2,0,P|252:39|226:33,1,70,8|0,0:0|0:0,0:0:0:0:
107,128,81874,5,2,0:0:0:0:
203,303,82104,1,0,0:0:0:0:
203,155,82335,1,8,0:0:0:0:
110,273,82566,1,2,0:0:0:0:
18,171,82797,2,0,P|12:126|18:94,1,70,0|2,0:0|0:0,0:0:0:0:
274,77,83258,1,8,0:0:0:0:
116,45,83489,1,0,0:0:0:0:
446,17,83720,6,0,L|415:39,1,35,8|8,0:0|0:0,0:0:0:0:
260,151,83951,2,0,L|288:130,1,35,8|8,0:0|0:0,0:0:0:0:
483,131,84181,1,8,0:0:0:0:
297,265,84412,2,0,L|325:244,1,35,2|2,0:0|0:0,0:0:0:0:
493,313,84643,5,8,0:0:0:0:
493,313,84758,2,0,P|459:348|420:353,1,70,8|8,0:0|0:0,0:0:0:0:
399,352,85104,2,0,L|362:346,1,35,8|0,0:0|0:0,0:0:0:0:
273,188,85335,2,0,L|236:194,1,35,2|0,0:0|0:0,0:0:0:0:
197,339,85566,6,0,P|145:329|114:288,1,105.000004005432,6|0,0:0|0:0,0:0:0:0:
108,265,85912,1,0,0:0:0:0:
106,263,86027,2,0,P|108:233|103:193,1,52.5000020027161,8|0,0:0|0:0,0:0:0:0:
70,116,86258,2,0,P|68:89|70:63,1,52.5000020027161,2|0,0:0|0:0,0:0:0:0:
203,21,86489,6,0,P|227:70|218:143,1,105.000004005432,0|2,0:0|0:0,0:0:0:0:
163,217,86951,1,8,0:0:0:0:
292,299,87181,1,0,0:0:0:0:
163,343,87412,6,0,P|145:276|150:229,1,105.000004005432,2|0,0:0|0:0,0:0:0:0:
163,217,87758,1,0,0:0:0:0:
163,217,87874,2,0,P|169:186|170:161,1,52.5000020027161,8|0,0:0|0:0,0:0:0:0:
272,118,88104,2,0,P|266:149|265:174,1,52.5000020027161,2|0,0:0|0:0,0:0:0:0:
332,232,88335,2,0,P|385:206|410:146,1,105.000004005432,0|2,0:0|0:0,0:0:0:0:
382,54,88797,1,8,0:0:0:0:
497,263,89027,1,0,0:0:0:0:
473,273,89142,1,0,0:0:0:0:
449,284,89258,6,0,L|400:306,1,52.5000020027161,2|0,0:0|0:0,0:0:0:0:
316,368,89489,2,0,L|267:346,1,52.5000020027161,0|0,0:0|0:0,0:0:0:0:
180,267,89720,2,0,L|131:289,1,52.5000020027161,8|0,0:0|0:0,0:0:0:0:
47,351,89951,2,0,L|-2:329,1,52.5000020027161,2|0,0:0|0:0,0:0:0:0:
55,117,90181,2,0,P|70:183|60:243,1,105.000004005432,0|2,0:0|0:0,0:0:0:0:
300,373,90643,5,8,0:0:0:0:
186,251,90874,1,0,0:0:0:0:
350,213,91104,2,0,P|356:271|346:325,1,105.000004005432,2|0,0:0|0:0,0:0:0:0:
192,234,91566,5,8,0:0:0:0:
359,226,91797,1,2,0:0:0:0:
283,376,92027,2,0,P|235:343|200:301,1,105.000004005432,0|2,0:0|0:0,0:0:0:0:
392,132,92489,5,8,0:0:0:0:
442,337,92720,1,0,0:0:0:0:
233,141,92951,6,0,P|223:81|233:32,1,105.000004005432,2|0,0:0|0:0,0:0:0:0:
245,14,93297,1,0,0:0:0:0:
245,14,93412,2,0,L|298:29,1,52.5000020027161,8|0,0:0|0:0,0:0:0:0:
428,217,93643,6,0,P|395:285|247:274,1,210.000008010865,2|2,0:0|0:0,0:0:0:0:
179,209,94335,1,8,0:0:0:0:
200,359,94566,1,0,0:0:0:0:
73,300,94797,6,0,P|52:244|56:193,1,105.000004005432,2|0,0:0|0:0,0:0:0:0:
63,176,95143,1,0,0:0:0:0:
62,176,95258,2,0,P|64:139|60:117,1,52.5000020027161,8|0,0:0|0:0,0:0:0:0:
324,25,95489,6,0,B|225:62|225:62|115:33,1,210.000008010865,2|2,0:0|0:0,0:0:0:0:
278,123,96181,2,0,B|228:141|228:141|173:127,1,105.000004005432,8|0,0:0|0:0,0:0:0:0:
364,244,96643,5,2,0:0:0:0:
156,316,96874,1,0,0:0:0:0:
282,135,97105,1,8,0:0:0:0:
286,355,97335,1,2,0:0:0:0:
153,179,97566,2,0,P|136:120|143:66,1,105.000004005432,0|2,0:0|0:0,0:0:0:0:
282,135,98027,2,0,P|299:194|292:248,1,105.000004005432,8|0,0:0|0:0,0:0:0:0:
96,326,98489,5,8,0:0:0:0:
85,301,98604,1,8,0:0:0:0:
79,276,98719,1,8,0:0:0:0:
78,250,98835,1,8,0:0:0:0:
82,224,98950,1,8,0:0:0:0:
194,44,99181,5,2,0:0:0:0:
204,68,99296,1,2,0:0:0:0:
210,93,99411,1,8,0:0:0:0:
211,119,99527,1,8,0:0:0:0:
207,145,99642,1,8,0:0:0:0:
203,171,99758,1,8,0:0:0:0:
206,198,99874,2,0,P|229:211|261:216,1,52.5,2|0,0:0|0:0,0:0:0:0:
276,215,100335,5,6,0:0:0:0:
176,39,102643,6,0,P|161:95|162:138,1,87.5,6|0,0:0|0:0,0:0:0:0:
358,184,103104,1,8,0:0:0:0:
287,78,103335,1,0,0:0:0:0:
223,253,103566,2,0,P|279:268|322:267,1,87.5,2|0,0:0|0:0,0:0:0:0:
448,132,104027,1,8,0:0:0:0:
476,291,104258,1,0,0:0:0:0:
358,45,104489,5,2,0:0:0:0:
299,232,104719,1,0,0:0:0:0:
435,130,104950,1,8,0:0:0:0:
230,106,105181,2,0,P|202:147|192:190,1,87.5,0|2,0:0|0:0,0:0:0:0:
424,313,105643,1,0,0:0:0:0:
298,241,105873,2,8,P|294:290|307:332,1,87.5,8|0,0:0|0:0,0:0:0:0:
416,42,106335,6,0,L|396:226,1,175,2|8,0:0|0:0,0:0:0:0:
274,15,107027,2,0,L|284:107,1,87.5,0|2,0:0|0:0,0:0:0:0:
222,226,107489,1,0,0:0:0:0:
222,226,107604,1,0,0:0:0:0:
222,226,107719,1,8,0:0:0:0:
117,147,107950,1,0,0:0:0:0:
64,326,108181,6,0,P|101:357|218:316,1,175,2|8,0:0|0:0,0:0:0:0:
248,92,108873,2,0,P|322:52|396:91,1,175,0|8,0:0|0:0,0:0:0:0:
445,260,109566,1,8,0:0:0:0:
445,260,109796,1,0,0:0:0:0:
164,169,110027,5,2,0:0:0:0:
309,265,110258,1,0,0:0:0:0:
267,94,110489,1,8,0:0:0:0:
223,322,110719,1,0,0:0:0:0:
223,322,110835,1,0,0:0:0:0:
273,68,111066,1,0,0:0:0:0:
273,68,111181,1,0,0:0:0:0:
214,344,111412,2,0,P|168:353|119:345,1,87.5,8|0,0:0|0:0,0:0:0:0:
171,125,111873,5,2,0:0:0:0:
261,252,112104,1,0,0:0:0:0:
384,150,112335,1,8,0:0:0:0:
466,273,112566,1,0,0:0:0:0:
466,273,112681,2,0,P|438:324|395:335,1,87.5,0|0,0:0|0:0,0:0:0:0:
385,342,113027,1,0,0:0:0:0:
272,242,113258,1,8,0:0:0:0:
307,350,113489,1,0,0:0:0:0:
217,143,113719,5,8,0:0:0:0:
372,158,113950,1,0,0:0:0:0:
372,158,114066,1,8,0:0:0:0:
372,158,114181,1,2,0:0:0:0:
173,221,114412,1,8,0:0:0:0:
243,103,114643,5,2,0:0:0:0:
200,297,114873,1,8,0:0:0:0:
127,97,115104,5,2,0:0:0:0:
269,246,115335,1,0,0:0:0:0:
342,58,115566,5,8,0:0:0:0:
151,178,115796,1,0,0:0:0:0:
151,178,115912,1,8,0:0:0:0:
151,178,116027,1,2,0:0:0:0:
352,264,116258,1,8,0:0:0:0:
264,126,116489,5,2,0:0:0:0:
293,348,116719,1,8,0:0:0:0:
454,105,116950,5,8,0:0:0:0:
446,330,117181,1,8,0:0:0:0:
446,330,117296,1,8,0:0:0:0:
446,330,117412,6,0,B|409:355|409:355|360:369,1,87.5,6|0,0:0|0:0,0:0:0:0:
280,199,117873,1,8,0:0:0:0:
359,281,118104,1,0,0:0:0:0:
219,353,118335,2,0,B|174:348|174:348|128:327,1,87.5,2|0,0:0|0:0,0:0:0:0:
65,114,118796,1,8,0:0:0:0:
161,237,119027,1,0,0:0:0:0:
142,103,119258,5,2,0:0:0:0:
83,247,119489,1,0,0:0:0:0:
228,306,119719,1,8,0:0:0:0:
287,162,119950,2,0,P|294:106|282:66,1,87.5,0|2,0:0|0:0,0:0:0:0:
164,168,120412,1,0,0:0:0:0:
373,304,120643,1,8,0:0:0:0:
356,36,120873,1,0,0:0:0:0:
66,300,121104,6,0,P|112:343|147:351,1,87.5,2|0,0:0|0:0,0:0:0:0:
320,203,121566,2,0,P|259:221|235:247,1,87.5,8|0,0:0|0:0,0:0:0:0:
387,355,122027,1,2,0:0:0:0:
436,130,122258,1,0,0:0:0:0:
303,343,122489,5,8,0:0:0:0:
512,165,122719,1,0,0:0:0:0:
181,37,122950,6,0,P|189:110|183:237,1,175,2|8,0:0|0:0,0:0:0:0:
365,249,123643,2,0,P|357:176|363:49,1,175,0|0,0:0|0:0,0:0:0:0:
491,323,124335,1,8,0:0:0:0:
491,323,124566,1,0,0:0:0:0:
199,339,124796,5,2,0:0:0:0:
365,289,125027,1,0,0:0:0:0:
158,214,125258,1,8,0:0:0:0:
381,176,125489,1,0,0:0:0:0:
381,176,125604,1,0,0:0:0:0:
138,221,125835,1,0,0:0:0:0:
138,221,125950,1,0,0:0:0:0:
404,167,126181,2,0,P|421:224|423:261,1,87.5,8|0,0:0|0:0,0:0:0:0:
208,82,126643,5,2,0:0:0:0:
284,299,126873,1,0,0:0:0:0:
295,157,127104,1,8,0:0:0:0:
196,363,127335,1,0,0:0:0:0:
196,363,127450,2,0,P|147:356|111:328,1,87.5,0|0,0:0|0:0,0:0:0:0:
98,320,127796,1,0,0:0:0:0:
195,223,128027,1,8,0:0:0:0:
94,144,128258,1,0,0:0:0:0:
329,87,128489,5,8,0:0:0:0:
184,229,128719,1,0,0:0:0:0:
184,229,128835,1,8,0:0:0:0:
184,229,128950,1,2,0:0:0:0:
243,19,129181,1,8,0:0:0:0:
370,317,129412,5,2,0:0:0:0:
264,136,129643,1,8,0:0:0:0:
233,364,129873,5,2,0:0:0:0:
359,187,130104,1,0,0:0:0:0:
120,245,130335,5,8,0:0:0:0:
310,291,130566,1,0,0:0:0:0:
310,291,130681,1,8,0:0:0:0:
310,291,130796,1,2,0:0:0:0:
70,302,131027,5,8,0:0:0:0:
347,164,131258,2,0,P|324:165|300:161,1,43.75,2|8,0:0|0:0,0:0:0:0:
84,118,131489,1,8,0:0:0:0:
360,341,131719,1,8,0:0:0:0:
464,30,131950,1,8,0:0:0:0:
464,30,132066,5,8,0:0:0:0:
164,62,136226,6,0,P|158:88|167:175,1,93.3333333333333,2|0,0:0|0:0,0:0:0:0:
176,185,136515,1,8,0:0:0:0:
328,160,136707,2,0,P|340:234|334:321,2,140,0|0|0,0:0|0:0|0:0,0:0:0:0:
340,37,137380,6,0,P|346:63|337:150,1,93.3333333333333,2|0,0:0|0:0,0:0:0:0:
328,160,137669,1,8,0:0:0:0:
176,135,137861,2,0,P|164:209|170:296,2,140,0|0|0,0:0|0:0|0:0,0:0:0:0:
451,311,138534,6,0,P|406:331|362:330,1,93.3333333333333,2|0,0:0|0:0,0:0:0:0:
339,324,138822,1,8,0:0:0:0:
61,311,139111,6,0,P|106:331|150:330,1,93.3333333333333,2|0,0:0|0:0,0:0:0:0:
173,324,139399,1,8,0:0:0:0:
410,193,139688,6,0,P|365:213|321:212,1,93.3333333333333,2|0,0:0|0:0,0:0:0:0:
298,206,139976,1,8,0:0:0:0:
102,193,140265,6,0,P|147:213|191:212,1,93.3333333333333,2|0,0:0|0:0,0:0:0:0:
214,206,140553,1,8,0:0:0:0:
364,61,140842,6,0,P|361:134|368:170,1,93.3333333333333,2|0,0:0|0:0,0:0:0:0:
374,183,141130,1,8,0:0:0:0:
322,291,141322,2,0,B|354:316|388:306|388:306|422:296|455:317,2,140,0|0|0,0:0|0:0|0:0,0:0:0:0:
148,61,141995,6,0,P|151:134|144:170,1,93.3333333333333,2|0,0:0|0:0,0:0:0:0:
138,183,142283,1,8,0:0:0:0:
190,291,142476,2,0,B|158:316|124:306|124:306|90:296|57:317,2,140,0|0|0,0:0|0:0|0:0,0:0:0:0:
359,52,143149,6,0,L|354:151,1,93.3333333333333,2|0,0:0|0:0,0:0:0:0:
359,332,143438,2,0,L|354:233,1,93.3333333333333,8|0,0:0|0:0,0:0:0:0:
257,72,143726,2,0,L|252:171,1,93.3333333333333,2|0,0:0|0:0,0:0:0:0:
257,312,144015,2,0,L|252:213,1,93.3333333333333,8|0,0:0|0:0,0:0:0:0:
134,128,144303,6,0,P|117:191|136:263,1,140,2|8,0:0|0:0,0:0:0:0:
246,284,144784,2,0,B|263:194|263:194|245:95,1,186.666666666667,0|8,0:0|0:0,0:0:0:0:
416,106,145457,6,0,P|376:140|329:153,1,93.3333333333333,2|0,0:0|0:0,0:0:0:0:
305,154,145745,1,8,0:0:0:0:
191,161,145938,2,0,P|136:160|55:193,2,140,0|0|0,0:0|0:0|0:0,0:0:0:0:
416,278,146611,6,0,P|376:244|329:231,1,93.3333333333333,2|0,0:0|0:0,0:0:0:0:
305,230,146899,1,8,0:0:0:0:
191,223,147092,2,0,P|136:224|55:191,2,140,0|0|0,0:0|0:0|0:0,0:0:0:0:
187,58,147765,6,0,P|178:108|183:155,1,93.3333333333333,2|0,0:0|0:0,0:0:0:0:
191,186,148053,1,8,0:0:0:0:
390,123,148342,6,0,P|340:114|293:119,1,93.3333333333333,2|0,0:0|0:0,0:0:0:0:
262,127,148630,1,8,0:0:0:0:
325,326,148919,6,0,P|334:276|329:229,1,93.3333333333333,2|0,0:0|0:0,0:0:0:0:
321,198,149207,1,8,0:0:0:0:
122,261,149496,6,0,P|172:270|219:265,1,93.3333333333333,2|0,0:0|0:0,0:0:0:0:
250,257,149784,1,8,0:0:0:0:
425,146,150072,6,0,L|418:243,1,93.3333333333333,2|0,0:0|0:0,0:0:0:0:
414,280,150361,1,8,0:0:0:0:
293,70,150553,2,0,L|303:215,2,140,0|0|0,0:0|0:0|0:0,0:0:0:0:
182,275,151226,6,0,L|175:178,1,93.3333333333333,2|0,0:0|0:0,0:0:0:0:
171,141,151515,1,8,0:0:0:0:
50,351,151707,2,0,L|60:205,2,140,0|0|0,0:0|0:0|0:0,0:0:0:0:
309,56,152380,6,0,L|315:160,1,93.3333333333333,2|0,0:0|0:0,0:0:0:0:
203,56,152669,2,0,L|197:160,1,93.3333333333333,8|0,0:0|0:0,0:0:0:0:
309,328,152957,2,0,L|315:224,1,93.3333333333333,2|0,0:0|0:0,0:0:0:0:
203,328,153246,2,0,L|197:224,1,93.3333333333333,8|0,0:0|0:0,0:0:0:0:
256,41,153534,6,0,B|225:87|255:148|255:148|287:206|255:264,1,233.333333333333,2|0,0:0|0:0,0:0:0:0:
118,339,154303,1,0,0:0:0:0:
118,339,154399,1,0,0:0:0:0:
394,339,154592,1,0,0:0:0:0:
394,339,154688,6,0,P|394:288|388:266,1,70,2|0,0:0|0:0,0:0:0:0:
345,205,154976,2,0,P|338:170|340:135,1,70,8|2,0:0|0:0,0:0:0:0:
356,55,155265,2,0,P|305:55|283:61,1,70,0|0,0:0|0:0,0:0:0:0:
222,104,155553,2,0,P|187:110|152:108,1,70,8|0,0:0|0:0,0:0:0:0:
71,82,155842,6,0,L|53:186,2,105.000004005432,0|10|0,0:0|0:0|0:0,0:0:0:0:
209,27,156707,1,8,0:0:0:0:
209,27,156995,6,0,P|230:84|231:136,1,105.000004005432,2|8,0:0|0:0,0:0:0:0:
193,277,157476,2,0,P|236:282|297:249,1,105.000004005432,0|2,0:0|0:0,0:0:0:0:
315,229,157861,1,10,0:0:0:0:
358,74,158053,1,0,0:0:0:0:
358,74,158149,6,0,P|403:98|455:94,1,105.000004005432,0|10,0:0|0:0,0:0:0:0:
435,218,158630,2,0,P|389:242|337:238,1,105.000004005432,0|2,0:0|0:0,0:0:0:0:
315,229,159015,1,8,0:0:0:0:
86,58,159303,6,0,L|84:144,1,70.0000026702882,2|0,0:0|0:0,0:0:0:0:
141,185,159592,2,0,L|139:271,1,70.0000026702882,8|2,0:0|0:0,0:0:0:0:
198,312,159880,2,0,L|267:313,1,70.0000026702882,0|0,0:0|0:0,0:0:0:0:
323,256,160169,2,0,L|392:257,1,70.0000026702882,8|0,0:0|0:0,0:0:0:0:
432,190,160457,2,0,P|474:204|497:260,2,105.000004005432,0|10|0,0:0|0:0|0:0,0:0:0:0:
264,219,161322,1,8,0:0:0:0:
264,219,161611,6,0,P|248:184|243:154,1,70,2|0,0:0|0:0,0:0:0:0:
245,38,162092,1,0,0:0:0:0:
245,38,162476,1,0,0:0:0:0:
338,0,162669,1,0,0:0:0:0:
338,0,162765,6,0,P|354:35|359:65,1,70,0|0,0:0|0:0,0:0:0:0:
354,189,163245,2,0,P|360:223|375:254,1,70,0|0,0:0|0:0,0:0:0:0:
448,273,163630,1,0,0:0:0:0:
448,273,163919,5,0,0:0:0:0:
94,119,166868,5,0,0:0:0:0:
94,119,167095,1,0,0:0:0:0:
94,119,167323,6,0,P|85:163|95:234,1,105.000004005432,6|2,0:0|0:0,0:0:0:0:
205,274,167777,1,8,0:0:0:0:
279,152,168005,1,0,0:0:0:0:
273,126,168118,1,0,0:0:0:0:
267,100,168232,2,0,L|257:47,1,52.5000020027161,0|0,0:0|0:0,0:0:0:0:
405,157,168459,1,2,0:0:0:0:
477,29,168686,1,8,0:0:0:0:
253,99,168914,1,0,0:0:0:0:
259,125,169028,1,0,0:0:0:0:
265,154,169141,6,0,P|208:200|173:199,2,105.000004005432,2|2|8,0:0|0:0|0:0,0:0:0:0:
401,67,169823,1,0,0:0:0:0:
434,347,170050,2,0,P|417:312|411:292,1,52.5000020027161,0|0,0:0|0:0,0:0:0:0:
311,230,170277,2,0,P|328:195|334:175,1,52.5000020027161,2|0,0:0|0:0,0:0:0:0:
220,280,170505,2,0,P|229:304|242:328,1,52.5000020027161,8|0,0:0|0:0,0:0:0:0:
140,163,170732,2,0,P|131:187|119:211,1,52.5000020027161,0|0,0:0|0:0,0:0:0:0:
440,36,170959,6,0,L|434:171,1,105.000004005432,2|2,0:0|0:0,0:0:0:0:
309,258,171414,2,0,L|303:123,1,105.000004005432,8|0,0:0|0:0,0:0:0:0:
300,116,171755,1,0,0:0:0:0:
300,116,171868,1,0,0:0:0:0:
234,238,172095,1,2,0:0:0:0:
182,17,172323,5,8,0:0:0:0:
346,361,172550,1,0,0:0:0:0:
112,149,172777,5,2,0:0:0:0:
193,319,173005,1,8,0:0:0:0:
193,319,173118,1,8,0:0:0:0:
193,319,173232,2,0,P|201:289|201:261,1,52.5000020027161,8|8,0:0|0:0,0:0:0:0:
257,111,173459,1,0,0:0:0:0:
257,111,173572,1,8,0:0:0:0:
257,111,173686,2,0,P|265:141|265:169,1,52.5000020027161,8|0,0:0|0:0,0:0:0:0:
346,325,173914,1,8,0:0:0:0:
346,325,174027,1,8,0:0:0:0:
346,325,174141,6,0,P|354:295|354:267,1,52.5000020027161,8|0,0:0|0:0,0:0:0:0:
382,64,174368,2,0,P|390:94|390:122,1,52.5000020027161,8|0,0:0|0:0,0:0:0:0:
228,307,174595,6,0,P|164:313|107:276,1,105.000004005432,6|2,0:0|0:0,0:0:0:0:
73,160,175050,1,8,0:0:0:0:
194,67,175277,1,0,0:0:0:0:
220,62,175390,1,0,0:0:0:0:
249,61,175505,2,0,L|310:50,1,52.5000020027161,0|0,0:0|0:0,0:0:0:0:
168,186,175732,1,2,0:0:0:0:
352,151,175959,1,8,0:0:0:0:
200,292,176186,1,0,0:0:0:0:
171,294,176301,1,0,0:0:0:0:
143,298,176414,6,0,P|89:285|70:239,2,105.000004005432,2|2|8,0:0|0:0|0:0,0:0:0:0:
300,264,177095,1,0,0:0:0:0:
177,134,177323,6,0,P|179:165|190:198,1,52.5000020027161,0|0,0:0|0:0,0:0:0:0:
254,323,177550,2,0,P|252:354|241:387,1,52.5000020027161,2|0,0:0|0:0,0:0:0:0:
316,38,177777,6,0,P|314:69|303:102,1,52.5000020027161,8|0,0:0|0:0,0:0:0:0:
133,271,178004,2,0,P|135:302|146:335,1,52.5000020027161,0|0,0:0|0:0,0:0:0:0:
52,43,178232,6,0,L|160:75,1,105.000004005432,2|2,0:0|0:0,0:0:0:0:
192,85,178573,1,0,0:0:0:0:
192,85,178686,2,0,L|176:139,1,52.5000020027161,8|0,0:0|0:0,0:0:0:0:
292,207,178914,1,0,0:0:0:0:
292,207,179027,2,0,L|321:106,1,105.000004005432,0|0,0:0|0:0,0:0:0:0:
334,71,179368,1,2,0:0:0:0:
445,196,179595,2,0,P|445:226|450:257,1,52.5000020027161,8|0,0:0|0:0,0:0:0:0:
315,372,179823,2,0,P|315:342|310:311,1,52.5000020027161,0|0,0:0|0:0,0:0:0:0:
110,102,180050,5,2,0:0:0:0:
161,354,180277,1,2,0:0:0:0:
204,192,180505,1,8,0:0:0:0:
204,192,180618,1,8,0:0:0:0:
204,192,180732,1,0,0:0:0:0:
394,384,180959,6,0,P|397:358|395:332,1,52.5000020027161,8|8,0:0|0:0,0:0:0:0:
333,261,181186,2,0,P|330:235|334:209,1,52.5000020027161,8|0,0:0|0:0,0:0:0:0:
443,198,181414,2,0,P|446:172|444:146,1,52.5000020027161,8|0,0:0|0:0,0:0:0:0:
382,75,181641,2,0,P|379:49|383:23,1,52.5000020027161,0|0,0:0|0:0,0:0:0:0:
137,43,181868,6,0,L|132:115,1,70,6|0,0:0|0:0,0:0:0:0:
127,241,182095,2,0,P|191:281|209:232,1,140,2|8,0:0|0:0,0:0:0:0:
335,29,182550,2,0,P|327:70|329:111,1,70,0|0,0:0|0:0,0:0:0:0:
412,334,182777,6,0,L|416:257,1,70,0|0,0:0|0:0,0:0:0:0:
287,182,183005,2,0,L|291:259,1,70,2|0,0:0|0:0,0:0:0:0:
175,383,183232,2,0,L|179:306,1,70,8|0,0:0|0:0,0:0:0:0:
50,231,183460,2,0,L|54:308,1,70,0|0,0:0|0:0,0:0:0:0:
313,57,183686,6,0,B|290:68|290:68|237:63,1,70,2|0,0:0|0:0,0:0:0:0:
89,162,183914,2,0,B|127:192|127:192|239:170,1,140,2|8,0:0|0:0,0:0:0:0:
460,278,184368,2,0,L|387:295,1,70,0|0,0:0|0:0,0:0:0:0:
247,104,184595,6,0,P|254:135|257:181,1,70,0|0,0:0|0:0,0:0:0:0:
178,375,184823,2,0,P|171:344|168:298,1,70,2|0,0:0|0:0,0:0:0:0:
77,205,185050,2,0,P|108:198|154:195,1,70,8|0,0:0|0:0,0:0:0:0:
348,274,185277,2,0,P|317:281|271:284,1,70,0|0,0:0|0:0,0:0:0:0:
407,23,185505,6,0,P|411:53|410:93,1,70,2|0,0:0|0:0,0:0:0:0:
348,273,185732,2,0,P|280:290|356:241,1,280,2|0,0:0|0:0,0:0:0:0:
96,32,186414,5,0,0:0:0:0:
69,123,186527,1,0,0:0:0:0:
118,205,186641,5,2,0:0:0:0:
91,297,186755,1,0,0:0:0:0:
165,356,186868,5,8,0:0:0:0:
239,288,186982,2,0,P|259:254|277:141,1,140,0|0,0:0|0:0,0:0:0:0:
262,69,187323,5,2,0:0:0:0:
467,102,187550,1,8,0:0:0:0:
462,136,187663,1,8,0:0:0:0:
457,171,187777,2,0,P|443:207|415:235,1,70,8|8,0:0|0:0,0:0:0:0:
323,297,188005,2,0,P|299:323|287:355,1,70,0|8,0:0|0:0,0:0:0:0:
137,168,188232,6,0,L|158:307,2,140,8|8|8,0:0|0:0|0:0,0:0:0:0:
137,168,188914,1,8,0:0:0:0:
442,63,189141,6,0,P|437:108|447:139,1,70,6|0,0:0|0:0,0:0:0:0:
345,339,189368,2,0,P|360:256|337:194,1,140,2|8,0:0|0:0,0:0:0:0:
161,46,189823,2,0,B|156:82|156:82|164:119,1,70,0|0,0:0|0:0,0:0:0:0:
59,349,190050,6,0,B|67:318|57:289|57:289|46:311,1,70,0|0,0:0|0:0,0:0:0:0:
185,215,190277,2,0,B|177:246|187:275|187:275|198:253,1,70,2|0,0:0|0:0,0:0:0:0:
334,383,190505,2,0,B|342:352|332:323|332:323|321:345,1,70,8|0,0:0|0:0,0:0:0:0:
460,249,190732,2,0,B|452:280|462:309|462:309|473:287,1,70,0|0,0:0|0:0,0:0:0:0:
133,49,190959,6,0,L|221:67,1,70,2|0,0:0|0:0,0:0:0:0:
435,105,191186,2,0,L|259:141,1,140,2|8,0:0|0:0,0:0:0:0:
106,294,191641,2,0,P|142:314|184:315,1,70,0|0,0:0|0:0,0:0:0:0:
339,27,191868,6,0,B|333:62|333:62|342:102,1,70,0|0,0:0|0:0,0:0:0:0:
319,319,192095,2,0,B|325:284|325:284|316:244,1,70,2|0,0:0|0:0,0:0:0:0:
207,91,192323,2,0,B|234:114|234:114|274:126,1,70,8|0,0:0|0:0,0:0:0:0:
450,254,192550,2,0,B|423:231|423:231|383:219,1,70,0|0,0:0|0:0,0:0:0:0:
197,237,192777,6,0,P|150:232|124:215,1,70,2|0,0:0|0:0,0:0:0:0:
340,121,193005,2,0,P|435:110|487:76,2,140,2|8|0,0:0|0:0|0:0,0:0:0:0:
98,40,193686,5,0,0:0:0:0:
163,119,193800,1,0,0:0:0:0:
129,226,193914,5,2,0:0:0:0:
201,318,194027,1,0,0:0:0:0:
302,271,194141,5,8,0:0:0:0:
383,342,194255,2,0,P|460:338|453:275,1,140,0|0,0:0|0:0,0:0:0:0:
442,247,194595,5,2,0:0:0:0:
298,51,194823,2,0,P|303:89|303:120,1,70,2|0,0:0|0:0,0:0:0:0:
149,183,195050,2,0,P|215:233|278:167,1,140,8|0,0:0|0:0,0:0:0:0:
84,39,195505,6,0,L|78:113,1,70,0|0,0:0|0:0,0:0:0:0:
99,233,196186,1,0,0:0:0:0:
99,233,196300,1,0,0:0:0:0:
99,233,196414,5,0,0:0:0:0:
217,133,198520,5,0,0:0:0:0:
173,252,198886,1,0,0:0:0:0:
173,252,199069,2,0,P|217:270|246:270,1,70,0|0,0:0|0:0,0:0:0:0:
391,61,199618,6,0,B|369:98|391:141|391:141|415:184|389:228,1,175,6|8,0:0|0:0,0:0:0:0:
266,193,200167,1,2,0:0:0:0:
244,358,200350,1,0,0:0:0:0:
126,149,200533,1,2,0:0:0:0:
281,202,200715,1,8,0:0:0:0:
37,309,200898,6,0,P|18:253|23:215,1,87.5,0|2,0:0|0:0,0:0:0:0:
109,65,201264,2,0,P|128:121|123:159,1,87.5,0|8,0:0|0:0,0:0:0:0:
185,286,201630,1,2,0:0:0:0:
338,111,201813,5,0,0:0:0:0:
300,324,201996,1,2,0:0:0:0:
258,49,202179,5,8,0:0:0:0:
404,272,202362,1,0,0:0:0:0:
431,0,202545,6,0,P|437:54|429:99,1,87.5,2|0,0:0|0:0,0:0:0:0:
432,86,202819,1,0,0:0:0:0:
432,86,202911,1,8,0:0:0:0:
235,134,203094,2,0,P|230:177|236:220,1,87.5,2|0,0:0|0:0,0:0:0:0:
404,272,203459,2,0,P|408:315|402:358,1,87.5,2|8,0:0|0:0,0:0:0:0:
173,371,203825,6,0,L|201:187,1,175,0|0,0:0|0:0,0:0:0:0:
365,47,204374,1,8,0:0:0:0:
401,192,204557,1,2,0:0:0:0:
198,24,204740,6,0,P|194:45|195:72,1,43.75,0|0,0:0|0:0,0:0:0:0:
168,186,204923,2,0,P|171:207|181:232,1,43.75,2|0,0:0|0:0,0:0:0:0:
0,152,205106,2,0,P|10:170|28:190,1,43.75,8|0,0:0|0:0,0:0:0:0:
81,295,205289,2,0,P|97:308|121:321,1,43.75,0|0,0:0|0:0,0:0:0:0:
402,164,205472,5,2,0:0:0:0:
250,124,205655,1,0,0:0:0:0:
290,276,205837,1,8,0:0:0:0:
404,179,206020,5,2,0:0:0:0:
262,113,206203,1,0,0:0:0:0:
275,270,206386,1,2,0:0:0:0:
407,197,206569,2,0,P|415:138|404:104,1,87.5,8|0,0:0|0:0,0:0:0:0:
147,35,206935,5,2,0:0:0:0:
126,242,207118,1,0,0:0:0:0:
242,121,207301,2,0,P|242:73|224:37,1,87.5,8|2,0:0|0:0,0:0:0:0:
50,70,207667,5,0,0:0:0:0:
50,102,207758,1,0,0:0:0:0:
51,135,207849,1,2,0:0:0:0:
51,168,207941,1,0,0:0:0:0:
52,201,208032,5,8,0:0:0:0:
53,234,208124,1,0,0:0:0:0:
53,266,208215,1,0,0:0:0:0:
54,299,208307,1,0,0:0:0:0:
54,332,208398,5,2,0:0:0:0:
206,372,208581,1,0,0:0:0:0:
166,220,208763,1,8,0:0:0:0:
51,316,208946,5,2,0:0:0:0:
193,382,209129,1,0,0:0:0:0:
180,225,209312,1,2,0:0:0:0:
48,299,209496,2,0,P|77:342|123:363,1,87.5,8|0,0:0|0:0,0:0:0:0:
333,73,209862,5,2,0:0:0:0:
323,92,209953,1,0,0:0:0:0:
317,113,210044,1,0,0:0:0:0:
316,135,210136,1,0,0:0:0:0:
319,156,210228,5,8,0:0:0:0:
322,177,210319,1,0,0:0:0:0:
321,199,210411,1,2,0:0:0:0:
315,220,210502,1,0,0:0:0:0:
306,240,210593,5,0,0:0:0:0:
274,209,210685,1,0,0:0:0:0:
233,191,210776,1,2,0:0:0:0:
190,188,210868,1,0,0:0:0:0:
148,199,210959,5,8,0:0:0:0:
97,161,211051,1,0,0:0:0:0:
90,97,211142,1,0,0:0:0:0:
131,48,211234,1,0,0:0:0:0:
193,43,211325,6,0,P|239:86|226:201,1,175,6|8,0:0|0:0,0:0:0:0:
70,330,211874,1,2,0:0:0:0:
148,199,212057,1,0,0:0:0:0:
158,384,212240,1,2,0:0:0:0:
7,239,212423,1,8,0:0:0:0:
258,178,212606,6,0,P|255:226|233:274,1,87.5,0|2,0:0|0:0,0:0:0:0:
86,116,212972,2,0,P|89:68|111:20,1,87.5,0|8,0:0|0:0,0:0:0:0:
328,39,213337,1,2,0:0:0:0:
250,221,213520,5,0,0:0:0:0:
357,130,213703,1,2,0:0:0:0:
190,147,213886,5,8,0:0:0:0:
418,209,214069,1,0,0:0:0:0:
148,234,214252,5,2,0:0:0:0:
467,128,214435,1,0,0:0:0:0:
241,24,214618,1,8,0:0:0:0:
349,353,214801,2,0,P|404:343|444:314,1,87.5,2|0,0:0|0:0,0:0:0:0:
467,128,215167,2,0,P|412:138|372:167,1,87.5,2|8,0:0|0:0,0:0:0:0:
222,297,215533,6,0,P|170:324|61:272,1,175,0|0,0:0|0:0,0:0:0:0:
141,63,216081,2,0,P|140:113|122:158,1,87.5,8|2,0:0|0:0,0:0:0:0:
412,125,216447,6,0,P|406:97|391:66,1,43.75,0|0,0:0|0:0,0:0:0:0:
290,207,216630,2,0,P|299:180|302:146,1,43.75,2|0,0:0|0:0,0:0:0:0:
381,331,216813,2,0,P|390:304|393:270,1,43.75,8|0,0:0|0:0,0:0:0:0:
235,342,216996,2,0,P|256:323|275:295,1,43.75,0|0,0:0|0:0,0:0:0:0:
218,49,217179,6,0,P|227:103|216:153,1,87.5,2|0,0:0|0:0,0:0:0:0:
86,219,217545,2,0,P|81:262|90:304,1,87.5,8|2,0:0|0:0,0:0:0:0:
351,371,217911,1,0,0:0:0:0:
281,221,218094,1,2,0:0:0:0:
236,364,218276,1,8,0:0:0:0:
401,228,218459,1,0,0:0:0:0:
173,153,218642,6,0,L|168:253,1,87.5,2|0,0:0|0:0,0:0:0:0:
343,117,219008,2,0,L|347:29,1,87.5,8|2,0:0|0:0,0:0:0:0:
62,41,219374,5,0,0:0:0:0:
62,41,219465,1,0,0:0:0:0:
62,41,219557,2,0,P|55:72|54:100,1,43.75,2|0,0:0|0:0,0:0:0:0:
191,35,219740,2,0,P|167:13|143:-1,1,43.75,8|0,0:0|0:0,0:0:0:0:
131,149,219923,2,0,P|161:139|186:126,1,43.75,0|0,0:0|0:0,0:0:0:0:
432,225,220106,6,0,P|384:215|339:98,1,175,2|8,0:0|0:0,0:0:0:0:
121,384,220654,2,0,P|169:374|214:257,1,175,2|2,0:0|0:0,0:0:0:0:
201,132,221203,1,8,0:0:0:0:
324,257,221386,1,0,0:0:0:0:
124,255,221569,5,2,0:0:0:0:
387,136,221752,1,0,0:0:0:0:
80,116,221935,5,8,0:0:0:0:
323,353,222118,1,2,0:0:0:0:
286,44,222301,5,0,0:0:0:0:
121,348,222484,1,2,0:0:0:0:
443,288,222667,5,8,0:0:0:0:
172,36,222850,1,0,0:0:0:0:
172,36,223215,6,0,P|156:49|139:55,2,35,0|0|0,0:0|0:0|0:0,0:0:0:0:
277,31,223764,1,0,0:0:0:0:
340,117,223947,1,0,0:0:0:0:
228,149,224130,1,0,0:0:0:0:
305,239,224313,1,0,0:0:0:0:
196,299,224496,5,2,0:0:0:0:
165,302,224587,1,2,0:0:0:0:
136,293,224678,1,2,0:0:0:0:
114,273,224770,1,2,0:0:0:0:
102,245,224861,5,8,0:0:0:0:
89,217,224953,1,8,0:0:0:0:
67,196,225045,1,8,0:0:0:0:
38,187,225136,1,8,0:0:0:0:
8,191,225228,5,2,0:0:0:0:
26,179,225319,1,2,0:0:0:0:
40,163,225410,1,2,0:0:0:0:
47,142,225502,1,2,0:0:0:0:
47,120,225594,5,8,0:0:0:0:
59,148,225685,1,8,0:0:0:0:
81,168,225777,1,8,0:0:0:0:
110,177,225868,1,8,0:0:0:0:
140,173,225959,6,0,P|226:180|318:120,1,157.500006008148,2|0,0:0|0:0,0:0:0:0:
333,141,226325,2,0,P|326:227|386:319,1,157.500006008148,2|0,0:0|0:0,0:0:0:0:
388,296,226691,6,0,P|391:327|375:366,1,70,8|0,0:0|0:0,0:0:0:0:
377,362,227423,5,6,0:0:0:0:
182,61,229631,6,0,L|180:105,1,35,0|0,0:0|0:0,0:0:0:0:
305,112,229984,2,0,L|307:156,1,35,0|0,0:0|0:0,0:0:0:0:
157,195,230337,5,6,0:0:0:0:
323,337,230514,1,0,0:0:0:0:
227,100,230690,1,8,0:0:0:0:
204,316,230867,1,0,0:0:0:0:
376,158,231043,5,0,0:0:0:0:
150,182,231220,1,2,0:0:0:0:
321,239,231396,1,8,0:0:0:0:
314,25,231573,1,0,0:0:0:0:
136,182,231749,6,0,P|117:243|162:345,1,175,2|8,0:0|0:0,0:0:0:0:
279,349,232278,1,0,0:0:0:0:
374,244,232455,2,0,P|371:193|357:156,1,87.5,0|2,0:0|0:0,0:0:0:0:
468,32,232808,2,0,P|471:83|485:120,1,87.5,8|0,0:0|0:0,0:0:0:0:
197,84,233161,5,2,0:0:0:0:
255,291,233337,1,0,0:0:0:0:
356,151,233514,1,8,0:0:0:0:
148,263,233690,1,0,0:0:0:0:
396,345,233867,5,0,0:0:0:0:
242,191,234043,1,2,0:0:0:0:
440,52,234220,1,8,0:0:0:0:
335,254,234396,1,0,0:0:0:0:
498,357,234573,6,0,P|496:266|440:201,1,175,2|8,0:0|0:0,0:0:0:0:
289,344,235102,1,0,0:0:0:0:
212,182,235278,1,0,0:0:0:0:
57,243,235455,5,2,0:0:0:0:
57,243,235543,1,2,0:0:0:0:
57,243,235631,1,8,0:0:0:0:
228,36,235808,1,0,0:0:0:0:
371,293,235984,5,2,0:0:0:0:
141,102,236161,1,0,0:0:0:0:
366,173,236337,5,8,0:0:0:0:
155,187,236514,1,0,0:0:0:0:
298,250,236690,5,0,0:0:0:0:
214,126,236867,1,2,0:0:0:0:
293,168,237043,5,8,0:0:0:0:
215,210,237220,1,0,0:0:0:0:
377,29,237396,5,2,0:0:0:0:
336,363,237573,2,0,P|300:374|247:361,1,87.5,0|8,0:0|0:0,0:0:0:0:
119,23,237926,2,0,P|105:85|113:154,1,131.25,0|0,0:0|0:0,0:0:0:0:
130,184,238278,5,2,0:0:0:0:
369,44,238455,1,8,0:0:0:0:
255,350,238631,1,0,0:0:0:0:
443,228,238808,6,0,P|442:176|428:127,1,87.5,2|0,0:0|0:0,0:0:0:0:
260,65,239161,2,0,P|261:117|275:166,1,87.5,8|0,0:0|0:0,0:0:0:0:
370,339,239514,1,0,0:0:0:0:
361,209,239690,1,2,0:0:0:0:
213,255,239867,2,0,P|167:284|148:318,1,87.5,8|0,0:0|0:0,0:0:0:0:
324,58,240220,5,2,0:0:0:0:
288,225,240396,1,2,0:0:0:0:
227,44,240573,5,8,0:0:0:0:
362,168,240749,1,2,0:0:0:0:
459,19,240926,5,0,0:0:0:0:
161,194,241102,1,2,0:0:0:0:
161,194,241190,1,2,0:0:0:0:
161,194,241278,1,8,0:0:0:0:
422,360,241455,1,0,0:0:0:0:
412,101,241631,5,6,0:0:0:0:
226,128,241808,1,0,0:0:0:0:
402,267,241984,1,8,0:0:0:0:
215,230,242161,1,0,0:0:0:0:
360,362,242337,5,0,0:0:0:0:
319,165,242514,1,2,0:0:0:0:
226,346,242690,1,8,0:0:0:0:
414,263,242867,1,0,0:0:0:0:
137,34,243043,6,0,B|148:120|148:120|136:216,1,175,2|8,0:0|0:0,0:0:0:0:
88,331,243573,1,0,0:0:0:0:
275,383,243749,2,0,L|257:287,1,87.5,0|2,0:0|0:0,0:0:0:0:
377,109,244102,2,0,L|359:205,1,87.5,8|0,0:0|0:0,0:0:0:0:
186,104,244455,5,2,0:0:0:0:
248,281,244631,1,0,0:0:0:0:
266,145,244808,1,8,0:0:0:0:
156,306,244984,2,0,P|132:347|86:373,1,87.5,0|0,0:0|0:0,0:0:0:0:
30,174,245337,1,2,0:0:0:0:
144,300,245514,1,8,0:0:0:0:
193,126,245690,1,0,0:0:0:0:
326,266,245867,6,0,P|316:317|293:348,1,87.5,2|0,0:0|0:0,0:0:0:0:
414,130,246220,2,0,P|453:164|468:199,1,87.5,8|0,0:0|0:0,0:0:0:0:
466,354,246573,1,0,0:0:0:0:
340,282,246749,1,2,0:0:0:0:
340,282,246837,1,2,0:0:0:0:
340,282,246926,1,8,0:0:0:0:
492,242,247102,1,0,0:0:0:0:
244,72,247278,5,2,0:0:0:0:
328,287,247455,1,0,0:0:0:0:
309,94,247631,5,8,0:0:0:0:
250,269,247808,1,0,0:0:0:0:
337,148,247984,5,0,0:0:0:0:
211,224,248161,1,2,0:0:0:0:
330,191,248337,5,8,0:0:0:0:
213,174,248514,1,0,0:0:0:0:
454,73,248690,5,2,0:0:0:0:
125,314,248867,2,0,P|80:301|50:259,1,87.5,0|8,0:0|0:0,0:0:0:0:
304,37,249220,2,0,P|277:85|158:109,1,175,0|2,0:0|0:0,0:0:0:0:
403,307,249749,1,8,0:0:0:0:
286,224,249926,1,0,0:0:0:0:
473,153,250102,6,0,P|473:209|459:247,1,87.5,2|0,0:0|0:0,0:0:0:0:
352,106,250455,2,0,P|341:63|317:27,1,87.5,8|0,0:0|0:0,0:0:0:0:
203,225,250808,2,0,P|154:253|114:259,1,87.5,0|2,0:0|0:0,0:0:0:0:
183,96,251161,2,0,P|214:65|234:26,1,87.5,8|0,0:0|0:0,0:0:0:0:
273,325,251514,5,2,0:0:0:0:
425,100,251690,1,2,0:0:0:0:
423,370,251867,5,8,0:0:0:0:
216,130,252043,1,2,0:0:0:0:
142,340,252220,5,0,0:0:0:0:
361,214,252396,1,2,0:0:0:0:
361,214,252484,1,2,0:0:0:0:
361,214,252573,1,8,0:0:0:0:
113,152,252749,1,0,0:0:0:0:
428,384,252926,5,6,0:0:0:0:
148,40,256490,6,0,L|141:131,1,70.0000026702882,6|0,0:0|0:0,0:0:0:0:
198,167,256745,2,0,L|205:258,1,70.0000026702882,0|0,0:0|0:0,0:0:0:0:
161,304,256999,2,0,P|201:322|241:325,1,70.0000026702882,8|0,0:0|0:0,0:0:0:0:
300,313,257253,1,0,0:0:0:0:
309,5,257423,6,0,P|304:49|314:95,1,70.0000026702882,0|0,0:0|0:0,0:0:0:0:
347,155,257678,2,0,P|303:150|257:160,1,70.0000026702882,0|0,0:0|0:0,0:0:0:0:
198,167,257932,2,0,P|217:212|164:288,1,140.000005340576,0|0,0:0|0:0,0:0:0:0:
71,110,258524,5,2,0:0:0:0:
63,280,258695,1,0,0:0:0:0:
63,280,258779,2,0,P|81:317|110:340,1,70.0000026702882,0|0,0:0|0:0,0:0:0:0:
217,347,259033,2,0,P|203:315|178:292,1,70.0000026702882,8|0,0:0|0:0,0:0:0:0:
242,155,259287,2,0,L|226:224,1,70.0000026702882,0|0,0:0|0:0,0:0:0:0:
371,69,259541,6,0,L|378:164,1,70.0000026702882,2|0,0:0|0:0,0:0:0:0:
382,217,259795,1,0,0:0:0:0:
269,28,259965,2,0,L|266:87,1,35.0000013351441,0|8,0:0|0:0,0:0:0:0:
258,176,260219,1,0,0:0:0:0:
195,235,260304,2,0,L|202:330,1,70.0000026702882,0|0,0:0|0:0,0:0:0:0:
243,375,260558,6,0,P|298:367|327:350,1,70.0000026702882,2|0,0:0|0:0,0:0:0:0:
348,297,260812,2,0,P|380:284|415:283,1,70.0000026702882,0|0,0:0|0:0,0:0:0:0:
488,271,261067,2,0,P|489:224|464:177,1,70.0000026702882,8|0,0:0|0:0,0:0:0:0:
447,135,261321,1,0,0:0:0:0:
307,46,261490,6,0,L|304:125,1,70.0000026702882,0|0,0:0|0:0,0:0:0:0:
225,112,261745,2,0,L|228:191,1,70.0000026702882,0|0,0:0|0:0,0:0:0:0:
308,194,261999,2,0,L|302:352,1,140.000005340576,0|0,0:0|0:0,0:0:0:0:
98,346,262592,5,2,0:0:0:0:
192,246,262762,1,0,0:0:0:0:
192,246,262846,2,0,P|191:194|176:162,1,70.0000026702882,0|0,0:0|0:0,0:0:0:0:
60,117,263101,2,0,P|105:142|140:145,1,70.0000026702882,8|0,0:0|0:0,0:0:0:0:
237,67,263355,2,0,P|192:93|172:122,1,70.0000026702882,0|0,0:0|0:0,0:0:0:0:
184,177,263609,6,0,L|240:286,1,105.000004005432,2|0,0:0|0:0,0:0:0:0:
314,364,264033,1,0,0:0:0:0:
314,364,264118,1,8,0:0:0:0:
387,264,264287,1,0,0:0:0:0:
387,264,264372,1,0,0:0:0:0:
482,342,264541,1,0,0:0:0:0:
482,342,264626,6,0,P|486:295|475:249,1,70.0000026702882,6|0,0:0|0:0,0:0:0:0:
457,200,264880,1,0,0:0:0:0:
321,238,265050,2,0,P|316:211|318:187,1,35.0000013351441,0|8,0:0|0:0,0:0:0:0:
346,96,265304,1,0,0:0:0:0:
384,23,265389,2,0,P|410:61|424:107,1,70.0000026702882,0|0,0:0|0:0,0:0:0:0:
433,158,265643,1,2,0:0:0:0:
408,300,265812,1,0,0:0:0:0:
408,300,265897,6,0,P|404:253|415:207,1,70.0000026702882,0|0,0:0|0:0,0:0:0:0:
433,158,266151,2,0,P|398:162|363:158,1,70.0000026702882,8|0,0:0|0:0,0:0:0:0:
287,146,266406,2,0,P|252:142|217:146,1,70.0000026702882,0|0,0:0|0:0,0:0:0:0:
141,157,266660,6,0,L|150:250,1,70.0000026702882,2|0,0:0|0:0,0:0:0:0:
156,299,266914,1,0,0:0:0:0:
280,218,267084,2,0,L|286:277,1,35.0000013351441,0|8,0:0|0:0,0:0:0:0:
295,360,267338,1,0,0:0:0:0:
373,338,267423,2,0,L|361:214,1,105.000004005432,0|2,0:0|0:0,0:0:0:0:
342,93,267846,1,0,0:0:0:0:
342,93,267931,6,0,P|299:108|258:112,1,70.0000026702882,0|0,0:0|0:0,0:0:0:0:
199,127,268185,2,0,P|164:133|131:145,1,70.0000026702882,8|0,0:0|0:0,0:0:0:0:
79,211,268440,2,0,P|91:243|97:278,1,70.0000026702882,0|0,0:0|0:0,0:0:0:0:
128,349,268694,6,0,L|219:358,1,70.0000026702882,2|0,0:0|0:0,0:0:0:0:
162,277,268948,2,0,L|253:286,1,70.0000026702882,0|0,0:0|0:0,0:0:0:0:
191,207,269202,2,0,L|282:216,1,70.0000026702882,8|0,0:0|0:0,0:0:0:0:
336,221,269457,1,0,0:0:0:0:
346,72,269626,6,0,L|337:163,1,70.0000026702882,0|0,0:0|0:0,0:0:0:0:
276,43,269880,2,0,L|267:134,1,70.0000026702882,0|0,0:0|0:0,0:0:0:0:
206,13,270134,2,0,L|189:177,1,140.000005340576,0|0,0:0|0:0,0:0:0:0:
76,279,270728,5,2,0:0:0:0:
185,350,270897,1,0,0:0:0:0:
185,350,270982,2,0,P|227:345|257:328,1,70.0000026702882,0|0,0:0|0:0,0:0:0:0:
289,192,271236,2,0,P|272:230|272:265,1,70.0000026702882,8|0,0:0|0:0,0:0:0:0:
373,361,271490,2,0,P|347:327|317:309,1,70.0000026702882,0|0,0:0|0:0,0:0:0:0:
163,107,271745,6,0,L|161:184,1,70.0000026702882,2|0,0:0|0:0,0:0:0:0:
156,252,271999,1,0,0:0:0:0:
266,29,272168,6,0,L|269:91,1,35.0000013351441,0|8,0:0|0:0,0:0:0:0:
273,174,272422,1,0,0:0:0:0:
348,182,272507,6,0,L|346:259,1,70.0000026702882,0|0,0:0|0:0,0:0:0:0:
341,327,272762,6,0,P|307:341|274:326,1,70,0|0,0:0|0:0,0:0:0:0:
112,262,273270,2,0,P|146:276|179:261,1,70,0|0,0:0|0:0,0:0:0:0:
270,94,273779,6,0,L|278:163,1,70,0|0,0:0|0:0,0:0:0:0:
369,193,274202,2,0,L|360:262,1,70,0|0,0:0|0:0,0:0:0:0:
345,334,274541,1,0,0:0:0:0:
345,334,274795,5,0,0:0:0:0:
257,291,275050,1,0,0:0:0:0:
173,346,275304,1,0,0:0:0:0:
96,293,275558,1,0,0:0:0:0:
89,223,275728,6,0,P|95:261|95:304,1,70,0|0,0:0|0:0,0:0:0:0:
76,366,276067,1,0,0:0:0:0:
227,182,276321,1,0,0:0:0:0:
263,265,276490,1,0,0:0:0:0:
263,265,276575,1,0,0:0:0:0:
226,347,276745,1,0,0:0:0:0:
226,347,276829,6,0,L|298:362,1,70,0|0,0:0|0:0,0:0:0:0:
407,248,277338,2,0,L|335:263,1,70,0|0,0:0|0:0,0:0:0:0:
195,35,277846,6,0,P|185:74|189:113,1,70,0|0,0:0|0:0,0:0:0:0:
254,166,278270,2,0,P|255:200|245:234,1,70,0|0,0:0|0:0,0:0:0:0:
209,297,278609,1,0,0:0:0:0:
209,297,278863,5,0,0:0:0:0:
334,342,279118,1,0,0:0:0:0:
183,316,279372,1,0,0:0:0:0:
356,322,279626,1,0,0:0:0:0:
350,230,279795,6,0,P|359:304|349:339,1,93.3333333333333,0|0,0:0|0:0,0:0:0:0:
145,254,280389,1,0,0:0:0:0:
248,285,280558,1,0,0:0:0:0:
248,285,280643,1,0,0:0:0:0:
124,345,280812,1,0,0:0:0:0:
124,345,280897,5,0,0:0:0:0:
83,245,284459,6,0,L|155:251,2,52.5000020027161,0|0|0,0:0|0:0|0:0,0:0:0:0:
19,135,285111,6,0,P|70:114|105:117,1,87.5,6|0,0:0|0:0,0:0:0:0:
192,311,285545,2,0,P|148:277|133:245,1,87.5,8|0,0:0|0:0,0:0:0:0:
258,74,285980,1,2,0:0:0:0:
241,208,286198,1,0,0:0:0:0:
127,32,286415,1,8,0:0:0:0:
192,311,286632,6,0,B|267:338|292:271|362:295,1,175,0|0,0:0|0:0,0:0:0:0:
436,108,287285,2,0,P|397:149|391:186,1,87.5,8|0,0:0|0:0,0:0:0:0:
461,330,287719,1,2,0:0:0:0:
319,222,287937,2,0,P|259:217|228:234,1,87.5,0|8,0:0|0:0,0:0:0:0:
162,353,288372,1,0,0:0:0:0:
96,93,288589,5,2,0:0:0:0:
289,306,288806,1,0,0:0:0:0:
72,234,289024,1,8,0:0:0:0:
350,65,289241,1,0,0:0:0:0:
171,173,289459,5,2,0:0:0:0:
434,324,289676,1,0,0:0:0:0:
350,65,289893,1,8,0:0:0:0:
199,301,290111,1,0,0:0:0:0:
452,172,290328,6,0,L|463:71,1,87.5,2|0,0:0|0:0,0:0:0:0:
315,203,290763,2,0,L|305:289,1,87.5,8|0,0:0|0:0,0:0:0:0:
171,173,291198,2,0,L|185:43,1,131.25,2|2,0:0|0:0,0:0:0:0:
189,17,291632,1,8,0:0:0:0:
304,110,291850,1,2,0:0:0:0:
94,276,292067,6,0,P|58:241|55:191,1,87.5,6|0,0:0|0:0,0:0:0:0:
256,203,292502,2,0,P|243:251|201:279,1,87.5,8|0,0:0|0:0,0:0:0:0:
150,86,292937,1,2,0:0:0:0:
371,157,293154,1,0,0:0:0:0:
276,377,293372,1,8,0:0:0:0:
99,245,293589,6,0,B|94:209|119:185|119:185|117:143|117:143|146:116|150:82,1,175,0|0,0:0|0:0,0:0:0:0:
344,221,294241,2,0,L|256:205,1,87.5,8|0,0:0|0:0,0:0:0:0:
416,92,294676,1,2,0:0:0:0:
472,335,294893,2,0,L|384:319,1,87.5,0|8,0:0|0:0,0:0:0:0:
239,290,295328,1,0,0:0:0:0:
445,196,295545,5,2,0:0:0:0:
306,362,295763,1,0,0:0:0:0:
252,100,295980,1,8,0:0:0:0:
429,293,296198,1,2,0:0:0:0:
98,284,296415,6,0,P|101:252|112:221,1,43.75,8|8,0:0|0:0,0:0:0:0:
414,96,296632,2,0,P|411:128|400:159,1,43.75,8|8,0:0|0:0,0:0:0:0:
306,362,296850,6,0,P|310:340|311:318,1,43.75,2|2,0:0|0:0,0:0:0:0:
139,68,297067,2,0,P|134:89|133:111,1,43.75,2|2,0:0|0:0,0:0:0:0:
490,58,297285,5,8,0:0:0:0:
496,78,297393,1,8,0:0:0:0:
497,100,297502,1,8,0:0:0:0:
493,121,297611,1,8,0:0:0:0:
484,141,297719,5,2,0:0:0:0:
469,158,297828,1,2,0:0:0:0:
451,170,297937,1,2,0:0:0:0:
431,178,298045,1,2,0:0:0:0:
411,180,298154,6,0,L|401:231,1,43.75,8|8,0:0|0:0,0:0:0:0:
300,351,298372,2,0,L|308:308,1,43.75,8|8,0:0|0:0,0:0:0:0:
252,131,298589,6,0,L|242:182,1,43.75,8|8,0:0|0:0,0:0:0:0:
141,302,298807,2,0,L|149:259,1,43.75,8|8,0:0|0:0,0:0:0:0:
61,138,299024,6,0,P|111:63|146:52,1,131.25,6|0,0:0|0:0,0:0:0:0:
189,53,299459,1,8,0:0:0:0:
368,274,299676,1,0,0:0:0:0:
401,82,299893,5,2,0:0:0:0:
213,167,300111,1,0,0:0:0:0:
438,189,300328,1,8,0:0:0:0:
250,274,300545,1,0,0:0:0:0:
286,86,300763,6,0,B|323:117|323:117|326:204,1,131.25,2|0,0:0|0:0,0:0:0:0:
327,238,301198,1,8,0:0:0:0:
157,133,301415,1,0,0:0:0:0:
145,354,301632,5,2,0:0:0:0:
396,132,301850,1,0,0:0:0:0:
395,359,302067,1,8,0:0:0:0:
273,62,302285,1,0,0:0:0:0:
283,363,302502,6,0,P|293:319|296:230,1,131.25,2|0,0:0|0:0,0:0:0:0:
293,202,302937,1,8,0:0:0:0:
192,271,303154,1,0,0:0:0:0:
416,245,303372,5,2,0:0:0:0:
173,162,303589,1,0,0:0:0:0:
396,132,303806,1,8,0:0:0:0:
215,376,304024,1,0,0:0:0:0:
39,75,304241,6,0,P|64:116|60:214,1,131.25,2|0,0:0|0:0,0:0:0:0:
50,233,304676,1,8,0:0:0:0:
228,173,304893,1,0,0:0:0:0:
215,376,305111,2,0,L|306:356,1,87.5,2|0,0:0|0:0,0:0:0:0:
396,132,305545,2,0,L|310:150,1,87.5,8|2,0:0|0:0,0:0:0:0:
148,44,305980,6,0,L|129:149,1,87.5,6|0,0:0|0:0,0:0:0:0:
126,171,306306,1,0,0:0:0:0:
126,171,306415,2,0,L|179:180,1,43.75,8|0,0:0|0:0,0:0:0:0:
305,270,306632,2,0,L|261:263,1,43.75,0|0,0:0|0:0,0:0:0:0:
307,142,306850,6,0,L|412:161,1,87.5,2|0,0:0|0:0,0:0:0:0:
437,167,307176,1,0,0:0:0:0:
437,167,307285,2,0,L|428:220,1,43.75,8|0,0:0|0:0,0:0:0:0:
297,313,307502,2,0,L|304:269,1,43.75,0|0,0:0|0:0,0:0:0:0:
184,92,307719,6,0,L|169:178,1,87.5,2|0,0:0|0:0,0:0:0:0:
167,208,308045,1,0,0:0:0:0:
167,208,308154,2,0,L|114:199,1,43.75,8|0,0:0|0:0,0:0:0:0:
253,305,308372,2,0,L|296:312,1,43.75,0|0,0:0|0:0,0:0:0:0:
439,143,308589,6,0,L|424:229,1,87.5,2|0,0:0|0:0,0:0:0:0:
416,260,308915,1,0,0:0:0:0:
416,260,309024,2,0,L|329:245,1,87.5,8|0,0:0|0:0,0:0:0:0:
204,113,309459,5,2,0:0:0:0:
138,269,309676,1,0,0:0:0:0:
349,125,309893,1,8,0:0:0:0:
104,91,310111,1,2,0:0:0:0:
304,384,310328,6,0,P|298:353|288:333,1,43.75,8|8,0:0|0:0,0:0:0:0:
204,113,310545,2,0,P|196:92|193:70,1,43.75,8|8,0:0|0:0,0:0:0:0:
82,341,310763,6,0,P|116:347|134:344,1,43.75,2|2,0:0|0:0,0:0:0:0:
394,239,310980,2,0,P|360:233|342:236,1,43.75,2|2,0:0|0:0,0:0:0:0:
80,24,311198,5,8,0:0:0:0:
64,52,311306,1,8,0:0:0:0:
58,84,311415,1,8,0:0:0:0:
61,117,311524,1,8,0:0:0:0:
74,147,311632,5,2,0:0:0:0:
86,177,311741,1,2,0:0:0:0:
90,209,311850,1,2,0:0:0:0:
83,241,311959,1,2,0:0:0:0:
68,270,312067,6,0,L|134:270,1,43.75,8|8,0:0|0:0,0:0:0:0:
366,360,312285,2,0,L|323:340,1,43.75,8|8,0:0|0:0,0:0:0:0:
74,147,312502,6,0,L|138:145,1,43.75,8|8,0:0|0:0,0:0:0:0:
459,272,312720,2,0,L|418:254,1,43.75,8|8,0:0|0:0,0:0:0:0:
285,49,312937,5,0,0:0:0:0:
248,226,313154,1,0,0:0:0:0:
408,137,313372,1,0,0:0:0:0:
158,125,313589,1,0,0:0:0:0:
380,348,313806,5,0,0:0:0:0:
380,348,314241,1,0,0:0:0:0:
250,225,314459,1,0,0:0:0:0:
104,330,314676,5,2,0:0:0:0:
232,117,315111,1,0,0:0:0:0:
252,235,315328,1,2,0:0:0:0:
104,54,315545,6,0,P|96:82|97:112,1,52.5,8|0,0:0|0:0,0:0:0:0:
114,127,315980,6,0,P|131:180|54:157,1,157.500006008148,2|0,0:0|0:0,0:0:0:0:
41,154,316415,5,2,0:0:0:0:
147,93,321170,6,0,L|146:133,1,26.2500010013581,0|0,0:0|0:0,0:0:0:0:
216,176,321455,6,0,P|216:158|217:141,1,35,6|0,0:0|0:0,0:0:0:0:
404,143,322027,2,0,P|408:183|402:222,1,70,2|0,0:0|0:0,0:0:0:0:
355,291,322598,2,0,P|351:329|362:374,1,70,8|2,0:0|0:0,0:0:0:0:
474,358,323170,2,0,P|478:320|467:275,1,70,2|0,0:0|0:0,0:0:0:0:
428,219,323741,5,2,0:0:0:0:
428,219,324312,1,2,0:0:0:0:
348,159,324598,1,0,0:0:0:0:
287,249,324884,1,8,0:0:0:0:
201,191,325170,1,2,0:0:0:0:
136,283,325455,2,0,P|139:330|160:364,1,70,2|0,0:0|0:0,0:0:0:0:
258,367,326027,5,2,0:0:0:0:
258,367,326598,1,2,0:0:0:0:
318,270,326884,1,0,0:0:0:0:
391,357,327170,1,8,0:0:0:0:
440,255,327455,1,2,0:0:0:0:
318,270,327741,2,0,P|284:239|272:203,1,70,2|0,0:0|0:0,0:0:0:0:
266,122,328312,5,2,0:0:0:0:
266,122,328884,1,2,0:0:0:0:
226,235,329170,1,0,0:0:0:0:
112,180,329455,1,8,0:0:0:0:
156,336,329741,1,2,0:0:0:0:
226,235,330027,1,2,0:0:0:0:
338,298,330312,1,0,0:0:0:0:
338,298,330455,1,0,0:0:0:0:
338,298,330598,6,0,P|341:282|342:259,1,35,2|0,0:0|0:0,0:0:0:0:
352,108,331170,2,0,P|339:97|320:85,1,35,2|0,0:0|0:0,0:0:0:0:
174,58,331741,6,0,P|178:101|162:159,1,70,8|2,0:0|0:0,0:0:0:0:
93,178,332312,2,0,P|93:195|97:212,1,35,2|0,0:0|0:0,0:0:0:0:
294,377,332884,6,0,P|298:334|282:276,1,70,2|2,0:0|0:0,0:0:0:0:
213,257,333455,2,0,P|213:239|217:222,1,35,2|0,0:0|0:0,0:0:0:0:
340,70,334027,6,0,L|351:160,2,70,8|2|2,0:0|0:0|0:0,0:0:0:0:
234,47,334884,1,0,0:0:0:0:
234,47,335027,1,0,0:0:0:0:
234,47,335170,5,2,0:0:0:0:
223,174,335455,1,2,0:0:0:0:
317,108,335741,1,2,0:0:0:0:
327,224,336027,1,0,0:0:0:0:
223,174,336312,6,0,P|225:208|219:251,1,70,8|2,0:0|0:0,0:0:0:0:
152,108,336884,2,0,P|150:74|156:31,1,70,2|0,0:0|0:0,0:0:0:0:
410,51,337455,5,2,0:0:0:0:
365,233,337741,1,2,0:0:0:0:
340,93,338027,5,2,0:0:0:0:
425,185,338312,1,0,0:0:0:0:
487,43,338598,6,0,P|489:87|482:116,1,70,8|2,0:0|0:0,0:0:0:0:
425,185,339170,2,0,P|418:219|421:254,1,70,2|0,0:0|0:0,0:0:0:0:
462,369,339741,5,6,0:0:0:0:
391,306,340027,1,2,0:0:0:0:
311,378,340312,1,2,0:0:0:0:
301,228,340598,1,0,0:0:0:0:
233,315,340884,1,8,0:0:0:0:
233,315,341455,5,2,0:0:0:0:
132,166,341741,1,0,0:0:0:0:
301,228,342027,1,2,0:0:0:0:
129,277,342312,1,2,0:0:0:0:
238,135,342598,2,0,P|274:132|327:45,2,140,2|8|2,0:0|0:0|0:0,0:0:0:0:
94,49,344027,5,0,0:0:0:0:
92,66,344169,1,0,0:0:0:0:
90,83,344312,1,2,0:0:0:0:
158,154,344599,5,2,0:0:0:0:
160,138,344742,1,0,0:0:0:0:
162,123,344884,1,2,0:0:0:0:
232,174,345170,5,0,0:0:0:0:
230,187,345312,1,0,0:0:0:0:
228,201,345455,1,8,0:0:0:0:
297,241,345742,5,2,0:0:0:0:
299,228,345885,1,0,0:0:0:0:
301,217,346027,1,2,0:0:0:0:
326,314,346312,2,0,P|348:325|368:326,1,35,0|0,0:0|0:0,0:0:0:0:
429,278,346598,5,2,0:0:0:0:
429,278,346741,1,0,0:0:0:0:
429,278,346884,1,2,0:0:0:0:
430,111,347170,2,0,P|436:158|431:193,1,70,2|0,0:0|0:0,0:0:0:0:
325,192,347741,5,8,0:0:0:0:
304,268,348027,1,2,0:0:0:0:
236,221,348312,1,2,0:0:0:0:
216,305,348598,1,0,0:0:0:0:
98,167,348884,5,2,0:0:0:0:
236,221,349170,1,2,0:0:0:0:
224,118,349455,1,2,0:0:0:0:
145,252,349741,1,0,0:0:0:0:
216,305,350027,1,8,0:0:0:0:
216,305,350598,5,2,0:0:0:0:
355,331,350884,1,0,0:0:0:0:
298,250,351170,1,2,0:0:0:0:
440,285,351455,1,2,0:0:0:0:
384,210,351741,2,0,B|397:168|397:168|391:60,2,140,2|8|2,0:0|0:0|0:0,0:0:0:0:
218,334,353170,5,0,0:0:0:0:
216,316,353312,1,0,0:0:0:0:
215,299,353455,1,2,0:0:0:0:
277,172,353742,5,2,0:0:0:0:
278,187,353884,1,0,0:0:0:0:
279,203,354027,1,2,0:0:0:0:
180,228,354313,5,0,0:0:0:0:
195,227,354455,1,0,0:0:0:0:
209,226,354598,1,8,0:0:0:0:
312,275,354885,5,2,0:0:0:0:
300,276,355027,1,0,0:0:0:0:
287,277,355170,1,2,0:0:0:0:
170,347,355455,1,0,0:0:0:0:
170,347,355598,1,0,0:0:0:0:
170,347,355741,5,2,0:0:0:0:
131,210,356027,1,2,0:0:0:0:
241,308,356312,1,2,0:0:0:0:
216,230,356598,1,0,0:0:0:0:
304,256,356884,6,0,P|345:270|385:267,1,70,8|2,0:0|0:0,0:0:0:0:
474,204,357455,1,2,0:0:0:0:
461,308,357741,1,0,0:0:0:0:
390,142,358027,5,0,0:0:0:0:
256,192,359932,12,0,361522,0:0:0:0:
428,345,361749,5,0,0:0:0:0:
428,345,361976,1,0,0:0:0:0:
367,39,362204,6,0,L|360:186,1,112.700000171967,6|0,0:0|0:0,0:0:0:0:
359,201,362545,1,0,0:0:0:0:
359,201,362658,1,8,0:0:0:0:
205,107,362886,2,0,L|212:243,1,112.700000171967,0|2,0:0|0:0,0:0:0:0:
213,269,363226,1,0,0:0:0:0:
213,269,363340,1,0,0:0:0:0:
65,170,363567,1,8,0:0:0:0:
48,322,363795,1,0,0:0:0:0:
213,269,364022,5,2,0:0:0:0:
87,230,364249,1,0,0:0:0:0:
255,367,364476,1,8,0:0:0:0:
200,144,364704,1,0,0:0:0:0:
143,318,364931,5,2,0:0:0:0:
390,229,365158,1,0,0:0:0:0:
200,144,365386,1,8,0:0:0:0:
345,345,365613,1,0,0:0:0:0:
301,103,365840,6,0,P|242:139|175:139,1,112.700000171967,2|0,0:0|0:0,0:0:0:0:
74,110,366295,1,8,0:0:0:0:
109,246,366522,2,0,P|168:282|235:282,1,112.700000171967,0|2,0:0|0:0,0:0:0:0:
319,208,366976,1,0,0:0:0:0:
399,380,367204,2,0,P|435:321|435:254,1,112.700000171967,8|0,0:0|0:0,0:0:0:0:
400,64,367658,1,2,0:0:0:0:
319,208,367886,5,0,0:0:0:0:
212,80,368113,1,8,0:0:0:0:
258,308,368340,1,0,0:0:0:0:
104,53,368567,6,0,L|124:172,1,112.700000171967,2|0,0:0|0:0,0:0:0:0:
135,215,368908,1,0,0:0:0:0:
135,215,369022,1,8,0:0:0:0:
326,92,369249,1,0,0:0:0:0:
258,308,369476,6,0,P|203:345|146:355,1,112.700000171967,2|0,0:0|0:0,0:0:0:0:
120,357,369817,1,0,0:0:0:0:
120,357,369931,1,8,0:0:0:0:
300,220,370158,2,0,P|245:183|188:173,1,112.700000171967,0|2,0:0|0:0,0:0:0:0:
162,171,370499,1,0,0:0:0:0:
162,171,370613,1,0,0:0:0:0:
417,322,370840,2,0,P|419:263|387:210,1,112.700000171967,8|0,0:0|0:0,0:0:0:0:
213,350,371295,1,2,0:0:0:0:
162,75,371522,5,0,0:0:0:0:
261,258,371749,1,8,0:0:0:0:
96,183,371976,1,0,0:0:0:0:
301,146,372204,5,2,0:0:0:0:
126,309,372431,1,0,0:0:0:0:
185,169,372658,1,8,0:0:0:0:
283,375,372886,1,0,0:0:0:0:
362,59,373113,6,0,L|356:177,1,112.700000171967,2|0,0:0|0:0,0:0:0:0:
350,291,373567,1,8,0:0:0:0:
158,20,373795,2,0,L|164:138,1,112.700000171967,0|2,0:0|0:0,0:0:0:0:
170,252,374249,1,0,0:0:0:0:
362,59,374476,2,0,P|309:22|252:17,1,112.700000171967,8|0,0:0|0:0,0:0:0:0:
69,80,374931,5,8,0:0:0:0:
70,108,375045,1,8,0:0:0:0:
72,136,375158,1,8,0:0:0:0:
73,164,375272,1,8,0:0:0:0:
75,192,375386,2,0,L|132:209,1,56.3500000859833,2|2,0:0|0:0,0:0:0:0:
243,267,375613,2,0,L|186:283,1,56.3500000859833,2|2,0:0|0:0,0:0:0:0:
103,332,375840,5,8,0:0:0:0:
83,351,375954,1,8,0:0:0:0:
56,360,376067,1,8,0:0:0:0:
29,355,376181,1,8,0:0:0:0:
6,338,376295,6,0,L|8:300,1,33.6,2|0,0:0|0:0,0:0:0:0:
15,199,376749,6,0,P|95:211|121:191,1,112.700000171967,6|0,0:0|0:0,0:0:0:0:
148,155,377090,1,0,0:0:0:0:
148,155,377204,1,8,0:0:0:0:
221,272,377431,1,0,0:0:0:0:
258,84,377658,5,2,0:0:0:0:
384,219,377886,1,0,0:0:0:0:
221,272,378113,1,8,0:0:0:0:
425,320,378340,1,0,0:0:0:0:
158,352,378567,5,2,0:0:0:0:
320,364,378795,2,0,P|325:305|310:246,1,112.700000171967,0|8,0:0|0:0,0:0:0:0:
162,126,379249,1,0,0:0:0:0:
223,281,379476,5,2,0:0:0:0:
301,108,379704,1,0,0:0:0:0:
419,263,379931,1,8,0:0:0:0:
238,194,380158,1,0,0:0:0:0:
342,360,380386,5,2,0:0:0:0:
126,272,380613,1,0,0:0:0:0:
313,271,380840,1,8,0:0:0:0:
184,338,381067,1,0,0:0:0:0:
419,263,381295,5,2,0:0:0:0:
263,140,381522,1,0,0:0:0:0:
313,271,381749,1,8,0:0:0:0:
157,148,381976,6,0,P|157:190|129:258,1,112.700000171967,0|2,0:0|0:0,0:0:0:0:
13,37,382431,2,0,P|13:79|41:147,1,112.700000171967,0|8,0:0|0:0,0:0:0:0:
300,111,382886,2,0,P|275:182|153:129,1,225.400000343933,0|0,0:0|0:0,0:0:0:0:
452,125,383567,1,8,0:0:0:0:
387,305,383795,1,0,0:0:0:0:
227,126,384022,6,0,P|247:198|231:267,1,112.700000171967,2|0,0:0|0:0,0:0:0:0:
226,278,384363,1,0,0:0:0:0:
226,278,384476,1,8,0:0:0:0:
62,236,384704,1,0,0:0:0:0:
332,319,384931,5,2,0:0:0:0:
113,329,385158,1,0,0:0:0:0:
226,177,385386,1,8,0:0:0:0:
62,236,385613,1,0,0:0:0:0:
253,356,385840,5,2,0:0:0:0:
334,245,386067,2,0,P|354:189|405:169,1,112.700000171967,0|8,0:0|0:0,0:0:0:0:
491,268,386522,1,0,0:0:0:0:
422,93,386749,5,2,0:0:0:0:
425,323,386976,1,0,0:0:0:0:
260,67,387204,1,8,0:0:0:0:
334,245,387431,1,0,0:0:0:0:
136,186,387658,5,2,0:0:0:0:
335,164,387886,1,0,0:0:0:0:
171,284,388113,1,8,0:0:0:0:
260,67,388340,1,0,0:0:0:0:
108,87,388567,5,2,0:0:0:0:
246,194,388795,1,0,0:0:0:0:
56,191,389022,1,8,0:0:0:0:
171,284,389249,1,0,0:0:0:0:
27,334,389476,6,0,B|15:312|15:312|21:264,1,67.5499983765984,2|0,0:0|0:0,0:0:0:0:
56,191,389704,2,0,B|68:169|68:169|62:125,1,67.5499983765984,0|0,0:0|0:0,0:0:0:0:
108,43,389931,5,0,0:0:0:0:
108,43,390158,1,0,0:0:0:0:
195,244,390613,5,0,0:0:0:0:
195,244,390840,2,0,P|243:258|287:243,1,90.3000013778687,0|0,0:0|0:0,0:0:0:0:
376,168,391295,5,0,0:0:0:0:
266,321,395754,5,0,0:0:0:0:
245,217,395987,1,0,0:0:0:0:
322,147,396219,1,0,0:0:0:0:
262,71,396452,2,0,L|232:76,1,26.25,8|0,0:0|0:0,0:0:0:0:
204,83,396917,6,0,P|209:142|141:184,1,105.000004005432,6|0,0:0|0:0,0:0:0:0:
109,181,397266,1,0,0:0:0:0:
34,177,397382,2,0,L|40:295,1,105.000004005432,2|0,0:0|0:0,0:0:0:0:
162,361,397847,5,2,0:0:0:0:
285,239,398079,1,0,0:0:0:0:
312,304,398196,1,0,0:0:0:0:
339,369,398312,1,2,0:0:0:0:
415,185,398544,1,0,0:0:0:0:
285,239,398777,6,0,P|255:248|230:243,1,52.5000020027161,2|0,0:0|0:0,0:0:0:0:
145,181,399010,2,0,P|147:155|139:130,1,52.5000020027161,0|0,0:0|0:0,0:0:0:0:
92,42,399242,1,2,0:0:0:0:
160,26,399359,1,0,0:0:0:0:
229,11,399475,2,0,L|238:73,1,52.5000020027161,0|0,0:0|0:0,0:0:0:0:
314,152,399707,6,0,L|323:90,1,52.5000020027161,2|0,0:0|0:0,0:0:0:0:
404,15,399940,2,0,L|413:77,1,52.5000020027161,0|0,0:0|0:0,0:0:0:0:
432,211,400172,5,10,0:0:0:0:
376,297,400288,1,8,0:0:0:0:
278,328,400404,1,8,0:0:0:0:
183,289,400522,1,8,0:0:0:0:
135,198,400638,6,0,L|252:176,1,105.000004005432,2|0,0:0|0:0,0:0:0:0:
306,158,400986,1,0,0:0:0:0:
376,137,401103,2,0,P|365:83|316:44,1,105.000004005432,2|0,0:0|0:0,0:0:0:0:
53,43,401568,6,0,L|59:110,1,52.5000020027161,2|0,0:0|0:0,0:0:0:0:
105,310,401800,2,0,L|111:243,1,52.5000020027161,0|0,0:0|0:0,0:0:0:0:
162,60,402033,2,0,L|168:127,1,52.5000020027161,2|0,0:0|0:0,0:0:0:0:
214,293,402265,2,0,L|220:226,1,52.5000020027161,0|0,0:0|0:0,0:0:0:0:
269,83,402498,5,2,0:0:0:0:
460,162,402731,1,0,0:0:0:0:
304,349,402963,1,2,0:0:0:0:
313,280,403079,1,0,0:0:0:0:
324,211,403196,1,0,0:0:0:0:
432,298,403428,5,2,0:0:0:0:
113,272,403661,2,0,P|105:249|104:215,1,52.5000020027161,0|0,0:0|0:0,0:0:0:0:
51,43,403893,5,10,0:0:0:0:
155,50,404009,1,8,0:0:0:0:
260,58,404125,1,8,0:0:0:0:
365,66,404242,1,8,0:0:0:0:
469,74,404358,6,0,P|478:141|451:195,1,105.000004005432,2|0,0:0|0:0,0:0:0:0:
406,236,404707,1,0,0:0:0:0:
347,187,404824,2,0,P|296:172|246:183,1,105.000004005432,2|0,0:0|0:0,0:0:0:0:
120,320,405289,1,2,0:0:0:0:
317,351,405521,1,0,0:0:0:0:
91,93,405754,1,2,0:0:0:0:
52,165,405870,1,0,0:0:0:0:
68,245,405986,1,0,0:0:0:0:
294,128,406219,6,0,P|300:66|280:24,1,105.000004005432,2|0,0:0|0:0,0:0:0:0:
196,272,406684,1,2,0:0:0:0:
360,298,406917,1,0,0:0:0:0:
173,349,407149,1,2,0:0:0:0:
383,221,407382,2,0,P|351:224|328:217,1,52.5000020027161,0|0,0:0|0:0,0:0:0:0:
182,69,407614,2,0,B|170:120|170:120|189:170,1,105.000004005432,2|0,0:0|0:0,0:0:0:0:
399,40,408079,6,0,L|396:156,1,105.000004005432,10|0,0:0|0:0,0:0:0:0:
295,125,408428,2,0,L|298:241,1,105.000004005432,8|0,0:0|0:0,0:0:0:0:
295,309,408777,1,8,0:0:0:0:
115,218,409010,1,2,0:0:0:0:
318,289,409242,1,8,0:0:0:0:
91,350,409475,2,0,P|32:354|4:314,1,105.000004005432,2|0,0:0|0:0,0:0:0:0:
115,218,409940,5,8,0:0:0:0:
125,194,410056,1,8,0:0:0:0:
129,168,410172,1,2,0:0:0:0:
127,142,410288,1,2,0:0:0:0:
117,118,410405,2,0,L|58:130,3,52.5000020027161,8|8|8|8,0:0|0:0|0:0|0:0,0:0:0:0:
164,55,410870,5,8,0:0:0:0:
190,57,410986,1,8,0:0:0:0:
216,59,411102,1,2,0:0:0:0:
242,62,411218,1,2,0:0:0:0:
268,64,411335,5,8,0:0:0:0:
264,116,411451,1,8,0:0:0:0:
260,168,411567,1,8,0:0:0:0:
256,221,411683,1,8,0:0:0:0:
252,273,411800,6,0,P|188:319|160:278,1,140,6|0,0:0|0:0,0:0:0:0:
73,85,412265,1,8,0:0:0:0:
86,159,412382,2,0,P|93:246|79:312,1,140,0|0,0:0|0:0,0:0:0:0:
62,363,412731,1,2,0:0:0:0:
252,273,412963,1,0,0:0:0:0:
179,356,413196,1,8,0:0:0:0:
198,161,413428,2,0,L|273:168,1,70,0|0,0:0|0:0,0:0:0:0:
345,176,413661,6,0,P|351:99|301:52,1,140,2|0,0:0|0:0,0:0:0:0:
226,26,414010,2,0,P|173:69|106:60,1,140,0|0,0:0|0:0,0:0:0:0:
20,53,414358,2,0,L|10:136,1,70,0|0,0:0|0:0,0:0:0:0:
7,205,414591,6,0,P|36:201|80:214,1,70,2|0,0:0|0:0,0:0:0:0:
247,333,414824,2,0,P|218:337|174:324,1,70,0|2,0:0|0:0,0:0:0:0:
55,174,415056,2,0,P|83:180|120:207,1,70,8|0,0:0|0:0,0:0:0:0:
199,364,415289,2,0,P|170:357|133:330,1,70,0|0,0:0|0:0,0:0:0:0:
110,161,415521,6,0,P|184:145|159:58,1,140,2|0,0:0|0:0,0:0:0:0:
172,20,415870,2,0,L|370:35,1,140,0|0,0:0|0:0,0:0:0:0:
392,38,416219,2,0,P|397:63|387:108,1,70,0|0,0:0|0:0,0:0:0:0:
233,154,416451,1,2,0:0:0:0:
457,150,416684,1,0,0:0:0:0:
225,140,416917,1,8,0:0:0:0:
451,305,417149,1,0,0:0:0:0:
228,320,417382,6,0,P|191:332|149:330,1,70,2|0,0:0|0:0,0:0:0:0:
92,306,417614,1,0,0:0:0:0:
105,235,417731,2,0,L|110:163,1,70,0|8,0:0|0:0,0:0:0:0:
117,92,417963,1,0,0:0:0:0:
117,92,418079,1,0,0:0:0:0:
407,147,418312,5,2,0:0:0:0:
193,45,418544,1,0,0:0:0:0:
442,23,418777,2,0,P|449:49|450:97,1,70,8|0,0:0|0:0,0:0:0:0:
185,64,419010,2,0,P|178:90|177:138,1,70,0|0,0:0|0:0,0:0:0:0:
323,327,419242,6,0,B|291:342|291:342|185:335,1,140,2|0,0:0|0:0,0:0:0:0:
270,108,419707,5,8,0:0:0:0:
293,172,419824,2,0,P|247:232|194:184,1,140,0|0,0:0|0:0,0:0:0:0:
176,139,420172,1,2,0:0:0:0:
114,277,420405,1,0,0:0:0:0:
119,61,420638,5,8,0:0:0:0:
176,139,420754,1,0,0:0:0:0:
79,149,420870,1,0,0:0:0:0:
373,35,421103,6,0,L|361:188,1,140,2|0,0:0|0:0,0:0:0:0:
194,209,421568,2,0,L|270:215,1,70,8|0,0:0|0:0,0:0:0:0:
425,308,421800,2,0,L|355:302,1,70,0|0,0:0|0:0,0:0:0:0:
260,374,422033,6,0,L|266:297,1,70,2|0,0:0|0:0,0:0:0:0:
359,143,422265,2,0,L|353:212,1,70,0|2,0:0|0:0,0:0:0:0:
167,286,422498,2,0,P|131:354|75:301,1,140,8|0,0:0|0:0,0:0:0:0:
86,46,422963,6,0,P|99:78|100:120,1,70,10|0,0:0|0:0,0:0:0:0:
68,178,423196,1,0,0:0:0:0:
208,91,423312,2,0,P|209:125|195:165,1,70,8|2,0:0|0:0,0:0:0:0:
145,208,423545,1,0,0:0:0:0:
316,153,423661,2,0,P|305:185|279:218,1,70,8|0,0:0|0:0,0:0:0:0:
142,325,423893,6,0,L|219:331,1,70,2|0,0:0|0:0,0:0:0:0:
442,305,424126,2,0,L|372:299,1,70,8|0,0:0|0:0,0:0:0:0:
121,286,424358,2,0,L|198:292,1,70,2|0,0:0|0:0,0:0:0:0:
463,344,424591,2,0,L|393:338,1,70,0|0,0:0|0:0,0:0:0:0:
171,66,424824,5,8,0:0:0:0:
204,68,424940,1,8,0:0:0:0:
240,70,425056,1,2,0:0:0:0:
275,72,425172,1,2,0:0:0:0:
310,74,425289,5,8,0:0:0:0:
357,94,425405,1,8,0:0:0:0:
377,141,425521,1,8,0:0:0:0:
356,188,425637,1,8,0:0:0:0:
309,207,425754,5,8,0:0:0:0:
239,197,425870,1,8,0:0:0:0:
170,188,425986,1,2,0:0:0:0:
100,178,426102,1,2,0:0:0:0:
31,169,426219,5,8,0:0:0:0:
89,257,426335,1,8,0:0:0:0:
146,343,426451,1,8,0:0:0:0:
227,275,426567,1,8,0:0:0:0:
309,207,426684,6,0,P|310:189|309:177,1,26.25,0|0,0:0|0:0,0:0:0:0:
