osu file format v14

[General]
AudioFilename: audio.mp3
AudioLeadIn: 0
PreviewTime: 153279
Countdown: 0
SampleSet: Soft
StackLeniency: 0.7
Mode: 0
LetterboxInBreaks: 0
WidescreenStoryboard: 0

[Editor]
DistanceSpacing: 0.8
BeatDivisor: 4
GridSize: 4
TimelineZoom: 1.4

[Metadata]
Title:TURN IT UP
TitleUnicode:TURN IT UP
Artist:TWICE
ArtistUnicode:트와이스
Creator:Fragmented
Version:MAXIMUM
Source:
Tags:korean pop k-pop kpop charmcaster dora- doraemonelf 7th mini album fancy you side track b-track bside b-side JYP Entertainment JYPE sana jihyo dahyun nayeon jeongyeon chaeyoung momo mina tzuyu 나연 정연 모모 사나 지효 미나 다현 채영 쯔위
BeatmapID:2041785
BeatmapSetID:975513

[Difficulty]
HPDrainRate:6
CircleSize:3.7
OverallDifficulty:7
ApproachRate:9
SliderMultiplier:1.9
SliderTickRate:1

[Events]
//Background and Video events
0,0,"turnitup.jpg",0,0
//Break Periods
//Storyboard Layer 0 (Background)
//Storyboard Layer 1 (Fail)
//Storyboard Layer 2 (Pass)
//Storyboard Layer 3 (Foreground)
//Storyboard Layer 4 (Overlay)
//Storyboard Sound Samples

[TimingPoints]
1780,500,4,2,1,80,1,0
2530,-133.333333333333,4,2,1,80,0,0
4655,-133.333333333333,4,2,1,5,0,0
4780,-133.333333333333,4,2,1,80,0,0
8030,-133.333333333333,4,2,5,80,0,0
8280,-133.333333333333,4,2,5,5,0,0
9280,-50,4,2,1,80,0,0
9655,-50,4,2,1,5,0,0
9780,-100,4,2,2,70,0,0
10030,-100,4,2,1,70,0,0
11655,-100,4,2,1,5,0,0
11780,-100,4,2,1,70,0,0
13155,-100,4,2,1,5,0,0
13280,-100,4,2,1,70,0,0
17280,-50,4,2,1,70,0,0
17655,-50,4,2,1,5,0,0
17780,-100,4,2,1,70,0,0
18405,-100,4,2,1,5,0,0
18530,-100,4,2,1,70,0,0
18655,-100,4,2,1,5,0,0
18780,-100,4,2,1,70,0,0
21155,-100,4,2,1,5,0,0
21280,-100,4,2,1,70,0,0
23655,-100,4,2,1,5,0,0
23780,-100,4,2,1,70,0,0
24905,-100,4,2,1,5,0,0
25030,-100,4,2,3,70,0,0
25280,-50,4,2,3,70,0,0
25655,-50,4,2,3,5,0,0
25780,-50,4,2,3,70,0,0
26280,-50,4,2,1,70,0,0
26780,-100,4,2,1,70,0,0
27280,-100,4,2,3,70,0,0
27780,-100,4,2,4,70,0,0
27905,-100,4,2,4,5,0,0
28030,-100,4,2,1,70,0,0
28155,-100,4,2,1,5,0,0
28280,-100,4,2,1,70,0,0
29030,-100,4,2,3,70,0,0
29780,-66.6666666666667,4,2,3,70,0,0
30155,-66.6666666666667,4,2,3,5,0,0
30280,-66.6666666666667,4,2,3,70,0,0
30655,-66.6666666666667,4,2,3,5,0,0
30780,-66.6666666666667,4,2,3,70,0,0
31155,-66.6666666666667,4,2,3,5,0,0
31280,-66.6666666666667,4,2,3,70,0,0
31655,-100,4,2,3,70,0,0
33030,-100,4,2,1,70,0,0
33780,-66.6666666666667,4,2,5,70,0,0
34155,-66.6666666666667,4,2,5,5,0,0
34280,-66.6666666666667,4,2,1,70,0,0
34780,-66.6666666666667,4,2,5,70,0,0
35155,-66.6666666666667,4,2,5,5,0,0
35280,-100,4,2,1,70,0,0
37030,-100,4,2,3,70,0,0
37280,-50,4,2,3,70,0,0
37530,-50,4,2,1,70,0,0
37655,-50,4,2,1,5,0,0
37780,-50,4,2,1,70,0,0
39280,-100,4,2,1,70,0,0
39780,-100,4,2,3,70,0,0
41280,-50,4,2,3,70,0,0
41655,-50,4,2,3,5,0,0
41780,-133.333333333333,4,2,6,60,0,0
42655,-133.333333333333,4,2,6,5,0,0
42780,-133.333333333333,4,2,6,60,0,0
44280,-133.333333333333,4,2,6,5,0,0
44530,-133.333333333333,4,2,6,60,0,0
45655,-133.333333333333,4,2,6,5,0,0
45780,-133.333333333333,4,2,6,60,0,0
48280,-133.333333333333,4,2,6,5,0,0
48530,-133.333333333333,4,2,6,60,0,0
49405,-133.333333333333,4,2,6,5,0,0
49530,-133.333333333333,4,2,6,60,0,0
49655,-133.333333333333,4,2,6,5,0,0
49780,-90.9090909090909,4,2,6,70,0,0
50030,-90.9090909090909,4,2,6,5,0,0
50155,-90.9090909090909,4,2,6,70,0,0
50280,-90.9090909090909,4,2,2,70,0,0
52030,-90.9090909090909,4,2,2,5,0,0
52155,-90.9090909090909,4,2,2,70,0,0
54530,-90.9090909090909,4,2,2,5,0,0
54780,-90.9090909090909,4,2,2,70,0,0
55530,-90.9090909090909,4,2,2,5,0,0
55780,-90.9090909090909,4,2,7,70,0,0
57280,-133.333333333333,4,2,3,85,0,0
57780,-66.6666666666667,4,2,8,85,0,1
61030,-66.6666666666667,4,2,3,85,0,1
62030,-66.6666666666667,4,2,1,85,0,1
63030,-66.6666666666667,4,2,3,85,0,1
64030,-66.6666666666667,4,2,1,85,0,1
65030,-66.6666666666667,4,2,8,85,0,1
65780,-66.6666666666667,4,2,9,85,0,1
66030,-66.6666666666667,4,2,8,85,0,1
67780,-58.8235294117647,4,2,8,85,0,1
68530,-66.6666666666667,4,2,8,85,0,1
69030,-66.6666666666667,4,2,3,85,0,1
70030,-66.6666666666667,4,2,1,85,0,1
71030,-66.6666666666667,4,2,3,85,0,1
73655,-66.6666666666667,4,2,3,5,0,1
73780,-100,4,2,3,85,0,0
74280,-100,4,2,1,85,0,0
74905,-100,4,2,1,75,0,0
75030,-133.333333333333,4,2,1,75,0,0
75780,-100,4,2,5,75,0,0
76030,-100,4,2,1,75,0,0
77780,-100,4,2,5,75,0,0
78030,-100,4,2,1,75,0,0
79780,-100,4,2,5,75,0,0
80030,-100,4,2,1,75,0,0
80155,-100,4,2,5,75,0,0
80280,-100,4,2,1,5,0,0
80405,-100,4,2,1,75,0,0
80530,-100,4,2,5,75,0,0
80655,-100,4,2,5,5,0,0
80780,-100,4,2,5,75,0,0
81030,-100,4,2,3,75,0,0
81280,-50,4,2,3,75,0,0
81655,-50,4,2,3,5,0,0
81780,-100,4,2,1,75,0,0
87780,-133.333333333333,4,2,1,75,0,0
89030,-133.333333333333,4,2,3,75,0,0
89280,-66.6666666666667,4,2,3,75,0,0
89655,-66.6666666666667,4,2,3,5,0,0
89780,-66.6666666666667,4,2,3,75,0,0
90280,-66.6666666666667,4,2,1,75,0,0
91280,-66.6666666666667,4,2,3,75,0,0
91780,-100,4,2,4,75,0,0
92030,-100,4,2,1,75,0,0
93030,-100,4,2,3,75,0,0
93780,-66.6666666666667,4,2,3,75,0,0
94155,-66.6666666666667,4,2,3,5,0,0
94280,-66.6666666666667,4,2,3,75,0,0
94655,-66.6666666666667,4,2,3,5,0,0
94780,-66.6666666666667,4,2,3,75,0,0
95155,-66.6666666666667,4,2,3,5,0,0
95280,-66.6666666666667,4,2,3,75,0,0
95655,-100,4,2,3,75,0,0
97280,-66.6666666666667,4,2,3,75,0,0
101030,-66.6666666666667,4,2,8,75,0,0
101280,-50,4,2,10,75,0,0
101530,-50,4,2,3,75,0,0
101655,-50,4,2,3,5,0,0
101780,-50,4,2,3,75,0,0
103780,-50,4,2,8,75,0,0
104780,-66.6666666666667,4,2,8,75,0,0
105030,-66.6666666666667,4,2,1,75,0,0
105280,-50,4,2,1,75,0,0
105655,-50,4,2,1,5,0,0
105780,-133.333333333333,4,2,1,65,0,0
106280,-133.333333333333,4,2,2,65,0,0
106655,-133.333333333333,4,2,2,5,0,0
106780,-133.333333333333,4,2,2,65,0,0
109655,-133.333333333333,4,2,2,5,0,0
109780,-133.333333333333,4,2,2,65,0,0
113405,-133.333333333333,4,2,2,5,0,0
113530,-133.333333333333,4,2,2,65,0,0
113655,-133.333333333333,4,2,2,5,0,0
113780,-90.9090909090909,4,2,11,65,0,0
114030,-90.9090909090909,4,2,11,5,0,0
114155,-90.9090909090909,4,2,11,65,0,0
114280,-90.9090909090909,4,2,2,65,0,0
116030,-90.9090909090909,4,2,2,5,0,0
116155,-90.9090909090909,4,2,2,65,0,0
119530,-90.9090909090909,4,2,2,5,0,0
119780,-90.9090909090909,4,2,7,65,0,0
121280,-133.333333333333,4,2,3,85,0,0
121780,-66.6666666666667,4,2,8,85,0,1
125030,-66.6666666666667,4,2,3,85,0,1
126030,-66.6666666666667,4,2,1,85,0,1
127030,-66.6666666666667,4,2,3,85,0,1
128030,-66.6666666666667,4,2,1,85,0,1
129030,-66.6666666666667,4,2,8,85,0,1
129780,-66.6666666666667,4,2,9,85,0,1
130030,-66.6666666666667,4,2,8,85,0,1
131780,-58.8235294117647,4,2,8,85,0,1
132530,-66.6666666666667,4,2,8,85,0,1
133030,-66.6666666666667,4,2,3,85,0,1
134030,-66.6666666666667,4,2,1,85,0,1
135030,-66.6666666666667,4,2,3,85,0,1
137655,-66.6666666666667,4,2,3,5,0,1
137780,-83.3333333333333,4,2,3,80,0,0
138780,-100,4,2,3,80,0,0
139030,-100,4,2,3,5,0,0
139280,-100,4,2,3,80,0,0
139530,-100,4,2,3,5,0,0
139655,-100,4,2,3,80,0,0
139780,-83.3333333333333,4,2,3,80,0,0
140780,-100,4,2,3,80,0,0
141030,-100,4,2,3,5,0,0
141280,-100,4,2,3,80,0,0
141780,-83.3333333333333,4,2,3,80,0,0
143280,-100,4,2,3,80,0,0
144030,-100,4,2,1,80,0,0
145155,-100,4,2,1,5,0,0
145280,-100,4,2,1,80,0,0
145655,-100,4,2,1,5,0,0
145780,-83.3333333333333,4,2,1,80,0,0
146030,-83.3333333333333,4,2,3,80,0,0
146780,-100,4,2,3,80,0,0
147030,-100,4,2,3,5,0,0
147280,-100,4,2,3,80,0,0
147530,-100,4,2,3,5,0,0
147655,-100,4,2,3,80,0,0
147780,-83.3333333333333,4,2,3,80,0,0
150780,-100,4,2,3,80,0,0
151030,-100,4,2,3,5,0,0
151280,-100,4,2,3,80,0,0
151530,-100,4,2,6,80,0,0
152905,-100,4,2,6,5,0,0
153030,-100,4,2,6,80,0,0
153155,-100,4,2,6,5,0,0
153280,-50,4,2,3,80,0,0
153655,-50,4,2,3,5,0,0
153780,-232.558139534884,4,2,7,80,0,0
159780,-232.558139534884,4,2,4,80,0,0
159905,-100,4,2,4,80,0,0
160030,-100,4,2,3,80,0,0
160155,-100,4,2,4,80,0,0
161280,-50,4,2,3,80,0,0
161780,-62.5,4,2,8,90,0,1
165030,-62.5,4,2,3,90,0,1
166030,-62.5,4,2,1,90,0,1
167030,-62.5,4,2,3,90,0,1
168780,-62.5,4,2,7,90,0,1
168905,-62.5,4,2,7,5,0,1
169030,-62.5,4,2,7,90,0,1
169155,-62.5,4,2,7,5,0,1
169280,-50,4,2,3,90,0,0
169405,-50,4,2,1,90,0,0
169655,-50,4,2,1,5,0,0
169780,-58.8235294117647,4,2,12,90,0,1
170030,-58.8235294117647,4,2,3,90,0,1
171030,-58.8235294117647,4,2,1,90,0,1
172030,-58.8235294117647,4,2,3,90,0,1
173030,-58.8235294117647,4,2,1,90,0,1
174030,-58.8235294117647,4,2,3,90,0,1
175030,-58.8235294117647,4,2,1,90,0,1
176030,-58.8235294117647,4,2,3,90,0,1
177780,-58.8235294117647,4,2,12,90,0,1
178030,-58.8235294117647,4,2,3,90,0,1
179030,-58.8235294117647,4,2,1,90,0,1
180030,-58.8235294117647,4,2,3,90,0,1
181030,-58.8235294117647,4,2,1,90,0,1
182030,-58.8235294117647,4,2,3,90,0,1
183030,-58.8235294117647,4,2,1,90,0,1
184030,-58.8235294117647,4,2,3,90,0,1
185780,-100,4,2,3,90,0,0
186280,-100,4,2,3,5,0,0

[Colours]
Combo1 : 145,145,255
Combo2 : 255,128,255
Combo3 : 128,0,255
Combo4 : 32,1,209
SliderBorder : 246,172,207
SliderTrackOverride : 30,30,30

[HitObjects]
304,88,1780,5,2,2:0:0:0:
320,200,2030,1,2,2:0:0:0:
408,132,2280,1,2,2:0:0:0:
236,156,2530,2,0,P|224:212|284:292,1,142.5,2|2,2:0|2:0,2:0:0:0:
372,288,3280,2,0,L|364:368,1,71.2500000000002,2|2,2:0|2:0,2:0:0:0:
200,368,3780,5,2,2:0:0:0:
264,280,4030,1,2,2:0:0:0:
160,272,4280,1,2,2:0:0:0:
372,288,4530,2,0,L|376:356,1,35.6250000000001,2|0,2:0|2:0,2:0:0:0:
376,360,4780,1,2,2:0:0:0:
376,360,5280,1,2,2:0:0:0:
128,112,5780,5,2,2:0:0:0:
216,56,6030,1,2,2:0:0:0:
220,168,6280,1,2,2:0:0:0:
64,184,6530,2,0,P|36:104|72:40,1,142.5,2|2,2:0|2:0,2:0:0:0:
152,236,7280,2,0,P|160:280|148:308,1,71.2500000000002,2|2,2:0|2:0,2:0:0:0:
248,160,7780,6,0,B|272:172|308:156|308:156|320:164|320:164|352:152|396:164,1,142.5,2|0,2:0|2:0,2:0:0:0:
68,140,9280,6,0,P|120:48|52:104,1,285,4|0,2:0|2:0,2:0:0:0:
72,236,9780,6,0,P|112:244|192:216,1,95,6|10,3:2|2:0,2:0:0:0:
300,96,10280,1,2,1:2:0:0:
344,292,10530,1,10,2:0:0:0:
416,336,10655,1,2,2:0:0:0:
480,280,10780,2,0,L|472:176,1,95,2|10,3:2|2:0,2:0:0:0:
288,68,11280,2,0,B|248:40|248:40|136:68,1,142.5,2|0,1:2|2:0,2:0:0:0:
80,96,11780,5,0,3:0:0:0:
220,232,12030,1,10,2:0:0:0:
152,180,12155,1,2,2:0:0:0:
104,256,12280,2,0,L|108:324,1,47.5,2|2,1:2|2:0,2:0:0:0:
168,364,12530,1,10,2:0:0:0:
360,292,12780,2,0,B|388:264|388:264|392:148,1,142.5,2|0,3:2|2:0,2:0:0:0:
364,76,13280,2,0,P|424:76|464:112,1,95,0|10,1:0|2:0,2:0:0:0:
180,184,13780,6,0,L|188:68,1,95,2|10,3:2|2:0,2:0:0:0:
264,28,14155,1,2,2:0:0:0:
264,28,14280,1,0,1:0:0:0:
391,161,14530,1,8,2:0:0:0:
160,196,14780,2,0,L|168:80,1,95,2|10,3:2|2:0,2:0:0:0:
84,56,15155,1,2,2:0:0:0:
84,56,15280,2,0,L|76:172,1,95,0|10,1:0|2:0,2:0:0:0:
184,324,15780,5,2,3:2:0:0:
28,232,16030,1,10,2:0:0:0:
252,264,16280,2,0,P|272:304|260:368,1,95,2|10,1:2|2:0,2:0:0:0:
184,324,16655,2,0,P|168:232|216:180,1,142.5,2|8,2:0|2:0,2:0:0:0:
484,28,17280,6,0,B|416:32|412:112|360:40|328:52|292:60|292:60|320:28|376:32,1,285,4|0,2:0|2:0,2:0:0:0:
324,144,17780,6,0,P|296:148|256:180,2,47.5,2|2|10,3:2|2:0|2:0,2:0:0:0:
452,328,18280,2,0,P|460:296|460:256,1,47.5,2|0,1:2|2:0,2:0:0:0:
380,220,18530,2,0,P|372:252|372:292,1,47.5,10|2,2:0|2:0,2:0:0:0:
376,360,18780,1,2,3:2:0:0:
460,188,19030,1,10,2:0:0:0:
268,252,19280,2,0,B|228:280|200:272|208:264|172:260|144:276|144:276|152:240|136:208,1,190,2|0,1:2|3:0,2:0:0:0:
376,56,20030,5,10,2:0:0:0:
328,128,20155,1,2,2:0:0:0:
384,192,20280,2,0,P|412:196|444:184,1,47.5,2|2,1:2|2:0,2:0:0:0:
488,112,20530,1,10,2:0:0:0:
260,64,20780,2,0,P|236:124|276:208,1,142.5,2|0,3:2|2:0,2:0:0:0:
312,264,21280,2,0,B|288:284|288:284|208:272,1,95,0|10,1:0|2:0,2:0:0:0:
456,72,21780,6,0,L|452:192,1,95,2|10,3:2|2:0,2:0:0:0:
384,216,22155,1,2,2:0:0:0:
384,216,22280,1,0,1:0:0:0:
244,136,22530,1,8,2:0:0:0:
464,60,22780,2,0,L|460:180,1,95,2|10,3:2|2:0,2:0:0:0:
512,232,23155,1,2,2:0:0:0:
512,232,23280,1,0,1:0:0:0:
316,336,23530,2,0,L|312:272,1,47.5,10|0,2:0|2:0,2:0:0:0:
268,208,23780,5,2,3:2:0:0:
332,28,24030,1,10,2:0:0:0:
392,208,24280,1,2,1:2:0:0:
180,88,24530,1,10,2:0:0:0:
252,44,24655,2,0,P|263:88|249:133,1,95,2|0,2:0|2:0,2:0:0:0:
100,192,25030,6,0,B|92:112,1,47.5,6|0,2:0|2:0,2:0:0:0:
17,162,25280,2,0,P|93:63|172:160,1,285,6|0,2:0|2:0,2:0:0:0:
100,192,25780,5,2,3:2:0:0:
92,216,26030,1,0,3:0:0:0:
208,288,26280,1,2,1:2:0:0:
216,312,26530,1,2,3:2:0:0:
0,336,26780,2,0,L|96:328,1,95,2|2,3:2|2:0,2:0:0:0:
424,144,27280,5,6,2:0:0:0:
380,64,27405,1,4,2:0:0:0:
292,64,27530,1,2,2:0:0:0:
244,136,27655,1,8,2:0:0:0:
280,216,27780,6,0,L|352:208,1,47.5,6|0,3:2|2:0,2:0:0:0:
212,144,28030,2,0,L|140:136,1,47.5,8|0,2:0|2:0,2:0:0:0:
92,200,28280,1,2,1:2:0:0:
184,352,28530,1,10,2:0:0:0:
288,192,28780,2,0,P|300:144|280:88,1,95,2|10,3:2|2:0,2:0:0:0:
96,88,29280,1,2,1:2:0:0:
276,16,29530,1,10,2:0:0:0:
400,196,29780,6,0,P|426:276|326:237,1,213.75,2|0,3:2|2:0,2:0:0:0:
382,188,30280,2,0,P|408:268|308:229,1,213.75,2|0,1:2|2:0,2:0:0:0:
364,176,30780,2,0,P|390:256|290:217,1,213.75,2|0,3:2|2:0,2:0:0:0:
268,164,31280,1,2,1:2:0:0:
252,116,31405,1,2,2:0:0:0:
236,68,31530,1,10,2:0:0:0:
216,28,31655,6,0,P|152:16|76:36,1,142.5,2|10,2:0|2:0,2:0:0:0:
140,236,32280,1,2,1:2:0:0:
168,120,32530,1,10,2:0:0:0:
56,200,32780,2,0,P|44:245|64:296,1,95,2|10,3:2|2:0,2:0:0:0:
288,292,33280,1,2,2:0:0:0:
272,216,33405,1,2,2:0:0:0:
256,140,33530,1,2,2:0:0:0:
256,140,33780,6,0,B|288:116|324:124|320:132|352:144|392:120|392:120|376:160|400:212,1,213.75,2|0,3:2|2:0,2:0:0:0:
456,272,34280,1,2,1:2:0:0:
456,272,34405,1,2,2:0:0:0:
456,272,34530,1,10,2:0:0:0:
248,340,34780,2,0,B|192:360|148:340|152:324|112:292|36:332,1,213.75,2|0,3:2|2:0,2:0:0:0:
80,236,35280,2,0,P|96:191|93:144,1,95,2|10,1:2|2:0,2:0:0:0:
56,60,35655,1,2,2:0:0:0:
56,60,35780,5,2,3:2:0:0:
244,136,36030,5,10,2:0:0:0:
232,216,36155,1,2,2:0:0:0:
220,296,36280,2,0,L|288:292,1,47.5,2|2,1:2|2:0,2:0:0:0:
404,220,36530,2,0,L|336:216,1,47.5,10|0,2:0|2:0,2:0:0:0:
244,136,36780,1,2,3:2:0:0:
224,136,37030,6,0,L|176:138,1,47.5,10|0,2:0|2:0,2:0:0:0:
196,216,37280,6,0,P|100:156|196:64,1,285,6|0,1:2|2:0,2:0:0:0:
364,32,37780,5,2,3:2:0:0:
356,68,38030,1,10,2:0:0:0:
252,256,38280,5,2,1:2:0:0:
244,220,38530,1,10,2:0:0:0:
208,48,38780,1,2,3:2:0:0:
380,160,39030,1,10,2:0:0:0:
144,236,39280,2,0,P|128:192|144:140,1,95,2|10,1:2|2:0,2:0:0:0:
296,20,39780,5,2,3:2:0:0:
248,252,40030,1,10,2:0:0:0:
408,104,40280,5,2,1:2:0:0:
139,146,40530,1,10,2:0:0:0:
372,200,40780,2,0,P|444:204|488:172,1,95,2|0,3:2|1:0,2:0:0:0:
72,104,41280,6,0,B|44:144|68:192|68:192|24:220|16:272|32:328|92:352,1,285,4|0,2:0|2:0,2:0:0:0:
120,264,41780,6,0,P|156:256|200:264,1,71.2500000000002,2|2,2:0|2:0,2:0:0:0:
332,340,42280,2,0,P|296:352|216:328,1,106.875,2|0,2:0|2:0,2:0:0:0:
352,260,42780,2,0,P|356:304|348:344,2,71.2500000000002,2|2|2,2:0|2:0|2:0,2:0:0:0:
184,56,43780,2,0,B|228:64|256:44|256:44|284:64|344:60,1,142.5,2|0,2:0|2:0,2:0:0:0:
264,268,44530,1,2,2:0:0:0:
264,268,44655,1,2,2:0:0:0:
264,268,44780,1,2,2:0:0:0:
180,196,45030,1,2,2:0:0:0:
64,288,45280,2,0,L|60:160,1,106.875,2|0,2:0|2:0,2:0:0:0:
84,308,45780,6,0,L|80:224,2,71.2500000000002,2|2|2,2:0|2:0|2:0,2:0:0:0:
328,232,46780,2,0,L|332:148,2,71.2500000000002,2|2|2,2:0|2:0|2:0,2:0:0:0:
56,92,47780,2,0,B|92:72|128:80|120:92|152:104|224:84,1,142.5,2|0,2:0|2:0,2:0:0:0:
372,56,48530,1,2,2:0:0:0:
372,56,48655,1,2,2:0:0:0:
372,56,48780,2,0,L|364:128,1,71.2500000000002,2|2,2:0|2:0,2:0:0:0:
240,168,49280,2,0,L|244:220,1,35.6250000000001,2|0,2:0|2:0,2:0:0:0:
220,184,49530,2,0,L|224:236,1,35.6250000000001,2|0,2:0|2:0,2:0:0:0:
196,200,49780,6,0,L|204:312,1,104.5,6|0,2:0|2:0,2:0:0:0:
284,360,50155,1,2,2:0:0:0:
284,360,50280,1,8,2:0:0:0:
400,176,50530,2,0,L|392:252,1,52.25,2|2,2:0|2:0,2:0:0:0:
384,320,50780,1,10,2:0:0:0:
308,176,51030,1,2,2:0:0:0:
480,188,51280,1,10,2:0:0:0:
384,336,51530,1,2,2:0:0:0:
236,232,51780,6,0,P|220:192|244:116,1,104.5,10|0,2:0|2:0,2:0:0:0:
292,64,52155,1,2,2:0:0:0:
292,64,52280,1,8,2:0:0:0:
424,164,52530,1,2,2:0:0:0:
244,244,52780,6,0,L|164:252,2,69.6666666666667,10|0|0,2:0|2:0|2:0,2:0:0:0:
128,176,53280,2,0,P|104:200|92:224,1,52.25,8|0,2:0|2:0,2:0:0:0:
188,340,53530,2,0,P|154:337|113:313,1,52.25,0|0,2:0|2:0,2:0:0:0:
60,296,53780,5,10,2:0:0:0:
240,244,54030,1,2,2:0:0:0:
24,308,54280,2,0,L|12:196,1,104.5,10|0,2:0|2:0,2:0:0:0:
276,256,54780,5,10,2:0:0:0:
96,204,55030,1,2,2:0:0:0:
312,268,55280,2,0,L|324:156,1,104.5,10|0,2:0|2:0,2:0:0:0:
68,80,55780,5,2,2:0:0:0:
220,132,56030,1,2,2:0:0:0:
220,132,56155,1,2,2:0:0:0:
220,132,56280,1,2,3:2:0:0:
64,280,56530,1,2,2:0:0:0:
144,272,56655,1,0,3:0:0:0:
224,268,56780,6,0,L|220:288,1,13.0625,2|0,3:2|2:0,2:0:0:0:
296,356,57030,2,0,L|300:336,1,13.0625,0|0,3:0|2:0,2:0:0:0:
336,176,57280,2,0,L|316:272,1,71.2500000000002,6|2,2:0|2:0,2:0:0:0:
48,140,57780,6,0,P|36:104|48:52,1,71.25,6|0,3:2|2:0,2:0:0:0:
208,152,58030,2,0,P|220:188|208:240,1,71.25,10|0,2:0|2:0,2:0:0:0:
128,92,58280,2,0,P|188:60|280:88,1,142.5,2|10,1:2|2:0,2:0:0:0:
440,300,58780,2,0,B|348:312|348:312|276:272,2,142.5,2|10|2,3:2|2:0|1:2,2:0:0:0:
356,48,59530,1,10,2:0:0:0:
368,132,59655,1,0,2:0:0:0:
320,200,59780,2,0,P|260:176|232:152,1,71.25,2|0,3:2|2:0,2:0:0:0:
176,48,60030,2,0,P|185:111|178:148,1,71.25,10|0,2:0|2:0,2:0:0:0:
116,248,60280,2,0,P|166:208|201:195,1,71.25,2|0,1:2|2:0,2:0:0:0:
164,328,60530,2,0,P|88:336|28:264,1,142.5,10|0,2:0|3:0,2:0:0:0:
108,84,61030,5,10,2:0:0:0:
180,36,61155,1,2,2:0:0:0:
264,56,61280,1,2,1:2:0:0:
308,128,61405,2,0,L|392:116,1,71.25,2|8,2:0|2:0,2:0:0:0:
440,40,61655,2,0,L|356:28,1,71.25,2|0,2:0|3:0,2:0:0:0:
208,192,62030,5,10,2:0:0:0:
188,240,62155,1,2,2:0:0:0:
204,292,62280,1,2,1:2:0:0:
240,328,62405,2,0,L|328:320,1,71.25,2|8,2:0|2:0,2:0:0:0:
356,244,62655,2,0,L|268:236,1,71.25,2|0,2:0|3:0,2:0:0:0:
68,64,63030,6,0,P|104:56|164:80,1,71.25,10|2,2:0|2:0,2:0:0:0:
188,128,63280,1,2,1:2:0:0:
20,140,63405,2,0,P|-12:96|20:-4,1,142.5,2|2,2:0|2:0,2:0:0:0:
104,144,63780,2,0,P|92:208|96:312,1,142.5,0|10,3:0|2:0,2:0:0:0:
352,332,64280,5,2,1:2:0:0:
344,284,64405,1,2,2:0:0:0:
336,232,64530,1,8,2:0:0:0:
324,184,64655,2,0,L|244:176,1,71.25,2|0,2:0|3:0,2:0:0:0:
492,96,65030,2,0,P|512:60|500:4,1,71.25,10|0,2:0|2:0,2:0:0:0:
424,40,65280,2,0,P|404:112|456:180,1,142.5,2|10,1:2|2:0,2:0:0:0:
208,32,65780,6,0,L|136:36,1,71.25,6|0,3:2|2:0,2:0:0:0:
24,124,66030,2,0,L|96:128,1,71.25,10|0,2:0|2:0,2:0:0:0:
188,272,66280,2,0,B|204:236|204:236|192:132,1,142.5,2|10,1:2|2:0,2:0:0:0:
80,240,66780,1,2,3:2:0:0:
228,112,67030,1,10,2:0:0:0:
16,184,67280,2,0,P|-8:240|36:324,1,142.5,2|10,1:2|2:0,2:0:0:0:
104,356,67655,1,0,2:0:0:0:
180,304,67780,6,0,B|212:280|212:280|264:280|264:280|296:308|352:280,2,161.5,2|10|2,3:2|2:0|1:2,2:0:0:0:
412,132,68530,2,0,P|500:224|392:324,1,285,10|10,2:0|2:0,2:0:0:0:
408,228,69155,1,2,2:0:0:0:
324,204,69280,1,2,1:2:0:0:
240,240,69405,2,0,L|228:152,1,71.25,2|8,2:0|2:0,2:0:0:0:
312,40,69655,2,0,L|302:110,1,71.25,2|0,2:0|3:0,2:0:0:0:
168,292,70030,5,10,2:0:0:0:
124,312,70155,1,2,2:0:0:0:
76,312,70280,1,2,1:2:0:0:
36,288,70405,2,0,P|24:244|40:192,1,71.25,2|8,2:0|2:0,2:0:0:0:
108,152,70655,2,0,P|120:196|104:248,1,71.25,2|0,2:0|3:0,2:0:0:0:
352,232,71030,6,0,P|316:240|264:216,1,71.25,10|2,2:0|2:0,2:0:0:0:
260,144,71280,1,2,1:2:0:0:
408,168,71405,2,0,P|440:232|376:312,1,142.5,2|2,2:0|2:0,2:0:0:0:
336,332,71780,1,0,3:0:0:0:
264,116,72030,1,10,2:0:0:0:
160,336,72280,1,2,1:2:0:0:
140,88,72530,1,10,2:0:0:0:
413,292,72780,6,0,B|389:308|389:308|245:292,1,142.5,2|8,3:2|2:0,2:0:0:0:
80,192,73280,2,0,B|128:168|188:164|236:180|240:228|212:244|168:232|152:196,1,213.75,2|0,1:2|2:0,2:0:0:0:
52,272,73780,6,0,P|64:164|60:52,1,190,2|2,2:0|2:0,2:0:0:0:
62,82,74905,1,2,2:0:0:0:
104,60,75030,2,0,L|180:64,1,71.2500000000002,2|2,2:0|1:2,2:0:0:0:
240,108,75405,1,2,2:0:0:0:
192,168,75530,2,0,L|196:236,1,35.6250000000001,2|2,2:0|2:0,2:0:0:0:
160,300,75780,6,0,B|200:312|200:312|284:300,1,95,2|10,3:2|2:0,2:0:0:0:
324,252,76155,1,2,2:0:0:0:
392,304,76280,2,0,L|464:296,1,47.5,2|0,1:2|2:0,2:0:0:0:
512,216,76530,2,0,L|440:208,1,47.5,10|0,2:0|2:0,2:0:0:0:
384,88,76780,2,0,P|372:128|392:192,1,95,2|10,3:2|2:0,2:0:0:0:
456,128,77155,1,2,2:0:0:0:
384,68,77280,2,0,L|324:76,2,47.5,2|2|10,1:2|2:0|2:0,2:0:0:0:
228,172,77780,6,0,B|204:179|204:179|116:160,1,95,2|10,3:2|2:0,2:0:0:0:
88,88,78155,1,2,2:0:0:0:
56,216,78280,2,0,P|64:264|64:340,2,95,2|10|2,1:2|2:0|3:2,2:0:0:0:
248,136,79030,1,10,2:0:0:0:
264,216,79155,1,2,2:0:0:0:
240,296,79280,2,0,P|288:300|328:276,1,95,2|10,1:2|2:0,2:0:0:0:
408,96,79780,5,2,3:2:0:0:
327,276,80030,1,10,2:0:0:0:
311,304,80155,2,0,L|231:300,1,47.5,2|0,2:0|1:0,2:0:0:0:
376,192,80405,1,2,2:0:0:0:
392,220,80530,2,0,L|472:216,1,47.5,10|0,2:0|2:0,2:0:0:0:
500,144,80780,1,2,3:2:0:0:
248,112,81030,2,0,L|252:160,1,47.5,14|0,2:0|2:0,2:0:0:0:
324,124,81280,6,0,P|236:36|176:144,1,285,6|0,1:2|2:0,2:0:0:0:
196,228,81780,6,0,P|148:220|92:236,1,95,2|10,3:2|2:0,2:0:0:0:
319,298,82280,2,0,P|367:306|423:290,1,95,2|10,1:2|2:0,2:0:0:0:
359,110,82780,2,0,B|363:230,1,95,2|10,3:2|2:0,2:0:0:0:
402,35,83155,2,0,P|356:24|310:37,1,95,2|2,2:0|2:0,2:0:0:0:
255,102,83530,1,10,2:0:0:0:
263,150,83655,1,2,2:0:0:0:
271,198,83780,6,0,L|267:262,1,47.5,2|0,3:2|2:0,2:0:0:0:
175,158,84030,2,0,L|171:94,1,47.5,10|0,2:0|2:0,2:0:0:0:
123,246,84280,2,0,P|63:258|15:234,1,95,2|10,1:2|2:0,2:0:0:0:
80,176,84655,1,2,2:0:0:0:
148,248,84780,2,0,L|140:376,1,95,2|10,3:2|2:0,2:0:0:0:
232,276,85155,2,0,L|228:340,1,47.5,2|0,2:0|1:0,2:0:0:0:
440,236,85530,5,10,2:0:0:0:
440,236,85655,1,2,2:0:0:0:
440,236,85780,2,0,L|340:240,1,95,2|10,3:2|2:0,2:0:0:0:
472,148,86155,2,0,L|372:152,1,95,2|2,2:0|2:0,2:0:0:0:
320,84,86530,1,10,2:0:0:0:
116,200,86780,2,0,L|216:204,1,95,2|10,3:2|2:0,2:0:0:0:
84,112,87155,2,0,L|184:116,1,95,2|2,2:0|2:0,2:0:0:0:
236,48,87530,1,10,2:0:0:0:
377,151,87780,6,0,B|393:191|377:227|369:219|353:251|377:303,1,142.5,2|2,2:0|2:0,2:0:0:0:
371,289,88405,1,2,2:0:0:0:
371,289,88530,1,2,2:0:0:0:
304,352,88780,1,2,2:0:0:0:
104,136,89030,6,0,L|100:92,1,35.6250000000001,6|0,2:0|2:0,2:0:0:0:
36,188,89280,2,0,P|108:224|188:128,1,213.75,6|0,2:0|2:0,2:0:0:0:
200,52,89780,5,2,3:2:0:0:
224,68,90030,1,0,3:0:0:0:
304,168,90280,1,2,1:2:0:0:
332,160,90530,1,2,3:2:0:0:
396,88,90780,1,2,3:2:0:0:
396,88,91280,1,6,2:0:0:0:
432,172,91405,1,4,2:0:0:0:
392,256,91530,2,0,P|344:260|316:252,1,71.25,2|8,2:0|2:0,2:0:0:0:
248,200,91780,6,0,L|172:204,1,47.5,6|0,3:2|2:0,2:0:0:0:
92,116,92030,2,0,L|168:120,1,47.5,8|0,2:0|2:0,2:0:0:0:
184,212,92280,1,2,1:2:0:0:
224,16,92530,1,10,2:0:0:0:
331,159,92780,2,0,L|319:279,1,95,2|10,3:2|2:0,2:0:0:0:
108,288,93280,1,2,1:2:0:0:
139,118,93530,1,10,2:0:0:0:
373,293,93780,6,0,B|537:281|537:281|465:225,1,213.75,2|0,3:2|2:0,2:0:0:0:
349,273,94280,2,0,B|513:261|513:261|441:205,1,213.75,2|0,1:2|2:0,2:0:0:0:
321,253,94780,2,0,B|485:241|485:241|413:185,1,213.75,2|0,3:2|2:0,2:0:0:0:
372,156,95280,1,2,1:2:0:0:
344,116,95405,1,2,2:0:0:0:
344,64,95530,1,10,2:0:0:0:
360,20,95655,6,0,P|316:28|208:28,1,142.5,2|10,2:0|2:0,2:0:0:0:
152,212,96280,1,2,1:2:0:0:
88,24,96530,1,10,2:0:0:0:
232,172,96780,2,0,B|248:210|248:210|228:266,1,95,2|10,3:2|2:0,2:0:0:0:
168,324,97155,1,2,2:0:0:0:
88,284,97280,2,0,L|80:388,1,71.25,2|2,2:0|2:0,2:0:0:0:
16,236,97530,2,0,L|10:164,1,71.25,2|2,2:0|2:0,2:0:0:0:
152,56,97780,6,0,P|236:36|296:108,1,142.5,2|8,3:2|2:0,2:0:0:0:
208,136,98155,1,2,2:0:0:0:
208,136,98280,2,0,L|227:277,1,142.5,0|10,1:0|2:0,2:0:0:0:
288,348,98655,1,2,2:0:0:0:
168,352,98780,2,0,L|25:340,1,142.5,2|10,3:2|2:0,2:0:0:0:
0,248,99155,1,2,2:0:0:0:
80,188,99280,2,0,P|115:184|149:192,1,71.25,2|2,1:2|2:0,2:0:0:0:
288,268,99530,2,0,P|252:271|218:263,1,71.25,10|2,2:0|2:0,2:0:0:0:
220,112,99780,6,0,B|280:104|280:104|304:116|304:116|376:108,1,142.5,2|8,3:2|2:0,2:0:0:0:
460,100,100155,1,2,2:0:0:0:
460,100,100280,1,0,1:0:0:0:
392,316,100530,1,10,2:0:0:0:
304,296,100655,1,2,2:0:0:0:
212,272,100780,2,0,P|160:264|200:300,1,142.5,2|10,3:2|2:0,2:0:0:0:
148,380,101155,1,2,2:0:0:0:
148,380,101280,2,0,P|88:236|188:176,1,285,6|0,1:2|2:0,2:0:0:0:
256,192,101780,5,2,3:2:0:0:
284,204,102030,1,10,2:0:0:0:
100,56,102280,1,2,1:2:0:0:
68,64,102530,1,10,2:0:0:0:
100,332,102780,1,2,3:2:0:0:
128,308,103030,1,10,2:0:0:0:
112,276,103280,1,2,1:2:0:0:
84,300,103530,1,10,2:0:0:0:
412,220,103780,5,2,3:2:0:0:
136,104,104030,1,10,2:0:0:0:
424,100,104280,5,2,1:2:0:0:
76,200,104530,1,10,2:0:0:0:
356,28,104780,2,0,P|324:80|360:176,1,142.5,2|4,3:2|2:0,2:0:0:0:
132,275,105280,6,0,B|-4:291|-4:291|14:207|14:207|82:199,1,285,4|0,2:0|2:0,2:0:0:0:
212,240,105780,6,0,P|220:276|208:316,1,71.2500000000002,2|2,2:0|2:0,2:0:0:0:
152,164,106280,2,0,P|142:111|150:59,1,106.875,10|0,2:0|2:0,2:0:0:0:
144,188,106780,2,0,P|96:188|72:180,2,71.2500000000002,10|2|10,1:2|2:0|2:0,2:0:0:0:
352,104,107780,2,0,B|336:56|336:56|380:40|380:40|404:100,1,142.5,10|8,2:0|2:0,2:0:0:0:
336,300,108530,1,2,2:0:0:0:
336,300,108655,1,2,2:0:0:0:
336,300,108780,1,10,1:2:0:0:
424,268,109030,1,2,2:0:0:0:
260,244,109280,2,0,P|248:328|268:356,1,106.875,10|0,2:0|2:0,2:0:0:0:
268,228,109780,6,0,P|236:233|185:219,2,71.2500000000002,10|2|10,2:0|2:0|2:0,2:0:0:0:
440,120,110780,2,0,P|456:92|460:40,2,71.2500000000002,10|2|10,1:2|2:0|2:0,2:0:0:0:
160,68,111780,2,0,B|104:72|104:72|80:60|80:60|12:64,1,142.5,10|8,2:0|2:0,2:0:0:0:
152,176,112530,1,2,2:0:0:0:
152,176,112655,1,2,2:0:0:0:
152,176,112780,2,0,L|160:268,1,71.2500000000002,10|2,1:2|2:0,2:0:0:0:
272,72,113280,2,0,L|268:124,1,35.6250000000001,10|0,2:0|2:0,2:0:0:0:
292,88,113530,2,0,L|288:140,1,35.6250000000001,2|0,2:0|2:0,2:0:0:0:
316,104,113780,6,0,P|311:169|316:224,1,104.5,6|0,3:2|2:0,2:0:0:0:
268,288,114155,1,2,2:0:0:0:
268,288,114280,1,8,2:0:0:0:
136,172,114530,2,0,L|140:96,1,52.25,2|2,3:2|2:0,2:0:0:0:
176,44,114780,1,10,1:2:0:0:
232,208,115030,1,2,2:0:0:0:
200,44,115280,1,10,2:0:0:0:
120,200,115530,1,2,2:0:0:0:
312,164,115780,6,0,P|324:220|296:276,1,104.5,10|0,3:2|2:0,2:0:0:0:
228,304,116155,1,2,2:0:0:0:
228,304,116280,1,8,2:0:0:0:
120,200,116530,1,2,3:2:0:0:
328,148,116780,6,0,L|412:160,2,69.6666666666667,10|0|0,1:2|2:0|2:0,2:0:0:0:
428,236,117280,2,0,L|420:312,1,52.25,8|0,2:0|2:0,2:0:0:0:
480,168,117530,2,0,L|472:92,1,52.25,0|0,2:0|2:0,2:0:0:0:
428,40,117780,5,10,3:2:0:0:
188,80,118030,1,2,2:0:0:0:
396,157,118280,2,0,L|400:25,1,104.5,10|0,2:0|3:0,2:0:0:0:
188,196,118780,5,10,1:2:0:0:
428,236,119030,1,2,2:0:0:0:
220,313,119280,2,0,L|216:181,1,104.5,10|0,2:0|2:0,2:0:0:0:
352,352,119780,5,2,2:0:0:0:
340,192,120030,1,2,2:0:0:0:
340,192,120155,1,2,2:0:0:0:
340,192,120280,1,2,3:2:0:0:
200,328,120530,1,2,2:0:0:0:
120,316,120655,1,0,3:0:0:0:
40,304,120780,6,0,L|44:280,1,13.0625,2|0,3:2|2:0,2:0:0:0:
108,216,121030,2,0,L|104:240,1,13.0625,0|0,3:0|2:0,2:0:0:0:
16,204,121280,2,0,L|32:116,1,71.2500000000002,6|2,2:0|2:0,2:0:0:0:
356,52,121780,6,0,P|400:48|440:60,1,71.25,6|0,3:2|2:0,2:0:0:0:
288,132,122030,2,0,P|262:95|252:55,1,71.25,10|0,2:0|2:0,2:0:0:0:
392,152,122280,2,0,P|360:212|288:240,1,142.5,2|10,1:2|2:0,2:0:0:0:
20,164,122780,2,0,B|4:92|4:92|28:12,2,142.5,2|10|2,3:2|2:0|1:2,2:0:0:0:
172,352,123530,1,10,2:0:0:0:
232,296,123655,1,0,2:0:0:0:
293,239,123780,2,0,L|388:228,1,71.25,2|0,3:2|2:0,2:0:0:0:
488,328,124030,2,0,L|430:251,1,71.25,10|0,2:0|2:0,2:0:0:0:
468,116,124280,2,0,L|430:203,1,71.25,2|0,1:2|2:0,2:0:0:0:
384,80,124530,2,0,P|448:28|528:48,1,142.5,10|0,2:0|3:0,2:0:0:0:
364,308,125030,5,10,2:0:0:0:
292,260,125155,1,2,2:0:0:0:
204,260,125280,1,2,1:2:0:0:
128,308,125405,2,0,L|112:216,1,71.25,2|8,2:0|2:0,2:0:0:0:
48,104,125655,2,0,L|35:174,1,71.25,2|0,2:0|3:0,2:0:0:0:
236,80,126030,5,10,2:0:0:0:
284,96,126155,1,2,2:0:0:0:
336,96,126280,1,2,1:2:0:0:
384,76,126405,2,0,L|400:152,1,71.25,2|8,2:0|2:0,2:0:0:0:
336,212,126655,2,0,L|320:288,1,71.25,2|0,2:0|3:0,2:0:0:0:
104,120,127030,6,0,P|99:89|112:40,1,71.25,10|2,2:0|2:0,2:0:0:0:
192,12,127280,1,2,1:2:0:0:
176,176,127405,2,0,P|92:213|33:178,1,142.5,2|2,2:0|2:0,2:0:0:0:
200,92,127780,2,0,B|296:80|296:80|344:108,1,142.5,0|10,3:0|2:0,2:0:0:0:
260,328,128280,5,2,1:2:0:0:
208,320,128405,1,2,2:0:0:0:
160,312,128530,1,8,2:0:0:0:
116,304,128655,2,0,L|120:400,1,71.25,2|0,2:0|3:0,2:0:0:0:
72,112,129030,2,0,L|74:40,1,71.25,10|0,2:0|2:0,2:0:0:0:
128,176,129280,2,0,P|56:196|-12:144,1,142.5,2|10,1:2|2:0,2:0:0:0:
360,44,129780,6,0,L|372:148,1,71.25,6|0,3:2|2:0,2:0:0:0:
264,188,130030,2,0,L|272:100,1,71.25,10|0,2:0|2:0,2:0:0:0:
376,272,130280,2,0,B|340:288|340:288|236:276,1,142.5,2|10,1:2|2:0,2:0:0:0:
152,88,130780,1,2,3:2:0:0:
384,104,131030,1,10,2:0:0:0:
80,160,131280,2,0,P|52:108|88:16,1,142.5,2|10,1:2|2:0,2:0:0:0:
152,88,131655,1,0,2:0:0:0:
180,188,131780,6,0,B|192:224|192:224|176:260|176:260|244:240|308:272,2,161.5,2|10|2,3:2|2:0|1:2,2:0:0:0:
396,44,132530,2,0,B|464:52|508:24|508:24|440:84|464:208,1,285,10|10,2:0|2:0,2:0:0:0:
492,264,133155,1,2,2:0:0:0:
448,344,133280,1,2,1:2:0:0:
364,320,133405,2,0,L|280:328,1,71.25,2|8,2:0|2:0,2:0:0:0:
164,244,133655,2,0,L|252:248,1,71.25,2|0,2:0|3:0,2:0:0:0:
396,44,134030,5,10,2:0:0:0:
400,96,134155,1,2,2:0:0:0:
404,144,134280,1,2,1:2:0:0:
408,192,134405,2,0,L|316:184,1,71.25,2|8,2:0|2:0,2:0:0:0:
296,112,134655,2,0,L|225:118,1,71.25,2|0,2:0|3:0,2:0:0:0:
60,276,135030,6,0,P|52:244|64:192,1,71.25,10|2,2:0|2:0,2:0:0:0:
136,156,135280,1,2,1:2:0:0:
124,340,135405,2,0,P|60:372|-20:308,1,142.5,2|2,2:0|2:0,2:0:0:0:
60,276,135780,1,0,3:0:0:0:
332,224,136030,1,10,2:0:0:0:
124,340,136280,1,2,1:2:0:0:
164,92,136530,1,10,2:0:0:0:
400,280,136780,6,0,P|328:268|232:280,1,142.5,2|8,3:2|2:0,2:0:0:0:
468,52,137280,2,0,B|468:116|424:92|404:172|480:224|532:152|500:116,1,213.75,2|0,1:2|2:0,2:0:0:0:
376,48,137780,6,0,B|329:62|280:40|280:40|264:60|264:60|224:40|128:56,1,228,6|2,3:2|3:2,2:0:0:0:
240,196,138530,1,0,2:0:0:0:
376,140,138780,2,0,P|384:84|360:20,1,95,0|0,3:0|2:0,2:0:0:0:
236,184,139280,2,0,P|228:240|252:304,1,95,0|0,1:0|2:0,2:0:0:0:
296,336,139655,1,0,2:0:0:0:
296,336,139780,6,0,B|344:304|396:316|396:316|396:332|396:332|448:348|512:320,1,228,4|2,3:2|3:2,2:0:0:0:
388,188,140530,1,0,2:0:0:0:
296,336,140780,2,0,L|176:332,1,95,0|0,3:0|2:0,2:0:0:0:
96,176,141280,1,0,1:0:0:0:
96,176,141405,1,0,2:0:0:0:
60,248,141530,1,0,2:0:0:0:
60,248,141655,1,0,2:0:0:0:
108,312,141780,6,0,B|200:304|200:304|224:280|224:280|340:272,1,228,4|2,3:2|3:2,2:0:0:0:
288,80,142530,1,0,2:0:0:0:
168,208,142780,1,0,3:0:0:0:
168,208,142905,1,0,2:0:0:0:
168,208,143030,1,0,2:0:0:0:
404,172,143280,2,0,L|392:96,1,47.5,0|0,1:0|2:0,2:0:0:0:
328,204,143530,2,0,L|316:280,1,47.5,0|0,2:0|2:0,2:0:0:0:
412,288,143780,5,0,3:0:0:0:
412,288,143905,1,0,2:0:0:0:
412,288,144030,2,0,L|424:364,1,47.5,2|0,2:0|2:0,2:0:0:0:
324,340,144280,2,0,B|292:356|292:356|216:340,1,95,2|2,1:2|2:0,2:0:0:0:
136,172,144780,2,0,P|64:152|4:196,1,142.5,2|0,3:2|2:0,2:0:0:0:
80,240,145280,2,0,P|43:305|71:373,1,142.5,2|0,1:2|2:0,2:0:0:0:
136,308,145780,6,0,B|184:280|224:300|224:300|260:284|260:284|312:308|364:280,1,228,6|2,3:2|3:2,2:0:0:0:
500,152,146530,1,0,2:0:0:0:
364,80,146780,2,0,P|352:136|372:180,1,95,0|0,3:0|2:0,2:0:0:0:
440,300,147280,2,0,P|452:244|432:200,1,95,0|0,1:0|2:0,2:0:0:0:
365,171,147655,1,0,2:0:0:0:
365,171,147780,6,0,B|316:152|316:152|340:340,1,228,4|2,3:2|3:2,2:0:0:0:
224,216,148530,1,0,2:0:0:0:
320,76,148780,1,0,3:0:0:0:
320,76,148905,1,0,2:0:0:0:
320,76,149030,1,0,2:0:0:0:
104,204,149280,1,0,1:0:0:0:
104,204,149405,1,0,2:0:0:0:
32,244,149530,1,0,2:0:0:0:
32,244,149655,1,0,2:0:0:0:
28,156,149780,6,0,B|96:160|96:160|200:164|216:64,1,228,4|2,3:2|3:2,2:0:0:0:
80,36,150530,1,0,2:0:0:0:
300,32,150780,2,0,P|312:88|292:136,1,95,0|0,3:0|2:0,2:0:0:0:
232,280,151280,2,0,L|236:224,1,47.5,0|0,1:0|2:0,2:0:0:0:
248,216,151530,1,2,2:0:0:0:
260,200,151655,1,0,2:0:0:0:
152,248,152780,6,0,L|148:180,1,47.5,2|0,3:2|2:0,2:0:0:0:
136,184,153030,2,0,L|132:116,1,47.5,0|0,3:0|2:0,2:0:0:0:
44,140,153280,6,0,P|120:48|216:156,1,285,6|0,2:0|2:0,2:0:0:0:
224,184,153780,6,0,B|244:160|276:156|304:172|316:192|316:192|348:164|384:164|440:188|428:296|372:264|328:280|292:348|292:348|276:280|260:268|220:256|228:232,1,531.049999999999,6|2,2:0|2:0,2:0:0:0:
104,48,159780,5,0,1:0:0:0:
64,120,159905,2,0,L|76:236,1,95,0|0,1:0|1:0,2:0:0:0:
312,96,160530,1,2,1:2:0:0:
380,136,160655,1,0,1:0:0:0:
356,212,160780,2,0,L|296:220,3,47.5,2|0|2|0,1:2|1:0|1:2|1:0,2:0:0:0:
408,280,161280,6,0,B|216:308,1,190,6|2,2:0|2:0,2:0:0:0:
219,307,161780,6,0,P|243:355|239:407,1,76,6|0,3:2|2:0,2:0:0:0:
140,260,162030,2,0,P|86:256|43:227,1,76,10|0,2:0|2:0,2:0:0:0:
220,216,162280,2,0,P|249:171|296:148,1,76,2|0,1:2|2:0,2:0:0:0:
320,244,162530,1,10,2:0:0:0:
116,48,162780,2,0,B|224:32|224:32|268:60,2,152,2|10|2,3:2|2:0|1:2,2:0:0:0:
424,32,163530,1,10,2:0:0:0:
444,116,163655,1,0,2:0:0:0:
464,204,163780,6,0,L|364:192,1,76,2|0,3:2|2:0,2:0:0:0:
316,272,164030,2,0,L|240:281,1,76,10|0,2:0|2:0,2:0:0:0:
232,148,164280,2,0,L|156:138,1,76,2|0,1:2|2:0,2:0:0:0:
56,224,164530,2,0,L|72:380,1,152,10|0,2:0|3:0,2:0:0:0:
71,375,165030,5,10,2:0:0:0:
140,316,165155,1,2,2:0:0:0:
232,288,165280,1,2,1:2:0:0:
324,304,165405,2,0,P|392:324|428:348,1,76,2|8,2:0|2:0,2:0:0:0:
488,208,165655,2,0,P|471:276|474:320,1,76,2|0,2:0|3:0,2:0:0:0:
364,24,166030,5,10,2:0:0:0:
328,72,166155,1,2,2:0:0:0:
276,88,166280,1,2,1:2:0:0:
220,84,166405,2,0,P|168:60|148:32,1,76,2|8,2:0|2:0,2:0:0:0:
104,140,166655,2,0,P|52:164|32:192,1,76,2|0,2:0|3:0,2:0:0:0:
332,288,167030,6,0,L|324:176,1,76,10|2,2:0|2:0,2:0:0:0:
400,152,167280,1,2,1:2:0:0:
408,328,167405,2,0,P|328:324|248:336,1,152,2|2,2:0|2:0,2:0:0:0:
176,276,167780,1,0,3:0:0:0:
284,56,168030,5,10,2:0:0:0:
336,288,168280,1,2,1:2:0:0:
160,120,168530,1,10,2:0:0:0:
500,188,168780,2,0,L|412:192,1,76,2|0,3:2|2:0,2:0:0:0:
392,164,169030,2,0,L|316:160,1,76,0|0,3:0|2:0,2:0:0:0:
304,244,169280,6,0,P|228:156|356:84,1,285,6|2,2:0|2:0,2:0:0:0:
320,260,169780,6,0,B|280:296|280:296|128:280,1,161.5,6|10,3:2|2:0,2:0:0:0:
112,220,170155,1,2,2:0:0:0:
44,288,170280,2,0,L|48:380,1,80.75,2|2,1:2|2:0,2:0:0:0:
0,208,170530,2,0,L|12:124,1,80.75,8|2,2:0|2:0,2:0:0:0:
68,52,170780,1,0,3:0:0:0:
240,160,171030,1,10,2:0:0:0:
328,168,171155,1,0,2:0:0:0:
424,176,171280,2,0,L|412:76,1,80.75,2|0,1:2|2:0,2:0:0:0:
344,36,171530,1,10,2:0:0:0:
344,36,171655,1,0,2:0:0:0:
240,108,171780,6,0,B|228:152|228:152|240:192|240:192|220:272,1,161.5,0|10,3:0|2:0,2:0:0:0:
60,88,172280,1,2,1:2:0:0:
136,36,172405,1,2,2:0:0:0:
208,88,172530,2,0,L|188:192,1,80.75,8|2,2:0|2:0,2:0:0:0:
88,316,172780,2,0,P|60:264|120:160,1,161.5,0|10,3:0|2:0,2:0:0:0:
156,244,173155,1,0,2:0:0:0:
184,332,173280,5,2,1:2:0:0:
184,332,173405,1,0,2:0:0:0:
248,264,173530,1,10,2:0:0:0:
248,264,173655,1,0,2:0:0:0:
340,332,173780,6,0,B|464:344|464:344|440:280,1,161.5,0|10,3:0|2:0,2:0:0:0:
396,232,174155,1,2,2:0:0:0:
436,148,174280,2,0,P|452:96|440:56,1,80.75,2|2,1:2|2:0,2:0:0:0:
368,16,174530,2,0,P|352:68|364:108,1,80.75,8|2,2:0|2:0,2:0:0:0:
436,148,174780,1,0,3:0:0:0:
264,296,175030,2,0,P|216:300|176:288,1,80.75,10|0,2:0|2:0,2:0:0:0:
128,220,175280,1,2,1:2:0:0:
176,144,175405,1,0,2:0:0:0:
256,184,175530,2,0,P|304:188|344:176,1,80.75,10|0,2:0|2:0,2:0:0:0:
292,88,175780,5,0,3:0:0:0:
292,88,175905,1,0,2:0:0:0:
292,88,176030,1,10,2:0:0:0:
68,152,176280,2,0,P|72:220|72:320,1,161.5,2|10,1:2|2:0,2:0:0:0:
152,368,176655,1,0,2:0:0:0:
232,312,176780,2,0,P|284:304|340:316,2,80.75,2|0|8,3:2|2:0|2:0,2:0:0:0:
104,72,177280,2,0,B|152:88|152:88|296:60,1,161.5,2|8,1:2|2:0,2:0:0:0:
356,44,177655,1,0,2:0:0:0:
428,160,177780,6,0,P|348:152|264:188,1,161.5,6|10,3:2|2:0,2:0:0:0:
224,260,178155,1,2,2:0:0:0:
164,332,178280,2,0,P|120:340|76:328,1,80.75,2|2,1:2|2:0,2:0:0:0:
16,272,178530,2,0,P|8:227|20:184,1,80.75,8|2,2:0|2:0,2:0:0:0:
72,112,178780,1,0,3:0:0:0:
320,160,179030,1,10,2:0:0:0:
328,248,179155,1,0,2:0:0:0:
336,340,179280,2,0,L|240:336,1,80.75,2|0,1:2|2:0,2:0:0:0:
184,272,179530,1,10,2:0:0:0:
184,272,179655,1,0,2:0:0:0:
92,356,179780,6,0,P|64:272|100:192,1,161.5,0|10,3:0|2:0,2:0:0:0:
268,52,180280,1,2,1:2:0:0:
324,120,180405,1,2,2:0:0:0:
264,192,180530,2,0,L|180:180,1,80.75,8|2,2:0|2:0,2:0:0:0:
344,104,180780,2,0,P|428:100|516:104,1,161.5,0|10,3:0|2:0,2:0:0:0:
480,196,181155,1,0,2:0:0:0:
392,192,181280,5,2,1:2:0:0:
392,192,181405,1,0,2:0:0:0:
424,280,181530,1,10,2:0:0:0:
424,280,181655,1,0,2:0:0:0:
320,352,181780,6,0,B|268:340|268:340|160:352,1,161.5,0|10,3:0|2:0,2:0:0:0:
80,296,182155,1,2,2:0:0:0:
140,220,182280,2,0,L|152:124,1,80.75,2|2,1:2|2:0,2:0:0:0:
56,104,182530,2,0,L|44:8,1,80.75,8|2,2:0|2:0,2:0:0:0:
148,40,182780,1,0,3:0:0:0:
272,248,183030,2,0,B|304:252|304:252|368:240,1,80.75,10|0,2:0|2:0,2:0:0:0:
424,180,183280,1,2,1:2:0:0:
408,88,183405,1,0,2:0:0:0:
320,60,183530,2,0,B|288:56|288:56|224:68,1,80.75,10|0,2:0|2:0,2:0:0:0:
292,156,183780,5,0,3:0:0:0:
292,156,183905,1,0,2:0:0:0:
292,156,184030,1,10,2:0:0:0:
216,360,184280,2,0,L|128:352,1,80.75,2|0,1:2|2:0,2:0:0:0:
16,264,184530,2,0,L|104:256,1,80.75,10|0,2:0|2:0,2:0:0:0:
200,144,184780,6,0,B|148:152|148:152|112:140|112:140|16:156,1,161.5,2|8,3:2|2:0,2:0:0:0:
256,220,185155,1,0,2:0:0:0:
256,220,185280,2,0,P|292:140|248:64,1,161.5,2|8,1:2|2:0,2:0:0:0:
176,40,185655,1,0,2:0:0:0:
176,40,185780,6,0,B|216:60|268:48|264:32|316:16|376:48,1,190,2|0,2:0|2:0,2:0:0:0:
