osu file format v14

[General]
AudioFilename: audio.mp3
AudioLeadIn: 0
PreviewTime: 60624
Countdown: 0
SampleSet: Soft
StackLeniency: 0.7
Mode: 0
LetterboxInBreaks: 0
WidescreenStoryboard: 0

[Editor]
DistanceSpacing: 1.2
BeatDivisor: 4
GridSize: 4
TimelineZoom: 1

[Metadata]
Title:TT
TitleUnicode:TT
Artist:TWICE
ArtistUnicode:트와이스
Creator:Lilyanna
Version:wasin's Advanced
Source:
Tags:JYP Entertainment TWICEcoaster : LANE 1 나연 정연 모모 사나 지효 미나 다현 채영 쯔위 Nayeon Jeongyeon Momo Sana Jihyo Mina Dahyun Chaeyoung Tzuyu K-Pop Kpop Nekomata Firetruck Kisses Irreversible wasinkingspeedq
BeatmapID:1213058
BeatmapSetID:543062

[Difficulty]
HPDrainRate:4.5
CircleSize:4
OverallDifficulty:4.5
ApproachRate:6
SliderMultiplier:1.25
SliderTickRate:1

[Events]
//Background and Video events
Video,-26222,"twice tt.mp4"
0,0,"fghbgfhf.jpg",0,0
//Break Periods
2,46862,52922
2,120708,126843
2,164816,178074
//Storyboard Layer 0 (Background)
//Storyboard Layer 1 (Fail)
//Storyboard Layer 2 (Pass)
//Storyboard Layer 3 (Foreground)
//Storyboard Sound Samples

[TimingPoints]
2355,461.538461538462,4,2,2,60,1,0
61431,-100,4,2,2,80,0,1
75278,-100,4,2,3,80,0,1
75478,-100,4,2,1,80,0,1
75624,-100,4,2,3,80,0,1
75739,-100,4,2,2,80,0,0
76201,-100,4,2,2,80,0,1
89124,-100,4,2,2,60,0,1
89585,-100,4,2,2,70,0,1
90047,-100,4,2,2,80,0,1
90970,-100,4,2,2,70,0,0
104585,-100,4,2,3,70,0,0
105508,-100,4,2,2,70,0,0
131931,-100,4,2,2,50,0,0
132508,-100,4,2,2,60,0,0
132970,-100,4,2,2,70,0,0
133431,-100,4,2,2,80,0,0
135278,-100,4,2,2,80,0,1
149124,-100,4,2,3,80,0,1
149585,-100,4,2,3,80,0,0
150047,-100,4,2,2,80,0,1
162970,-100,4,2,2,50,0,1
163431,-100,4,2,2,60,0,1
163893,-100,4,2,2,70,0,1
164354,-100,4,2,2,70,0,1
164355,-100,4,2,2,80,0,1
164816,-100,4,2,2,20,0,0
180739,-100,4,2,2,80,0,0
181431,-100,4,2,2,85,0,1
195278,-100,4,2,3,80,0,1
195739,-100,4,2,3,80,0,0
196201,-100,4,2,2,85,0,1
209124,-100,4,2,2,55,0,1
209585,-100,4,2,2,65,0,1
210047,-100,4,2,2,75,0,1
210508,-100,4,2,2,75,0,0
210970,-100,4,2,0,5,0,0

[Colours]
Combo1 : 125,162,111
Combo2 : 191,187,11
Combo3 : 255,100,104
Combo4 : 0,103,206

[HitObjects]
456,268,17124,6,0,B|419:272|395:289|395:289|372:306|339:310,1,125,0|8,0:0|0:0,0:0:0:0:
196,272,18047,2,0,L|200:340,1,62.5,0|0,0:0|0:0,0:0:0:0:
124,320,18508,2,0,L|120:256,1,62.5,8|0,0:0|0:0,0:0:0:0:
68,204,18970,6,0,P|144:208|188:168,1,125,0|8,0:0|0:0,0:0:0:0:
284,72,19893,2,0,L|364:68,1,62.5,0|0,0:0|0:0,0:0:0:0:
392,128,20355,2,0,L|468:124,1,62.5,8|0,0:0|0:0,0:0:0:0:
444,200,20816,6,0,B|392:204|392:204|372:200|372:200|316:204,1,125,0|8,0:0|0:0,0:0:0:0:
184,136,21739,2,0,P|176:92|164:72,1,62.5,0|0,0:0|0:0,0:0:0:0:
96,100,22201,2,0,P|104:144|116:164,1,62.5,8|0,0:0|0:0,0:0:0:0:
168,212,22662,6,0,P|192:280|180:340,1,125,2|0,0:0|0:0,0:0:0:0:
120,372,23355,1,2,0:0:0:0:
52,344,23585,2,0,P|28:276|40:216,1,125,0|0,0:0|0:0,0:0:0:0:
96,88,24508,6,0,B|128:84|152:67|152:67|175:50|212:45,1,125,0|8,0:0|0:0,0:0:0:0:
276,88,25201,1,0,0:0:0:0:
344,116,25431,2,0,P|388:96|420:96,1,62.5,0|0,0:0|0:0,0:0:0:0:
432,164,25893,2,0,P|388:184|356:184,1,62.5,8|0,0:0|0:0,0:0:0:0:
300,180,26355,6,0,P|269:185|242:201,1,62.5,0|0,0:0|0:0,0:0:0:0:
176,240,26816,1,8,0:0:0:0:
100,228,27047,1,0,0:0:0:0:
56,168,27278,2,0,P|44:124|48:104,1,62.5,0|0,0:0|0:0,0:0:0:0:
120,100,27739,2,0,P|132:144|128:164,1,62.5,8|0,0:0|0:0,0:0:0:0:
100,228,28201,6,0,B|67:234|56:248|56:248|45:262|16:266,2,93.75,2|2|2,0:0|0:0|0:0,0:0:0:0:
244,272,29355,2,0,P|242:302|253:331,1,62.5,0|8,0:0|0:0,0:0:0:0:
324,360,29816,1,0,0:0:0:0:
384,312,30047,6,0,P|385:281|374:252,1,62.5,2|0,0:0|0:0,0:0:0:0:
304,220,30508,2,0,P|292:190|293:159,2,62.5,8|2|0,0:0|0:0|0:0,0:0:0:0:
373,251,31201,1,2,0:0:0:0:
432,204,31431,1,8,0:0:0:0:
400,56,31893,6,0,P|328:60|280:92,1,125,2|8,0:0|0:0,0:0:0:0:
220,124,32585,1,0,0:0:0:0:
148,108,32816,2,0,L|144:36,1,62.5,0|0,0:0|0:0,0:0:0:0:
68,56,33278,2,0,L|72:128,1,62.5,8|0,0:0|0:0,0:0:0:0:
76,192,33739,6,0,L|80:324,1,125,2|8,0:0|0:0,0:0:0:0:
224,360,34662,2,0,L|220:235,1,125,0|8,0:0|0:0,0:0:0:0:
256,168,35355,1,0,0:0:0:0:
328,192,35585,6,0,P|364:212|384:236,1,62.5,2|0,0:0|0:0,0:0:0:0:
448,200,36047,2,0,P|448:156|460:116,1,62.5,8|0,0:0|0:0,0:0:0:0:
396,88,36508,2,0,P|356:112|336:112,1,62.5,0|0,0:0|0:0,0:0:0:0:
268,88,36970,1,8,0:0:0:0:
208,132,37201,1,0,0:0:0:0:
180,64,37431,6,0,B|151:68|140:82|140:82|129:96|96:102,2,93.75,6|2|6,0:0|0:0|0:0,0:0:0:0:
372,180,38816,1,8,0:0:0:0:
432,136,39047,1,0,0:0:0:0:
468,200,39278,6,0,P|464:276|500:328,1,125,2|8,0:0|0:0,0:0:0:0:
428,360,39970,1,0,0:0:0:0:
352,348,40201,2,0,P|356:272|320:220,1,125,0|8,0:0|0:0,0:0:0:0:
188,196,41124,6,0,L|112:200,1,62.5,2|0,0:0|0:0,0:0:0:0:
104,272,41585,2,0,L|188:268,1,62.5,8|0,0:0|0:0,0:0:0:0:
188,196,42047,2,0,B|184:140|184:140|188:120|188:120|184:64,1,125,0|8,0:0|0:0,0:0:0:0:
332,52,42970,6,0,L|336:120,1,62.5,2|0,0:0|0:0,0:0:0:0:
376,180,43431,2,0,P|432:176|444:168,1,62.5,8|0,0:0|0:0,0:0:0:0:
484,116,43893,2,0,L|488:252,1,125,0|8,0:0|0:0,0:0:0:0:
448,304,44585,1,0,0:0:0:0:
376,276,44816,6,0,P|320:280|308:288,1,62.5,2|0,0:0|0:0,0:0:0:0:
256,328,45278,2,0,P|226:338|195:334,1,62.5,8|0,0:0|0:0,0:0:0:0:
152,276,45739,2,0,P|136:196|92:156,1,125,2|2,0:0|0:0,0:0:0:0:
4,272,46662,5,0,0:0:0:0:
184,136,54047,6,0,B|217:132|240:115|240:115|264:98|301:94,1,125,2|2,0:0|0:0,0:0:0:0:
364,136,54739,1,0,0:0:0:0:
424,180,54970,2,0,P|472:168|496:152,2,62.5,2|0|2,0:0|0:0|0:0,0:0:0:0:
300,264,55893,6,0,P|252:276|228:292,1,62.5,2|0,0:0|0:0,0:0:0:0:
168,260,56355,2,0,B|164:232|164:232|144:200,1,62.5,2|0,0:0|0:0,0:0:0:0:
76,176,56816,2,0,P|140:164|200:132,1,125,2|2,0:0|0:0,0:0:0:0:
324,212,57739,6,0,P|379:184|441:173,1,125,2|2,0:0|0:0,0:0:0:0:
488,232,58431,1,2,0:0:0:0:
452,296,58662,1,2,0:0:0:0:
380,312,58893,1,2,0:0:0:0:
308,288,59124,2,0,P|232:320|176:328,1,125,2|10,0:0|0:0,0:0:0:0:
28,68,60970,5,8,0:0:0:0:
152,152,61431,6,0,P|228:120|284:112,1,125,2|8,0:0|0:0,0:0:0:0:
316,172,62124,2,0,P|377:159|433:132,1,125,2|2,0:0|0:0,0:0:0:0:
484,76,62816,1,8,0:0:0:0:
492,228,63278,6,0,B|487:268|497:291|497:291|507:314|503:359,1,125,2|8,0:0|0:0,0:0:0:0:
428,364,63970,2,0,B|431:326|421:303|421:303|411:280|416:240,1,125,2|2,0:0|0:0,0:0:0:0:
344,220,64662,1,8,0:0:0:0:
204,164,65124,6,0,P|144:176|76:176,1,125,2|8,0:0|0:0,0:0:0:0:
72,100,65816,2,0,P|133:87|195:87,1,125,2|0,0:0|0:0,0:0:0:0:
264,120,66508,1,8,0:0:0:0:
336,252,66970,6,0,B|344:316|344:316|388:368,1,125,2|8,0:0|0:0,0:0:0:0:
452,332,67662,2,0,B|444:268|444:268|400:216,1,125,10|2,0:0|0:0,0:0:0:0:
336,252,68355,1,8,0:0:0:0:
264,228,68585,1,2,0:0:0:0:
200,268,68816,6,0,B|163:273|140:290|140:290|116:307|84:311,1,125,2|8,0:0|0:0,0:0:0:0:
40,248,69508,2,0,B|36:172|36:172|20:116,1,125,2|2,0:0|0:0,0:0:0:0:
8,52,70201,1,8,0:0:0:0:
144,116,70662,6,0,P|216:136|268:116,1,125,2|8,0:0|0:0,0:0:0:0:
308,60,71355,2,0,P|367:43|425:64,1,125,2|2,0:0|0:0,0:0:0:0:
484,112,72047,1,8,0:0:0:0:
376,212,72508,6,0,P|384:264|400:284,1,62.5,2|0,0:0|0:0,0:0:0:0:
464,284,72970,2,0,P|456:232|440:212,1,62.5,8|2,0:0|0:0,0:0:0:0:
376,212,73431,2,0,P|300:244|256:236,1,125,8|8,0:0|0:0,0:0:0:0:
188,212,74124,1,2,0:0:0:0:
112,200,74355,6,0,L|108:137,1,62.5,14|4,0:0|0:0,0:0:0:0:
36,152,74816,2,0,L|39:214,1,62.5,12|0,0:0|0:0,0:0:0:0:
88,272,75278,2,0,B|115:289|144:291|144:291|172:293|204:313,1,125,2|8,0:0|0:0,0:0:0:0:
280,308,75970,1,2,0:0:0:0:
240,244,76201,6,0,P|200:224|148:216,2,93.75,2|0|2,0:0|0:0|0:0,0:0:0:0:
280,308,77124,2,0,L|276:168,1,125,0|8,0:0|0:0,0:0:0:0:
328,128,77816,1,0,0:0:0:0:
384,180,78047,6,0,P|424:200|476:208,2,93.75,2|0|2,0:0|0:0|0:0,0:0:0:0:
328,128,78970,2,0,B|296:124|272:107|272:107|249:90|212:85,1,125,0|8,0:0|0:0,0:0:0:0:
144,120,79662,1,0,0:0:0:0:
84,72,79893,6,0,B|88:40|88:40|80:0,1,62.5,2|0,0:0|0:0,0:0:0:0:
8,12,80355,2,0,B|4:44|4:44|12:84,1,62.5,8|2,0:0|0:0,0:0:0:0:
48,140,80816,2,0,B|43:180|53:203|53:203|63:226|59:271,1,125,0|8,0:0|0:0,0:0:0:0:
16,324,81508,1,0,0:0:0:0:
84,360,81739,6,0,P|143:372|196:341,1,125,2|8,0:0|0:0,0:0:0:0:
256,292,82431,1,2,0:0:0:0:
315,341,82662,2,0,P|368:372|428:360,1,125,0|8,0:0|0:0,0:0:0:0:
496,324,83355,1,0,0:0:0:0:
452,263,83585,6,0,B|448:236|456:212|456:212|468:188|464:160,2,93.75,2|0|2,0:0|0:0|0:0,0:0:0:0:
304,296,84739,1,2,0:0:0:0:
256,240,84970,2,0,P|256:192|264:164,1,62.5,8|0,0:0|0:0,0:0:0:0:
212,120,85431,6,0,B|184:124|160:116|160:116|136:104|108:108,2,93.75,2|0|2,0:0|0:0|0:0,0:0:0:0:
336,36,86585,1,2,0:0:0:0:
400,72,86816,2,0,P|394:102|396:133,1,62.5,8|0,0:0|0:0,0:0:0:0:
452,184,87278,6,0,P|453:215|448:245,1,62.5,2|0,0:0|0:0,0:0:0:0:
396,300,87739,1,8,0:0:0:0:
324,280,87970,1,2,0:0:0:0:
260,324,88201,2,0,P|200:340|142:319,1,125,0|8,0:0|0:0,0:0:0:0:
96,260,88893,1,0,0:0:0:0:
96,260,89124,6,0,L|100:384,1,125,2|2,0:0|0:0,0:0:0:0:
24,380,89816,2,0,L|20:256,1,125,2|2,0:0|0:0,0:0:0:0:
16,180,90508,1,10,0:0:0:0:
160,220,90970,6,0,B|192:216|216:199|216:199|239:182|276:177,1,125,2|8,0:0|0:0,0:0:0:0:
388,276,91893,2,0,P|392:312|392:344,1,62.5,0|0,0:0|0:0,0:0:0:0:
468,336,92355,2,0,P|464:300|464:268,1,62.5,8|0,0:0|0:0,0:0:0:0:
424,208,92816,6,0,B|427:170|417:147|417:147|407:124|412:84,1,125,2|8,0:0|0:0,0:0:0:0:
272,32,93739,2,0,B|240:28|240:28|208:36,1,62.5,0|0,0:0|0:0,0:0:0:0:
160,92,94201,2,0,B|130:99|130:99|98:95,1,62.5,8|0,0:0|0:0,0:0:0:0:
40,48,94662,6,0,B|56:108|56:108|48:176,1,125,2|8,0:0|0:0,0:0:0:0:
136,292,95585,2,0,P|172:320|196:328,1,62.5,0|0,0:0|0:0,0:0:0:0:
232,264,96047,2,0,P|196:236|172:228,1,62.5,8|0,0:0|0:0,0:0:0:0:
144,164,96508,6,0,B|128:104|128:104|136:36,1,125,2|8,0:0|0:0,0:0:0:0:
208,24,97201,1,0,0:0:0:0:
284,32,97431,2,0,B|300:92|300:92|292:160,1,125,0|8,0:0|0:0,0:0:0:0:
416,240,98355,6,0,L|432:108,1,125,2|8,0:0|0:0,0:0:0:0:
372,72,99047,1,0,0:0:0:0:
300,100,99278,2,0,L|284:224,1,125,0|8,0:0|0:0,0:0:0:0:
236,280,99970,1,0,0:0:0:0:
160,288,100201,6,0,B|128:284|104:267|104:267|81:250|44:245,1,125,2|8,0:0|0:0,0:0:0:0:
36,172,100893,1,0,0:0:0:0:
36,172,101124,2,0,B|12:104|12:104|20:48,1,125,0|8,0:0|0:0,0:0:0:0:
88,24,101816,1,0,0:0:0:0:
148,68,102047,6,0,B|188:64|188:64|200:68|200:68|252:64,2,93.75,2|2|2,0:0|0:0|0:0,0:0:0:0:
208,208,103201,1,0,0:0:0:0:
248,144,103431,2,0,L|312:140,1,62.5,8|0,0:0|0:0,0:0:0:0:
384,132,103893,6,0,P|376:176|360:196,1,62.5,2|0,0:0|0:0,0:0:0:0:
308,240,104355,2,0,P|316:284|332:304,1,62.5,8|2,0:0|0:0,0:0:0:0:
388,336,104816,2,0,B|336:340|336:340|316:336|316:336|252:340,1,125,2|2,0:0|0:0,0:0:0:0:
128,280,105739,6,0,B|124:248|128:232|128:232|132:216|128:180,2,93.75,2|2|2,0:0|0:0|0:0,0:0:0:0:
52,288,106662,2,0,B|44:248|52:224|52:224|60:204|52:164,1,125,0|8,0:0|0:0,0:0:0:0:
20,96,107355,1,0,0:0:0:0:
96,96,107585,6,0,P|144:96|200:108,2,93.75,2|2|2,0:0|0:0|0:0,0:0:0:0:
92,20,108508,2,0,P|168:20|224:36,1,125,0|8,0:0|0:0,0:0:0:0:
264,92,109201,1,0,0:0:0:0:
324,140,109431,6,0,P|370:148|416:148,2,93.75,2|2|2,0:0|0:0|0:0,0:0:0:0:
264,92,110355,2,0,P|276:32|272:-16,2,93.75,2|2|2,0:0|0:0|0:0,0:0:0:0:
204,136,111278,6,0,P|157:127|111:127,2,93.75,2|2|2,0:0|0:0|0:0,0:0:0:0:
264,184,112201,2,0,P|263:230|282:308,1,125,0|8,0:0|0:0,0:0:0:0:
348,340,112893,1,0,0:0:0:0:
392,280,113124,6,0,P|432:268|456:268,1,62.5,2|0,0:0|0:0,0:0:0:0:
480,336,113585,2,0,P|440:348|416:348,1,62.5,8|0,0:0|0:0,0:0:0:0:
392,280,114047,2,0,P|388:208|368:140,1,125,0|8,0:0|0:0,0:0:0:0:
308,120,114739,1,0,0:0:0:0:
244,160,114970,6,0,P|208:188|184:200,1,62.5,2|0,0:0|0:0,0:0:0:0:
120,180,115431,2,0,P|93:195|69:215,1,62.5,8|0,0:0|0:0,0:0:0:0:
40,288,115893,2,0,B|40:224|40:224|4:152,1,125,0|8,0:0|0:0,0:0:0:0:
140,88,116816,6,0,B|173:84|196:67|196:67|220:50|257:46,1,125,2|8,0:0|0:0,0:0:0:0:
368,148,117739,2,0,B|368:212|368:212|404:284,1,125,2|8,0:0|0:0,0:0:0:0:
444,324,118431,1,0,0:0:0:0:
468,252,118662,6,0,B|468:188|468:188|440:132,1,125,2|8,0:0|0:0,0:0:0:0:
388,76,119355,1,0,0:0:0:0:
368,148,119585,2,0,B|331:152|307:169|307:169|284:186|251:190,1,125,2|8,0:0|0:0,0:0:0:0:
104,200,120508,5,2,0:0:0:0:
280,324,127893,6,0,B|313:320|336:303|336:303|360:286|397:282,1,125,2|2,0:0|0:0,0:0:0:0:
452,332,128585,1,0,0:0:0:0:
472,260,128816,2,0,B|464:228|464:228|468:192,2,62.5,2|0|2,0:0|0:0|0:0,0:0:0:0:
340,188,129739,6,0,L|348:124,1,62.5,2|0,0:0|0:0,0:0:0:0:
272,116,130201,2,0,L|264:178,1,62.5,2|0,0:0|0:0,0:0:0:0:
220,240,130662,2,0,B|183:244|159:261|159:261|136:278|103:282,1,125,2|2,0:0|0:0,0:0:0:0:
36,148,131585,6,0,B|69:144|92:127|92:127|116:110|153:106,1,125,2|2,0:0|0:0,0:0:0:0:
216,148,132278,1,2,0:0:0:0:
288,128,132508,2,0,L|296:66,1,62.5,2|2,0:0|0:0,0:0:0:0:
372,68,132970,2,0,B|360:156|360:156|384:208,1,125,2|10,0:0|0:0,0:0:0:0:
120,344,134816,5,8,0:0:0:0:
164,200,135278,6,0,B|176:112|176:112|152:60,1,125,2|8,0:0|0:0,0:0:0:0:
84,80,135970,2,0,B|72:168|72:168|96:220,1,125,2|2,0:0|0:0,0:0:0:0:
128,264,136662,1,8,0:0:0:0:
272,220,137124,6,0,B|305:204|320:184|320:184|335:164|372:148,1,125,2|8,0:0|0:0,0:0:0:0:
424,204,137816,2,0,B|386:219|371:239|371:239|357:259|323:275,1,125,2|2,0:0|0:0,0:0:0:0:
252,296,138508,1,8,0:0:0:0:
152,184,138970,6,0,P|160:116|148:56,1,125,2|8,0:0|0:0,0:0:0:0:
76,60,139662,2,0,P|68:128|80:188,1,125,2|0,0:0|0:0,0:0:0:0:
116,248,140355,1,8,0:0:0:0:
248,320,140816,6,0,P|312:296|372:296,1,125,2|8,0:0|0:0,0:0:0:0:
412,356,141508,2,0,P|400:260|412:224,1,125,2|2,0:0|0:0,0:0:0:0:
460,180,142201,1,8,0:0:0:0:
484,108,142431,1,8,0:0:0:0:
420,68,142662,6,0,P|356:92|296:92,1,125,2|8,0:0|0:0,0:0:0:0:
256,32,143355,2,0,P|193:33|135:56,1,125,2|2,0:0|0:0,0:0:0:0:
68,88,144047,1,8,0:0:0:0:
168,200,144508,6,0,P|231:199|289:176,1,125,2|8,0:0|0:0,0:0:0:0:
328,112,145201,2,0,L|340:240,1,125,2|2,0:0|0:0,0:0:0:0:
348,312,145893,1,8,0:0:0:0:
200,300,146355,6,0,P|148:308|128:316,1,62.5,2|0,0:0|0:0,0:0:0:0:
124,236,146816,2,0,P|176:228|196:220,1,62.5,8|2,0:0|0:0,0:0:0:0:
260,240,147278,2,0,B|292:238|317:223|317:223|342:209|379:207,1,125,0|8,0:0|0:0,0:0:0:0:
436,160,147970,1,0,0:0:0:0:
388,100,148201,6,0,P|380:56|380:32,1,62.5,8|0,0:0|0:0,0:0:0:0:
452,28,148662,2,0,P|460:72|460:96,1,62.5,8|0,0:0|0:0,0:0:0:0:
436,160,149124,2,0,B|424:224|424:224|440:292,1,125,2|2,0:0|0:0,0:0:0:0:
460,356,149816,1,2,0:0:0:0:
384,344,150047,6,0,P|312:344|284:356,2,93.75,2|2|2,0:0|0:0|0:0,0:0:0:0:
372,268,150970,2,0,P|312:268|248:292,1,125,0|8,0:0|0:0,0:0:0:0:
184,320,151662,1,0,0:0:0:0:
164,248,151893,6,0,B|156:200|156:200|160:148,2,93.75,2|2|2,0:0|0:0|0:0,0:0:0:0:
88,260,152816,2,0,B|76:196|76:196|84:124,1,125,0|8,0:0|0:0,0:0:0:0:
136,84,153508,1,0,0:0:0:0:
212,96,153739,6,0,B|244:92|244:92|284:72,1,62.5,2|0,0:0|0:0,0:0:0:0:
340,48,154201,2,0,B|367:34|367:34|399:30,1,62.5,8|2,0:0|0:0,0:0:0:0:
456,76,154662,2,0,B|468:140|468:140|460:212,1,125,0|8,0:0|0:0,0:0:0:0:
424,264,155355,1,0,0:0:0:0:
364,220,155585,6,0,P|303:232|250:265,1,125,2|8,0:0|0:0,0:0:0:0:
180,236,156278,1,2,0:0:0:0:
200,164,156508,2,0,P|260:151|313:118,1,125,0|8,0:0|0:0,0:0:0:0:
344,48,157201,1,0,0:0:0:0:
344,48,157431,6,0,P|384:84|384:144,2,93.75,2|2|2,0:0|0:0|0:0,0:0:0:0:
196,28,158585,1,2,0:0:0:0:
148,84,158816,2,0,P|117:89|90:104,1,62.5,8|0,0:0|0:0,0:0:0:0:
36,160,159278,6,0,L|24:56,2,93.75,2|2|2,0:0|0:0|0:0,0:0:0:0:
60,308,160431,1,2,0:0:0:0:
120,264,160662,2,0,B|148:248|148:248|180:244,1,62.5,8|0,0:0|0:0,0:0:0:0:
244,276,161124,6,0,B|274:272|274:272|302:256,1,62.5,2|0,0:0|0:0,0:0:0:0:
348,196,161585,1,8,0:0:0:0:
424,200,161816,1,2,0:0:0:0:
476,148,162047,2,0,B|472:110|459:89|459:89|445:68|443:28,1,125,0|8,0:0|0:0,0:0:0:0:
368,20,162739,1,0,0:0:0:0:
315,76,162970,6,0,B|317:116|330:137|330:137|344:158|347:195,1,125,2|2,0:0|0:0,0:0:0:0:
352,272,163662,2,0,P|326:326|267:341,1,125,2|2,0:0|0:0,0:0:0:0:
200,308,164355,1,10,0:0:0:0:
256,192,179124,12,8,180970,0:0:0:0:
420,304,181893,5,8,0:0:0:0:
368,252,182124,2,0,P|304:240|252:272,1,125,2|2,0:0|0:0,0:0:0:0:
192,312,182816,1,8,0:0:0:0:
44,296,183278,6,0,B|47:258|37:235|37:235|27:212|32:172,1,125,2|8,0:0|0:0,0:0:0:0:
108,164,183970,2,0,B|103:204|113:227|113:227|123:250|119:287,1,125,2|2,0:0|0:0,0:0:0:0:
192,312,184662,1,8,0:0:0:0:
256,176,185124,6,0,P|320:188|372:156,1,125,2|8,0:0|0:0,0:0:0:0:
384,84,185816,2,0,B|396:144|396:144|440:204,1,125,2|0,0:0|0:0,0:0:0:0:
484,252,186508,1,10,0:0:0:0:
364,344,186970,6,0,P|300:332|248:364,1,125,2|8,0:0|0:0,0:0:0:0:
188,320,187662,2,0,B|176:260|176:260|132:200,1,125,2|2,0:0|0:0,0:0:0:0:
72,172,188355,1,8,0:0:0:0:
72,248,188585,1,2,0:0:0:0:
138,208,188816,6,0,B|172:186|198:186|198:186|223:185|258:164,1,125,2|8,0:0|0:0,0:0:0:0:
276,96,189508,2,0,P|308:184|336:208,1,125,2|2,0:0|0:0,0:0:0:0:
388,252,190201,1,8,0:0:0:0:
492,144,190662,6,0,P|460:56|432:32,1,125,2|8,0:0|0:0,0:0:0:0:
364,56,191355,2,0,P|296:80|240:64,1,125,2|2,0:0|0:0,0:0:0:0:
180,36,192047,1,8,0:0:0:0:
60,124,192508,6,0,L|64:196,1,62.5,2|2,0:0|0:0,0:0:0:0:
72,260,192970,2,0,L|76:332,1,62.5,8|2,0:0|0:0,0:0:0:0:
148,348,193431,2,0,B|200:344|200:344|212:348|212:348|272:344,1,125,0|8,0:0|0:0,0:0:0:0:
344,316,194124,1,0,0:0:0:0:
312,248,194355,6,0,P|304:208|308:176,1,62.5,10|2,0:0|0:0,0:0:0:0:
380,180,194816,2,0,P|388:220|384:252,1,62.5,8|0,0:0|0:0,0:0:0:0:
460,260,195278,2,0,P|464:188|440:132,1,125,2|2,0:0|0:0,0:0:0:0:
380,104,195970,1,2,0:0:0:0:
304,100,196201,6,0,P|224:116|200:112,2,93.75,2|2|2,0:0|0:0|0:0,0:0:0:0:
272,32,197124,2,0,P|228:40|140:28,1,125,0|8,0:0|0:0,0:0:0:0:
76,36,197816,1,0,0:0:0:0:
56,108,198047,6,0,B|64:156|64:156|56:208,2,93.75,2|2|2,0:0|0:0|0:0,0:0:0:0:
132,104,198970,2,0,B|140:168|140:168|128:236,1,125,0|8,0:0|0:0,0:0:0:0:
112,300,199662,1,2,0:0:0:0:
188,292,199893,6,0,P|228:284|264:284,1,62.5,2|0,0:0|0:0,0:0:0:0:
308,332,200355,2,0,P|339:330|369:323,1,62.5,8|2,0:0|0:0,0:0:0:0:
436,356,200816,2,0,P|408:288|408:220,1,125,0|8,0:0|0:0,0:0:0:0:
380,168,201508,1,0,0:0:0:0:
308,192,201739,6,0,P|264:236|208:263,1,125,2|8,0:0|0:0,0:0:0:0:
132,256,202431,1,2,0:0:0:0:
152,184,202662,2,0,P|195:139|251:112,1,125,0|8,0:0|0:0,0:0:0:0:
320,144,203355,1,0,0:0:0:0:
320,144,203585,6,0,P|298:102|295:56,2,93.75,2|2|2,0:0|0:0|0:0,0:0:0:0:
436,240,204739,1,2,0:0:0:0:
384,296,204970,2,0,P|348:316|312:320,1,62.5,8|0,0:0|0:0,0:0:0:0:
256,304,205431,6,0,P|212:312|152:348,2,93.75,2|2|2,0:0|0:0|0:0,0:0:0:0:
304,160,206585,1,2,0:0:0:0:
232,144,206816,2,0,P|196:164|160:168,1,62.5,8|0,0:0|0:0,0:0:0:0:
120,116,207278,6,0,B|120:84|120:84|104:48,1,62.5,2|2,0:0|0:0,0:0:0:0:
36,72,207739,2,0,B|36:104|36:104|52:140,1,62.5,8|2,0:0|0:0,0:0:0:0:
100,184,208201,2,0,B|103:224|117:244|117:244|132:265|137:309,1,125,0|8,0:0|0:0,0:0:0:0:
108,372,208893,1,2,0:0:0:0:
108,372,209124,6,0,P|172:320|224:324,1,125,2|10,0:0|0:0,0:0:0:0:
280,348,209816,2,0,P|340:340|383:296,1,125,2|2,0:0|0:0,0:0:0:0:
404,224,210508,1,10,0:0:0:0:
