osu file format v14

[General]
AudioFilename: audio.mp3
AudioLeadIn: 0
PreviewTime: 60624
Countdown: 0
SampleSet: Normal
StackLeniency: 0.7
Mode: 0
LetterboxInBreaks: 0
WidescreenStoryboard: 0

[Editor]
Bookmarks: 17124,90970,104585,105277,116816,132047,164816,179585
DistanceSpacing: 1.2
BeatDivisor: 8
GridSize: 16
TimelineZoom: 1.4

[Metadata]
Title:TT
TitleUnicode:TT
Artist:TWICE
ArtistUnicode:트와이스
Creator:Lilyanna
Version:Insane
Source:
Tags:JYP Entertainment TWICEcoaster : LANE 1 나연 정연 모모 사나 지효 미나 다현 채영 쯔위 Nayeon Jeongyeon Momo Sana Jihyo Mina Dahyun Chaeyoung Tzuyu K-Pop Kpop Nekomata Firetruck Kisses Irreversible wasinkingspeedq
BeatmapID:1151793
BeatmapSetID:543062

[Difficulty]
HPDrainRate:6
CircleSize:4.8
OverallDifficulty:7
ApproachRate:8.2
SliderMultiplier:1.7
SliderTickRate:1

[Events]
//Background and Video events
Video,-26222,"twice tt.mp4"
0,0,"fghbgfhf.jpg",0,0
//Break Periods
2,164816,178404
//Storyboard Layer 0 (Background)
//Storyboard Layer 1 (Fail)
//Storyboard Layer 2 (Pass)
//Storyboard Layer 3 (Foreground)
//Storyboard Sound Samples

[TimingPoints]
2355,461.538461538462,4,2,2,60,1,0
23585,-133.333333333333,4,2,2,60,0,0
24508,-100,4,2,2,60,0,0
30739,-100,4,2,3,60,0,0
31662,-100,4,2,1,60,0,0
31893,-100,4,2,2,60,0,0
37431,-133.333333333333,4,2,2,60,0,0
39278,-100,4,2,2,60,0,0
45739,-100,4,2,3,60,0,0
46431,-100,4,2,2,60,0,0
46662,-117.647058823529,4,2,2,60,0,0
54047,-117.647058823529,4,2,3,50,0,0
58085,-117.647058823529,4,2,2,50,0,0
58662,-117.647058823529,4,2,2,60,0,0
59124,-117.647058823529,4,2,2,70,0,0
59585,-117.647058823529,4,2,2,80,0,0
61431,-100,4,2,2,80,0,1
75278,-100,4,2,3,80,0,0
75478,-100,4,2,1,80,0,0
75624,-100,4,2,3,80,0,0
75739,-100,4,2,2,80,0,0
76201,-100,4,2,2,80,0,1
89124,-100,4,2,2,60,0,1
89585,-100,4,2,2,70,0,1
90047,-100,4,2,2,80,0,1
90508,-100,4,2,2,80,0,1
90970,-100,4,2,2,70,0,0
97431,-133.333333333333,4,2,2,70,0,0
98355,-100,4,2,2,70,0,0
104585,-100,4,2,3,70,0,0
105508,-100,4,2,2,70,0,0
119124,-90.9090909090909,4,2,2,70,0,0
119585,-83.3333333333333,4,2,2,70,0,0
120047,-76.9230769230769,4,2,2,70,0,0
120508,-117.647058823529,4,2,2,70,0,0
131931,-117.647058823529,4,2,2,50,0,0
132508,-117.647058823529,4,2,2,60,0,0
132970,-117.647058823529,4,2,2,70,0,0
133431,-117.647058823529,4,2,2,80,0,0
135278,-100,4,2,2,80,0,1
149124,-100,4,2,3,80,0,0
150047,-100,4,2,2,80,0,1
162970,-100,4,2,2,50,0,1
163431,-100,4,2,2,60,0,1
163893,-100,4,2,2,70,0,1
164354,-100,4,2,2,80,0,1
164816,-100,4,2,2,20,0,0
180739,-100,4,2,2,80,0,0
181431,-100,4,2,2,85,0,1
195278,-100,4,2,3,80,0,0
196201,-100,4,2,2,85,0,1
209124,-100,4,2,2,55,0,1
209585,-100,4,2,2,65,0,1
210047,-100,4,2,2,75,0,1
210508,-100,4,2,2,75,0,0
210970,-100,4,1,88,85,0,0

[Colours]
Combo1 : 125,162,111
Combo2 : 191,187,11
Combo3 : 255,100,104
Combo4 : 0,103,206

[HitObjects]
256,192,13431,12,0,16662,0:0:0:0:
143,187,17123,6,0,P|162:246|135:302,1,127.5
79,239,17585,2,0,P|62:188|74:146,1,85,8|0,0:0|0:0,0:0:0:0:
209,67,18047,1,0,0:0:0:0:
248,81,18162,1,0,0:0:0:0:
290,86,18277,1,0,0:0:0:0:
333,82,18393,1,0,0:0:0:0:
373,68,18508,1,8,0:0:0:0:
436,227,18739,1,0,0:0:0:0:
436,227,18855,1,0,0:0:0:0:
436,227,18970,6,0,P|376:207|320:234,1,127.5,0|0,0:0|0:0,0:0:0:0:
384,291,19431,2,0,P|432:310|481:294,1,85,8|0,0:0|0:0,0:0:0:0:
320,233,19893,1,0,0:0:0:0:
281,219,20008,1,0,0:0:0:0:
239,214,20123,1,0,0:0:0:0:
196,218,20239,1,0,0:0:0:0:
156,232,20354,1,8,0:0:0:0:
33,114,20585,1,0,0:0:0:0:
33,114,20816,6,0,P|93:134|149:107,1,127.5,0|0,0:0|0:0,0:0:0:0:
85,50,21277,2,0,P|37:31|-11:46,1,85,8|0,0:0|0:0,0:0:0:0:
148,107,21739,1,0,0:0:0:0:
162,146,21854,1,0,0:0:0:0:
167,188,21969,1,0,0:0:0:0:
163,231,22085,1,0,0:0:0:0:
144,269,22200,2,0,P|181:294|230:295,1,85,8|0,0:0|0:0,0:0:0:0:
447,111,22662,5,2,0:0:0:0:
442,68,22777,1,2,0:0:0:0:
401,61,22892,1,2,0:0:0:0:
380,97,23008,1,2,0:0:0:0:
410,125,23124,2,0,L|308:140,1,85,0|2,0:0|0:0,0:0:0:0:
153,161,23585,6,0,P|134:106|189:87,1,127.500004863739
450,238,24508,6,0,P|470:298|443:354,1,127.5
386,290,24970,2,0,P|367:242|381:192,1,85,8|0,0:0|0:0,0:0:0:0:
351,40,25431,2,0,P|299:27|264:38,1,85,0|0,0:0|0:0,0:0:0:0:
309,113,25778,1,0,0:0:0:0:
309,113,25893,2,0,P|252:121|224:109,1,85,8|0,0:0|0:0,0:0:0:0:
59,143,26355,6,0,P|114:132|145:146,1,85,0|0,0:0|0:0,0:0:0:0:
101,216,26700,1,0,0:0:0:0:
101,216,26816,2,0,P|155:226|187:208,1,85,8|0,0:0|0:0,0:0:0:0:
349,235,27278,2,0,P|294:224|263:238,1,85,0|0,0:0|0:0,0:0:0:0:
307,308,27625,1,0,0:0:0:0:
307,308,27739,2,0,P|253:318|221:300,1,85,8|0,0:0|0:0,0:0:0:0:
73,233,28200,6,0,P|53:173|80:117,1,127.5,2|0,0:0|0:0,0:0:0:0:
137,181,28662,2,0,P|156:229|142:279,2,85,8|0|0,0:0|0:0|0:0,0:0:0:0:
254,56,29355,1,0,0:0:0:0:
254,56,29470,1,0,0:0:0:0:
254,56,29585,2,0,P|250:97|268:135,1,85,8|0,0:0|0:0,0:0:0:0:
439,129,30047,5,0,0:0:0:0:
457,167,30162,1,0,0:0:0:0:
464,208,30277,1,0,0:0:0:0:
459,250,30393,1,0,0:0:0:0:
443,290,30508,1,8,0:0:0:0:
333,222,30739,1,0,0:0:0:0:
168,343,30970,1,2,0:0:0:0:
168,343,31085,2,0,L|190:235,1,85,2|2,0:0|0:0,0:0:0:0:
142,185,31431,1,2,0:0:0:0:
142,185,31662,1,0,0:0:0:0:
215,122,31893,6,0,P|275:142|331:115,1,127.5,0|2,0:0|0:0,0:0:0:0:
267,58,32354,2,0,P|219:39|170:55,1,85,8|0,0:0|0:0,0:0:0:0:
62,160,32816,1,0,0:0:0:0:
185,244,33047,1,0,0:0:0:0:
128,105,33277,1,8,0:0:0:0:
104,258,33508,1,0,0:0:0:0:
274,255,33739,6,0,P|334:235|390:262,1,127.5,2|2,0:0|0:0,0:0:0:0:
326,319,34200,2,0,P|278:338|228:324,2,85,8|0|0,0:0|0:0|0:0,0:0:0:0:
333,159,34893,1,0,0:0:0:0:
452,300,35124,1,8,0:0:0:0:
437,189,35355,1,0,0:0:0:0:
252,180,35585,6,0,P|192:200|136:173,1,127.5,2|2,0:0|0:0,0:0:0:0:
200,116,36047,2,0,P|248:97|298:111,1,85,8|0,0:0|0:0,0:0:0:0:
345,246,36508,1,0,0:0:0:0:
367,71,36739,1,0,0:0:0:0:
279,277,36970,1,8,0:0:0:0:
392,142,37201,1,0,0:0:0:0:
210,222,37431,6,0,P|169:209|99:235,1,95.6250036478044,6|2,0:0|0:0,0:0:0:0:
218,319,38124,2,0,P|283:357|370:303,1,159.375006079674,6|0,0:0|0:0,0:0:0:0:
289,273,38816,1,8,0:0:0:0:
391,137,39047,1,0,0:0:0:0:
261,52,39278,6,0,P|201:32|145:59,1,127.5,2|2,0:0|0:0,0:0:0:0:
209,116,39739,2,0,P|257:135|307:121,1,85,8|0,0:0|0:0,0:0:0:0:
365,56,40201,2,0,P|393:114|356:213,1,170,0|8,0:0|0:0,0:0:0:0:
170,332,41124,6,0,P|230:352|286:325,1,127.5,2|2,0:0|0:0,0:0:0:0:
222,268,41585,2,0,P|174:249|124:263,1,85,8|0,0:0|0:0,0:0:0:0:
38,328,42047,2,0,P|10:270|47:171,1,170,0|8,0:0|0:0,0:0:0:0:
437,136,42970,6,0,P|457:76|430:20,1,127.5,2|2,0:0|0:0,0:0:0:0:
373,84,43431,2,0,P|354:132|368:182,1,85,8|0,0:0|0:0,0:0:0:0:
433,268,43893,2,0,P|375:296|276:259,1,170,0|8,0:0|0:0,0:0:0:0:
209,178,44585,1,0,0:0:0:0:
109,235,44816,6,0,P|89:295|116:351,1,127.5,2|0,0:0|0:0,0:0:0:0:
173,287,45277,2,0,P|192:239|178:189,1,85,8|0,0:0|0:0,0:0:0:0:
262,50,45739,1,2,0:0:0:0:
262,50,45854,2,0,P|243:98|257:148,1,85,10|2,0:0|0:0,0:0:0:0:
329,103,46200,1,2,0:0:0:0:
329,103,46431,1,0,0:0:0:0:
437,147,46662,6,0,B|460:291|460:291|486:213,2,216.750004134178,2|2|2,0:0|0:0|0:0,0:0:0:0:
326,53,48508,6,0,L|174:38,1,144.500002756119,4|0,0:0|0:0,0:0:0:0:
101,71,49201,1,0,0:0:0:0:
163,139,49431,1,0,0:0:0:0:
93,191,49662,1,0,0:0:0:0:
163,139,49893,1,0,0:0:0:0:
179,224,50124,1,0,0:0:0:0:
247,170,50355,6,4,B|394:187|394:187|322:224,2,216.750004134178,2|2|2,0:0|0:0|0:0,0:0:0:0:
95,157,52200,6,0,L|80:308,1,144.500002756119,4|0,0:0|0:0,0:0:0:0:
149,353,52893,1,0,0:0:0:0:
210,292,53123,1,0,0:0:0:0:
264,359,53354,1,0,0:0:0:0:
210,292,53585,1,0,0:0:0:0:
291,261,53816,1,0,0:0:0:0:
354,320,54047,6,0,P|393:315|431:324,1,72.2500013780594,4|0,0:0|0:0,0:0:0:0:
480,187,54508,1,8,0:0:0:0:
425,322,54739,1,8,0:0:0:0:
412,204,54969,1,8,0:0:0:0:
239,167,55201,2,0,L|208:156,2,18.0625003445149,8|0|0,0:0|0:0|0:0,0:0:0:0:
270,185,55431,2,0,L|346:189,1,72.2500013780594,8|8,0:0|0:0,0:0:0:0:
330,73,55778,1,0,0:0:0:0:
330,73,55893,6,0,L|257:69,1,72.2500013780594,8|8,0:0|0:0,0:0:0:0:
58,195,56355,1,8,0:0:0:0:
91,52,56586,1,8,0:0:0:0:
122,261,56816,1,8,0:0:0:0:
257,160,57048,2,8,L|288:171,2,18.0625003445149
222,169,57278,2,0,L|145:164,1,72.2500013780594,8|0,0:0|0:0,0:0:0:0:
91,52,57739,6,0,P|109:6|109:-10,1,36.1250006890297
60,152,57970,2,0,P|42:198|42:214,1,36.1250006890297,0|2,0:0|0:0,0:0:0:0:
81,314,58201,2,0,P|99:268|99:252,1,36.1250006890297
214,235,58431,2,0,P|204:250|198:267,1,36.1250006890297
331,207,58662,5,0,0:0:0:0:
348,175,58777,1,0,0:0:0:0:
359,140,58892,1,0,0:0:0:0:
375,107,59008,1,0,0:0:0:0:
408,93,59123,1,0,0:0:0:0:
396,127,59238,1,0,0:0:0:0:
382,160,59354,1,0,0:0:0:0:
367,192,59469,1,0,0:0:0:0:
375,265,59585,5,10,0:0:0:0:
393,159,60739,5,2,0:0:0:0:
188,113,60970,2,0,P|132:129|128:129,2,36.1250006890297,8|0|0,0:0|0:0|0:0,0:0:0:0:
204,193,61316,1,0,0:0:0:0:
204,193,61431,6,0,P|214:238|202:278,1,85,2|0,0:0|0:0,0:0:0:0:
98,332,61893,1,8,0:0:0:0:
284,256,62124,1,2,0:0:0:0:
121,256,62355,1,0,0:0:0:0:
311,335,62586,1,2,0:0:0:0:
421,208,62816,2,0,P|477:192|483:191,2,42.5,8|0|0,0:0|0:0|0:0,0:0:0:0:
400,125,63162,1,0,0:0:0:0:
400,125,63277,6,0,P|390:80|402:40,1,85,2|0,0:0|0:0,0:0:0:0:
298,172,63739,2,0,P|307:209|292:273,2,85,8|2|0,0:0|0:0|0:0,0:0:0:0:
298,172,64431,1,2,0:0:0:0:
184,299,64662,2,0,P|128:283|122:282,2,42.5,8|0|0,0:0|0:0|0:0,0:0:0:0:
203,215,65008,1,0,0:0:0:0:
203,215,65124,6,0,P|213:170|201:130,1,85,2|0,0:0|0:0,0:0:0:0:
119,21,65585,2,0,P|109:66|121:106,1,85,8|2,0:0|0:0,0:0:0:0:
66,246,66047,2,0,P|76:201|64:161,1,85,0|2,0:0|0:0,0:0:0:0:
196,55,66508,1,8,0:0:0:0:
230,44,66623,1,0,0:0:0:0:
266,42,66738,1,0,0:0:0:0:
301,50,66854,1,0,0:0:0:0:
341,63,66970,6,0,P|386:73|426:61,1,85,2|0,0:0|0:0,0:0:0:0:
467,227,67431,2,0,P|422:217|382:229,1,85,8|0,0:0|0:0,0:0:0:0:
263,346,67893,2,0,P|308:356|348:344,1,85,0|2,0:0|0:0,0:0:0:0:
242,226,68355,2,0,P|197:216|157:228,1,85,8|2,0:0|0:0,0:0:0:0:
109,167,68701,1,0,0:0:0:0:
109,167,68816,6,0,P|129:107|102:51,1,127.5,2|0,0:0|0:0,0:0:0:0:
45,112,69278,1,8,0:0:0:0:
68,300,69508,1,2,0:0:0:0:
68,300,69624,1,0,0:0:0:0:
68,300,69739,2,0,P|131:296|166:312,1,85,0|2,0:0|0:0,0:0:0:0:
304,310,70201,2,0,P|361:314|330:272,1,127.5,8|0,0:0|0:0,0:0:0:0:
419,359,70662,6,0,P|435:312|405:231,1,127.5,2|0,0:0|0:0,0:0:0:0:
353,193,71124,1,8,0:0:0:0:
427,59,71355,1,2,0:0:0:0:
427,59,71471,1,0,0:0:0:0:
427,59,71586,2,0,P|364:63|329:47,1,85,0|2,0:0|0:0,0:0:0:0:
191,49,72047,2,0,P|134:45|165:87,1,127.5,8|0,0:0|0:0,0:0:0:0:
76,5,72508,6,0,P|61:49|75:103,1,85,2|0,0:0|0:0,0:0:0:0:
116,231,72970,1,8,0:0:0:0:
219,342,73200,1,2,0:0:0:0:
128,158,73431,2,0,P|166:177|185:217,1,85,8|2,0:0|0:0,0:0:0:0:
100,345,73893,1,8,0:0:0:0:
255,263,74124,1,2,0:0:0:0:
427,313,74355,5,14,0:0:0:0:
414,272,74470,1,0,0:0:0:0:
428,232,74585,1,4,0:0:0:0:
419,190,74701,1,0,0:0:0:0:
439,152,74816,2,0,P|452:106|442:70,1,85,12|0,0:0|0:0,0:0:0:0:
291,78,75278,1,2,0:0:0:0:
291,78,75393,2,2,P|278:124|288:160,1,85
317,226,75739,2,0,P|330:272|320:308,1,85,8|2,0:0|0:0,0:0:0:0:
219,186,76201,5,2,0:0:0:0:
78,296,76547,1,0,0:0:0:0:
78,296,76662,1,8,0:0:0:0:
86,177,76893,2,0,P|82:116|127:166,1,170,2|2,0:0|0:0,0:0:0:0:
249,60,77585,2,0,P|295:73|331:63,1,85,8|0,0:0|0:0,0:0:0:0:
321,195,78047,5,2,0:0:0:0:
463,302,78393,1,0,0:0:0:0:
463,302,78508,1,8,0:0:0:0:
450,183,78739,2,0,P|454:122|409:172,1,170,2|2,0:0|0:0,0:0:0:0:
355,278,79431,1,8,0:0:0:0:
208,328,79662,1,0,0:0:0:0:
208,328,79778,1,0,0:0:0:0:
208,328,79893,6,0,P|145:317|114:325,1,85,2|0,0:0|0:0,0:0:0:0:
35,196,80355,2,0,P|98:207|129:199,1,85,8|2,0:0|0:0,0:0:0:0:
224,92,80816,2,0,P|161:81|130:89,1,85,0|2,0:0|0:0,0:0:0:0:
288,39,81278,1,8,0:0:0:0:
428,98,81508,1,0,0:0:0:0:
288,210,81739,6,0,P|283:259|296:300,1,85,2|0,0:0|0:0,0:0:0:0:
242,130,82201,1,8,0:0:0:0:
382,189,82431,1,2,0:0:0:0:
170,100,82662,2,0,P|175:51|162:10,1,85,0|2,0:0|0:0,0:0:0:0:
103,157,83124,2,0,P|98:206|111:247,1,85,8|0,0:0|0:0,0:0:0:0:
214,347,83586,5,2,0:0:0:0:
334,216,83931,1,0,0:0:0:0:
334,216,84047,1,8,0:0:0:0:
240,142,84278,2,0,P|245:69|346:34,1,170,2|2,0:0|0:0,0:0:0:0:
173,53,84970,2,0,P|161:95|163:135,1,85,8|0,0:0|0:0,0:0:0:0:
66,205,85431,5,2,0:0:0:0:
240,142,85778,1,0,0:0:0:0:
240,142,85892,1,8,0:0:0:0:
214,258,86123,2,0,P|286:265|338:172,1,170,2|2,0:0|0:0,0:0:0:0:
351,312,86816,2,0,P|386:275|407:227,1,85,8|0,0:0|0:0,0:0:0:0:
433,85,87278,5,2,0:0:0:0:
490,236,87508,1,0,0:0:0:0:
497,21,87739,1,8,0:0:0:0:
430,179,87970,1,2,0:0:0:0:
348,83,88201,2,0,P|390:88|432:84,1,85,0|2,0:0|0:0,0:0:0:0:
266,46,88662,2,0,P|218:42|175:49,1,85,8|0,0:0|0:0,0:0:0:0:
60,203,89124,5,2,0:0:0:0:
29,232,89239,1,2,0:0:0:0:
18,272,89354,1,2,0:0:0:0:
32,312,89470,1,2,0:0:0:0:
66,337,89585,1,2,0:0:0:0:
108,335,89700,1,2,0:0:0:0:
145,314,89816,1,2,0:0:0:0:
158,273,89931,1,2,0:0:0:0:
150,230,90047,5,2,0:0:0:0:
137,189,90162,1,2,0:0:0:0:
116,151,90278,1,2,0:0:0:0:
114,108,90393,1,2,0:0:0:0:
142,76,90508,1,10,0:0:0:0:
281,128,90970,6,0,P|340:147|396:120,1,127.5,2|2,0:0|0:0,0:0:0:0:
333,64,91431,2,0,P|285:45|235:59,1,85,8|0,0:0|0:0,0:0:0:0:
66,87,91893,1,0,0:0:0:0:
73,128,92008,1,0,0:0:0:0:
81,170,92123,1,0,0:0:0:0:
89,212,92239,1,0,0:0:0:0:
97,254,92354,1,8,0:0:0:0:
267,262,92585,1,0,0:0:0:0:
267,262,92701,1,0,0:0:0:0:
267,262,92816,6,0,P|326:243|382:270,1,127.5,2|2,0:0|0:0,0:0:0:0:
319,326,93277,2,0,P|271:345|221:331,1,85,8|0,0:0|0:0,0:0:0:0:
93,250,93739,1,0,0:0:0:0:
101,209,93854,1,0,0:0:0:0:
109,167,93969,1,0,0:0:0:0:
117,125,94085,1,0,0:0:0:0:
125,83,94200,1,8,0:0:0:0:
192,175,94431,1,0,0:0:0:0:
292,110,94662,6,0,P|351:91|407:118,1,127.5,2|2,0:0|0:0,0:0:0:0:
344,174,95124,2,0,P|296:193|246:179,1,85,8|0,0:0|0:0,0:0:0:0:
93,201,95585,1,0,0:0:0:0:
75,162,95700,1,0,0:0:0:0:
73,120,95815,1,0,0:0:0:0:
88,81,95931,1,0,0:0:0:0:
125,60,96047,2,0,L|209:49,1,85,8|0,0:0|0:0,0:0:0:0:
408,89,96508,5,2,0:0:0:0:
365,94,96623,1,0,0:0:0:0:
358,135,96738,1,0,0:0:0:0:
394,156,96854,1,2,0:0:0:0:
422,126,96970,2,0,L|437:228,1,85,8|0,0:0|0:0,0:0:0:0:
399,354,97431,6,0,P|345:335|364:281,1,127.500004863739,0|8,0:0|0:0,0:0:0:0:
215,217,98354,6,0,P|155:199|115:214,1,95.6250036478044,2|2,0:0|0:0,0:0:0:0:
163,281,98816,2,0,P|211:300|261:286,1,85,8|0,0:0|0:0,0:0:0:0:
377,219,99278,2,0,L|385:124,1,85,0|0,0:0|0:0,0:0:0:0:
339,72,99624,1,0,0:0:0:0:
339,72,99739,2,0,P|287:80|254:72,1,85,8|0,0:0|0:0,0:0:0:0:
127,156,100201,6,0,L|118:250,1,85,2|0,0:0|0:0,0:0:0:0:
165,303,100547,1,2,0:0:0:0:
165,303,100662,2,0,P|217:295|250:303,1,85,8|0,0:0|0:0,0:0:0:0:
272,150,101124,2,0,L|366:141,1,85
419,188,101470,1,0,0:0:0:0:
419,188,101585,2,0,P|411:240|419:273,1,85,8|0,0:0|0:0,0:0:0:0:
195,272,102047,6,0,P|254:253|310:280,1,127.5,2|2,0:0|0:0,0:0:0:0:
247,336,102508,2,0,P|199:355|149:341,2,85,8|0|0,0:0|0:0|0:0,0:0:0:0:
103,280,103201,1,0,0:0:0:0:
103,280,103316,1,0,0:0:0:0:
103,280,103431,2,0,P|114:230|104:191,1,85,8|0,0:0|0:0,0:0:0:0:
189,68,103893,5,2,0:0:0:0:
356,100,104124,2,0,L|403:72,1,42.5,0|2,0:0|0:0,0:0:0:0:
461,128,104355,2,0,L|508:100,1,42.5,8|2,0:0|0:0,0:0:0:0:
396,180,104585,1,2,0:0:0:0:
363,207,104701,1,2,0:0:0:0:
328,232,104816,1,2,0:0:0:0:
290,251,104931,2,0,L|312:143,1,85,2|2,0:0|0:0,0:0:0:0:
281,86,105277,1,2,0:0:0:0:
281,86,105508,1,0,0:0:0:0:
113,54,105739,6,0,P|130:111|99:191,2,127.5,2|0|2,0:0|0:0|0:0,0:0:0:0:
49,211,106662,2,0,P|42:276|70:315,1,85
219,312,107124,1,8,0:0:0:0:
257,294,107239,1,0,0:0:0:0:
299,295,107354,1,0,0:0:0:0:
337,314,107470,1,0,0:0:0:0:
368,343,107585,6,0,L|385:255,1,85,2|0,0:0|0:0,0:0:0:0:
354,179,107931,1,2,0:0:0:0:
354,179,108047,2,0,P|345:121|368:78,1,85,8|0,0:0|0:0,0:0:0:0:
193,39,108508,2,0,L|92:47,1,85,0|0,0:0|0:0,0:0:0:0:
34,199,108970,2,0,L|118:192,1,85,8|0,0:0|0:0,0:0:0:0:
249,301,109431,6,0,L|148:309,1,85,2|0,0:0|0:0,0:0:0:0:
195,227,109778,1,2,0:0:0:0:
195,227,109893,2,0,P|194:162|177:133,1,85,8|0,0:0|0:0,0:0:0:0:
305,23,110355,2,0,P|306:88|323:117,1,85,0|0,0:0|0:0,0:0:0:0:
379,159,110701,1,0,0:0:0:0:
379,159,110816,2,0,P|392:198|388:240,1,85,8|0,0:0|0:0,0:0:0:0:
278,293,111278,5,2,0:0:0:0:
236,299,111393,1,0,0:0:0:0:
194,290,111508,1,0,0:0:0:0:
151,297,111624,1,2,0:0:0:0:
109,287,111739,1,8,0:0:0:0:
75,122,111970,1,0,0:0:0:0:
37,293,112201,1,0,0:0:0:0:
37,293,112662,2,0,L|47:184,1,85,8|0,0:0|0:0,0:0:0:0:
80,130,113008,1,2,0:0:0:0:
80,130,113124,6,0,P|134:144|172:131,1,85,2|0,0:0|0:0,0:0:0:0:
236,97,113470,1,2,0:0:0:0:
236,97,113585,1,8,0:0:0:0:
398,147,113816,1,0,0:0:0:0:
278,25,114047,2,0,P|197:24|180:36,1,85,0|0,0:0|0:0,0:0:0:0:
119,159,114509,1,8,0:0:0:0:
119,159,114624,1,0,0:0:0:0:
119,159,114739,1,0,0:0:0:0:
189,297,114970,6,0,P|190:216|178:199,1,85,2|0,0:0|0:0,0:0:0:0:
211,132,115316,1,2,0:0:0:0:
211,132,115431,2,0,P|292:133|309:121,1,85,8|0,0:0|0:0,0:0:0:0:
373,283,115893,2,0,P|372:202|384:185,1,85,0|0,0:0|0:0,0:0:0:0:
438,43,116354,2,0,P|439:124|427:141,1,85,8|0,0:0|0:0,0:0:0:0:
373,283,116816,6,0,P|299:266|197:287,1,170,2|8,0:0|0:0,0:0:0:0:
49,53,117739,2,0,P|123:70|225:49,1,170,2|8,0:0|0:0,0:0:0:0:
322,133,118431,1,0,0:0:0:0:
322,133,118662,6,0,P|385:153|361:186,1,127.5,2|0,0:0|0:0,0:0:0:0:
364,184,119124,6,0,P|376:240|303:226,1,140.25000428009,8|0,0:0|0:0,0:0:0:0:
311,243,119585,6,0,P|261:279|232:207,1,152.999995330811,2|2,0:0|0:0,0:0:0:0:
228,214,120047,6,0,P|171:173|240:124,1,165.749992412568,8|0,0:0|0:0,0:0:0:0:
181,49,120508,6,0,P|132:77|113:236,2,216.750004134178,2|2|2,0:0|0:0|0:0,0:0:0:0:
326,36,122355,6,0,L|341:188,1,144.500002756119,4|0,0:0|0:0,0:0:0:0:
259,210,123047,1,0,0:0:0:0:
334,271,123277,1,0,0:0:0:0:
264,323,123508,1,0,0:0:0:0:
334,271,123739,1,0,0:0:0:0:
350,356,123970,1,0,0:0:0:0:
264,323,124201,6,0,P|216:353|64:311,2,216.750004134178,2|2|2,0:0|0:0|0:0,0:0:0:0:
436,304,126047,6,0,P|406:238|445:164,1,144.500002756119,4|0,0:0|0:0,0:0:0:0:
490,110,126739,1,0,0:0:0:0:
404,92,126970,1,0,0:0:0:0:
463,28,127201,1,0,0:0:0:0:
404,92,127431,1,0,0:0:0:0:
348,25,127662,1,0,0:0:0:0:
291,90,127893,6,0,P|252:95|214:86,1,72.2500013780594,2|0,0:0|0:0,0:0:0:0:
158,211,128354,1,2,0:0:0:0:
220,88,128585,1,0,0:0:0:0:
230,200,128816,1,2,0:0:0:0:
409,220,129047,2,0,L|440:231,2,18.0625003445149
373,213,129277,2,0,L|297:209,1,72.2500013780594,2|0,0:0|0:0,0:0:0:0:
325,330,129624,1,0,0:0:0:0:
325,330,129739,6,0,L|398:334,1,72.2500013780594,2|0,0:0|0:0,0:0:0:0:
512,135,130201,1,2,0:0:0:0:
476,293,130432,1,0,0:0:0:0:
416,102,130662,1,2,0:0:0:0:
271,184,130893,2,0,L|240:173,2,18.0625003445149
303,202,131124,2,0,L|380:207,1,72.2500013780594,2|0,0:0|0:0,0:0:0:0:
396,85,131585,5,0,0:0:0:0:
362,75,131700,1,0,0:0:0:0:
326,71,131816,1,0,0:0:0:0:
290,74,131931,1,2,0:0:0:0:
256,85,132046,1,0,0:0:0:0:
227,107,132162,1,0,0:0:0:0:
205,135,132278,6,0,P|187:181|187:197,1,36.1250006890297
233,297,132509,2,0,P|251:251|251:235,1,36.1250006890297,2|0,0:0|0:0,0:0:0:0:
126,311,132740,2,0,P|108:357|108:373,1,36.1250006890297
298,345,132971,2,0,P|337:337|387:352,1,72.2500013780594,2|0,0:0|0:0,0:0:0:0:
471,210,133431,5,10,0:0:0:0:
157,129,134585,5,2,0:0:0:0:
357,46,134816,2,0,P|301:30|297:30,2,36.1250006890297,8|0|0,0:0|0:0|0:0,0:0:0:0:
428,76,135162,1,0,0:0:0:0:
428,76,135277,6,0,L|423:173,1,72.2500013780594,2|0,0:0|0:0,0:0:0:0:
419,255,135739,1,8,0:0:0:0:
287,176,135970,1,2,0:0:0:0:
439,286,136201,1,0,0:0:0:0:
249,165,136431,1,2,0:0:0:0:
187,324,136662,2,0,P|219:341|244:345,2,42.5,8|0|0,0:0|0:0|0:0,0:0:0:0:
114,289,137008,1,0,0:0:0:0:
114,289,137124,6,0,L|118:192,1,85,2|0,0:0|0:0,0:0:0:0:
101,110,137585,2,0,P|69:93|14:95,2,85,8|2|0,0:0|0:0|0:0,0:0:0:0:
101,110,138278,1,2,0:0:0:0:
393,22,138508,2,0,P|337:38|331:39,2,42.5,8|0|0,0:0|0:0|0:0,0:0:0:0:
412,106,138854,1,0,0:0:0:0:
412,106,138970,6,0,L|407:202,1,85,2|0,0:0|0:0,0:0:0:0:
307,327,139431,2,0,L|310:242,1,85,8|2,0:0|0:0,0:0:0:0:
224,94,139893,2,0,L|219:190,1,85,0|2,0:0|0:0,0:0:0:0:
91,290,140355,1,8,0:0:0:0:
80,256,140470,1,0,0:0:0:0:
78,220,140585,1,0,0:0:0:0:
86,185,140701,1,0,0:0:0:0:
99,145,140817,6,0,P|109:100|97:60,1,85,2|0,0:0|0:0,0:0:0:0:
261,14,141278,2,0,P|251:59|263:99,1,85,8|2,0:0|0:0,0:0:0:0:
369,268,141739,2,0,P|379:223|367:183,1,85,0|2,0:0|0:0,0:0:0:0:
232,321,142201,2,0,P|187:311|147:323,1,85,8|0,0:0|0:0,0:0:0:0:
99,262,142547,1,2,0:0:0:0:
99,262,142662,6,0,P|119:202|92:146,1,127.5,2|0,0:0|0:0,0:0:0:0:
35,207,143124,1,8,0:0:0:0:
70,40,143354,1,2,0:0:0:0:
70,40,143470,1,0,0:0:0:0:
70,40,143585,2,0,P|115:50|155:38,1,85,0|2,0:0|0:0,0:0:0:0:
307,109,144047,2,0,B|404:108|404:108|370:128,1,127.5,8|0,0:0|0:0,0:0:0:0:
316,182,144508,6,0,P|261:168|248:71,1,127.5,2|0,0:0|0:0,0:0:0:0:
281,35,144970,1,8,0:0:0:0:
157,151,145201,1,2,0:0:0:0:
157,151,145316,1,0,0:0:0:0:
157,151,145431,2,0,P|167:196|155:236,1,85,0|2,0:0|0:0,0:0:0:0:
311,305,145893,2,0,B|408:306|408:306|374:286,1,127.5,8|0,0:0|0:0,0:0:0:0:
319,231,146355,6,0,P|276:239|242:271,1,85,2|0,0:0|0:0,0:0:0:0:
105,360,146816,1,8,0:0:0:0:
76,201,147047,1,2,0:0:0:0:
240,341,147278,2,0,P|285:332|314:298,1,85,0|2,0:0|0:0,0:0:0:0:
76,201,147739,1,8,0:0:0:0:
105,360,147970,1,0,0:0:0:0:
266,188,148201,5,8,0:0:0:0:
305,203,148316,1,0,0:0:0:0:
346,197,148431,1,0,0:0:0:0:
381,217,148547,1,0,0:0:0:0:
428,209,148662,2,0,P|474:222|510:212,1,85,8|0,0:0|0:0,0:0:0:0:
512,58,149124,1,2,0:0:0:0:
512,58,149239,2,0,P|466:45|430:55,1,85,2|2,0:0|0:0,0:0:0:0:
361,85,149585,2,0,P|315:98|279:88,1,85,2|2,0:0|0:0,0:0:0:0:
116,36,150047,5,2,0:0:0:0:
69,208,150393,1,2,0:0:0:0:
69,208,150508,1,8,0:0:0:0:
160,284,150739,2,0,P|203:316|139:301,1,170,2|2,0:0|0:0,0:0:0:0:
214,164,151431,2,0,P|257:152|299:168,1,85,8|0,0:0|0:0,0:0:0:0:
404,117,151893,5,2,0:0:0:0:
467,283,152239,1,2,0:0:0:0:
467,283,152355,1,8,0:0:0:0:
348,285,152585,2,0,P|305:317|369:302,1,170,2|2,0:0|0:0,0:0:0:0:
339,149,153278,1,8,0:0:0:0:
194,59,153508,1,0,0:0:0:0:
194,59,153624,1,0,0:0:0:0:
194,59,153739,6,0,P|136:69|111:59,1,85,2|0,0:0|0:0,0:0:0:0:
258,150,154201,2,0,P|316:140|341:150,1,85,8|2,0:0|0:0,0:0:0:0:
337,319,154662,2,0,P|279:329|254:319,1,85,0|2,0:0|0:0,0:0:0:0:
395,200,155124,1,8,0:0:0:0:
336,61,155354,1,0,0:0:0:0:
224,200,155585,6,0,P|174:205|133:192,1,85,2|0,0:0|0:0,0:0:0:0:
304,246,156047,1,8,0:0:0:0:
245,106,156277,1,2,0:0:0:0:
334,318,156508,2,0,P|383:313|424:326,1,85,0|2,0:0|0:0,0:0:0:0:
462,183,156970,2,0,P|457:134|470:93,1,85,8|0,0:0|0:0,0:0:0:0:
379,18,157431,5,2,0:0:0:0:
352,194,157778,1,2,0:0:0:0:
352,194,157893,1,8,0:0:0:0:
233,207,158124,2,0,B|167:227|115:212|115:212|143:181|177:174,1,170,2|2,0:0|0:0,0:0:0:0:
209,75,158816,2,0,P|160:64|118:72,1,85,8|0,0:0|0:0,0:0:0:0:
31,106,159278,5,2,0:0:0:0:
54,282,159623,1,2,0:0:0:0:
54,282,159739,1,8,0:0:0:0:
169,262,159970,2,0,B|235:242|287:257|287:257|259:288|225:295,1,170,2|2,0:0|0:0,0:0:0:0:
197,365,160662,2,0,P|245:380|285:373,1,85,8|0,0:0|0:0,0:0:0:0:
415,200,161124,5,2,0:0:0:0:
334,335,161355,1,0,0:0:0:0:
332,168,161585,1,8,0:0:0:0:
414,304,161816,1,2,0:0:0:0:
258,225,162047,2,0,P|206:232|168:219,1,85,0|2,0:0|0:0,0:0:0:0:
27,197,162508,2,0,P|79:190|117:203,1,85,8|0,0:0|0:0,0:0:0:0:
363,249,162970,5,2,0:0:0:0:
375,289,163085,1,2,0:0:0:0:
358,327,163200,1,2,0:0:0:0:
315,325,163316,1,2,0:0:0:0:
284,295,163431,1,2,0:0:0:0:
268,255,163546,1,2,0:0:0:0:
270,213,163662,1,2,0:0:0:0:
289,176,163777,1,2,0:0:0:0:
323,151,163893,5,2,0:0:0:0:
364,145,164008,1,2,0:0:0:0:
404,159,164123,1,2,0:0:0:0:
433,190,164239,1,2,0:0:0:0:
451,228,164354,1,10,0:0:0:0:
256,192,179124,12,0,180509,0:0:0:0:
250,178,180739,5,2,0:0:0:0:
394,88,180970,2,0,P|387:42|393:27,2,42.5,8|0|2,0:0|0:0|0:0,0:0:0:0:
461,140,181316,1,2,0:0:0:0:
461,140,181431,6,0,P|466:186|449:235,1,85,2|0,0:0|0:0,0:0:0:0:
284,295,181893,1,8,0:0:0:0:
467,304,182124,1,2,0:0:0:0:
305,211,182355,1,0,0:0:0:0:
416,367,182585,1,2,0:0:0:0:
204,324,182816,2,0,P|172:322|154:327,2,42.5,8|0|2,0:0|0:0|0:0,0:0:0:0:
219,240,183162,1,2,0:0:0:0:
219,240,183277,6,0,P|215:170|227:136,1,85,2|0,0:0|0:0,0:0:0:0:
219,71,183739,2,0,P|178:63|128:69,2,85,8|2|0,0:0|0:0|0:0,0:0:0:0:
219,71,184431,1,2,0:0:0:0:
389,72,184662,2,0,P|405:49|409:24,2,42.5,8|0|2,0:0|0:0|0:0,0:0:0:0:
359,152,185008,1,2,0:0:0:0:
359,152,185124,6,0,P|367:206|352:249,1,85,2|0,0:0|0:0,0:0:0:0:
221,334,185585,2,0,P|213:280|228:237,1,85,8|2,0:0|0:0,0:0:0:0:
89,141,186047,2,0,P|97:195|82:238,1,85,0|2,0:0|0:0,0:0:0:0:
28,64,186508,1,10,0:0:0:0:
62,53,186623,1,2,0:0:0:0:
98,51,186738,1,2,0:0:0:0:
133,59,186854,1,2,0:0:0:0:
173,72,186970,6,0,P|218:82|258:70,1,85,2|0,0:0|0:0,0:0:0:0:
410,140,187431,2,0,P|365:130|325:142,1,85,8|2,0:0|0:0,0:0:0:0:
168,200,187893,2,0,P|213:210|253:198,1,85,0|2,0:0|0:0,0:0:0:0:
405,269,188355,2,0,P|360:259|320:271,1,85,8|2,0:0|0:0,0:0:0:0:
265,331,188701,1,2,0:0:0:0:
265,331,188816,6,0,P|205:351|149:324,1,127.5,2|2,0:0|0:0,0:0:0:0:
210,270,189278,1,8,0:0:0:0:
76,165,189508,1,2,0:0:0:0:
76,165,189624,1,2,0:0:0:0:
76,165,189739,2,0,L|87:66,1,85,0|2,0:0|0:0,0:0:0:0:
236,161,190201,2,0,P|259:115|332:121,1,127.5,8|2,0:0|0:0,0:0:0:0:
384,181,190662,6,0,L|361:38,1,127.5,2|2,0:0|0:0,0:0:0:0:
285,21,191124,1,8,0:0:0:0:
127,85,191355,1,2,0:0:0:0:
127,85,191471,1,2,0:0:0:0:
127,85,191586,2,0,L|115:183,1,85,0|2,0:0|0:0,0:0:0:0:
252,273,192047,2,0,P|275:318|348:312,1,127.5,8|2,0:0|0:0,0:0:0:0:
378,238,192508,6,0,P|424:283|427:306,1,85,2|2,0:0|0:0,0:0:0:0:
446,130,192970,1,8,0:0:0:0:
290,198,193201,1,2,0:0:0:0:
282,64,193431,2,0,P|236:19|233:-4,1,85,0|2,0:0|0:0,0:0:0:0:
446,130,193893,1,8,0:0:0:0:
290,198,194124,1,0,0:0:0:0:
153,299,194355,5,10,0:0:0:0:
142,258,194470,1,2,0:0:0:0:
142,215,194585,1,2,0:0:0:0:
153,174,194701,1,2,0:0:0:0:
174,137,194816,2,0,P|187:91|177:55,1,85,8|0,0:0|0:0,0:0:0:0:
6,62,195278,1,2,0:0:0:0:
6,62,195393,2,2,P|-7:108|3:144,1,85,2|2,0:0|0:0,0:0:0:0:
33,213,195739,2,2,P|46:259|36:295,1,85,2|2,0:0|0:0,0:0:0:0:
139,355,196201,5,2,0:0:0:0:
195,185,196547,1,2,0:0:0:0:
195,185,196662,1,8,0:0:0:0:
146,76,196893,2,0,P|86:39|4:99,1,170,2|2,0:0|0:0,0:0:0:0:
219,51,197585,2,0,P|274:65|316:51,1,85,8|0,0:0|0:0,0:0:0:0:
330,174,198047,5,2,0:0:0:0:
434,318,198393,1,2,0:0:0:0:
434,318,198508,1,8,0:0:0:0:
478,207,198739,2,0,P|500:142|426:75,1,170,2|2,0:0|0:0,0:0:0:0:
316,74,199431,2,0,P|274:79|234:66,1,85,8|2,0:0|0:0,0:0:0:0:
121,21,199778,1,2,0:0:0:0:
121,21,199893,6,0,L|101:116,1,85,2|0,0:0|0:0,0:0:0:0:
41,263,200355,2,0,L|60:167,1,85,8|2,0:0|0:0,0:0:0:0:
142,31,200816,2,0,L|122:126,1,85,0|2,0:0|0:0,0:0:0:0:
121,281,201278,1,8,0:0:0:0:
217,162,201508,1,0,0:0:0:0:
263,325,201739,6,0,P|313:317|356:334,1,85,2|0,0:0|0:0,0:0:0:0:
483,227,202200,1,8,0:0:0:0:
368,101,202431,1,2,0:0:0:0:
254,230,202662,2,0,P|204:238|161:221,1,85,0|2,0:0|0:0,0:0:0:0:
286,98,203124,2,0,P|336:90|379:107,1,85,8|0,0:0|0:0,0:0:0:0:
434,199,203585,5,2,0:0:0:0:
274,278,203931,1,2,0:0:0:0:
274,278,204047,1,8,0:0:0:0:
165,231,204277,2,0,B|133:151|197:151|165:39,1,170,2|2,0:0|0:0,0:0:0:0:
286,32,204970,2,0,P|349:37|387:16,1,85,8|0,0:0|0:0,0:0:0:0:
463,101,205431,5,2,0:0:0:0:
426,275,205777,1,2,0:0:0:0:
426,275,205893,1,8,0:0:0:0:
306,279,206124,2,0,B|226:311|226:247|114:279,1,170,2|2,0:0|0:0,0:0:0:0:
89,164,206816,2,0,P|94:101|73:63,1,85,8|0,0:0|0:0,0:0:0:0:
253,35,207278,5,2,0:0:0:0:
322,181,207508,1,2,0:0:0:0:
177,82,207739,1,8,0:0:0:0:
345,99,207970,1,2,0:0:0:0:
173,173,208201,2,0,P|147:218|114:241,1,85,0|2,0:0|0:0,0:0:0:0:
26,354,208662,2,0,P|51:308|84:285,1,85,8|2,0:0|0:0,0:0:0:0:
398,130,209124,5,2,0:0:0:0:
400,151,209239,1,2,0:0:0:0:
401,173,209354,1,2,0:0:0:0:
403,194,209470,1,2,0:0:0:0:
404,215,209585,5,2,0:0:0:0:
364,229,209700,1,2,0:0:0:0:
321,231,209816,1,2,0:0:0:0:
282,214,209931,1,2,0:0:0:0:
242,198,210047,5,2,0:0:0:0:
191,202,210162,1,2,0:0:0:0:
176,251,210277,1,2,0:0:0:0:
219,278,210393,1,2,0:0:0:0:
259,251,210508,1,10,0:0:0:0:
