osu file format v14

[General]
AudioFilename: audio.mp3
AudioLeadIn: 0
PreviewTime: 60624
Countdown: 0
SampleSet: Soft
StackLeniency: 0.7
Mode: 0
LetterboxInBreaks: 0
WidescreenStoryboard: 0

[Editor]
Bookmarks: 17124,76201,164816,179585,181431
DistanceSpacing: 1.1
BeatDivisor: 4
GridSize: 4
TimelineZoom: 1

[Metadata]
Title:TT
TitleUnicode:TT
Artist:TWICE
ArtistUnicode:트와이스
Creator:Lilyanna
Version:Firetruck's Normal
Source:
Tags:JYP Entertainment TWICEcoaster : LANE 1 나연 정연 모모 사나 지효 미나 다현 채영 쯔위 Nayeon Jeongyeon Momo Sana Jihyo Mina Dahyun Chaeyoung Tzuyu K-Pop Kpop Nekomata Firetruck Kisses Irreversible wasinkingspeedq
BeatmapID:1151026
BeatmapSetID:543062

[Difficulty]
HPDrainRate:4
CircleSize:3.6
OverallDifficulty:4
ApproachRate:5
SliderMultiplier:1.1
SliderTickRate:1

[Events]
//Background and Video events
Video,-26222,"twice tt.mp4"
0,0,"fghbgfhf.jpg",0,0
//Break Periods
2,46862,52847
2,120708,126693
2,164816,177924
//Storyboard Layer 0 (Background)
//Storyboard Layer 1 (Fail)
//Storyboard Layer 2 (Pass)
//Storyboard Layer 3 (Foreground)
//Storyboard Sound Samples

[TimingPoints]
2355,461.538461538462,4,2,2,60,1,0
61431,-100,4,2,2,80,0,1
75278,-100,4,2,3,80,0,1
75739,-100,4,2,2,80,0,0
76201,-100,4,2,2,80,0,1
90047,-100,4,2,2,80,0,1
90970,-100,4,2,2,70,0,0
104585,-100,4,2,3,70,0,0
105508,-100,4,2,2,70,0,0
132508,-100,4,2,2,60,0,0
132970,-100,4,2,2,70,0,0
133431,-100,4,2,2,80,0,0
135278,-100,4,2,2,80,0,1
149124,-100,4,2,3,80,0,1
149585,-100,4,2,3,80,0,0
150047,-100,4,2,2,80,0,1
162970,-100,4,2,2,50,0,1
163893,-100,4,2,2,70,0,1
164354,-100,4,2,2,80,0,1
164816,-100,4,2,2,20,0,0
180739,-100,4,2,2,80,0,0
181431,-100,4,2,2,85,0,1
195278,-100,4,2,3,80,0,1
195739,-100,4,2,3,80,0,0
196201,-100,4,2,2,85,0,1
209124,-100,4,2,2,55,0,1
210047,-100,4,2,2,75,0,1
210508,-100,4,2,2,75,0,0

[Colours]
Combo1 : 125,162,111
Combo2 : 191,187,11
Combo3 : 255,100,104
Combo4 : 0,103,206

[HitObjects]
72,152,17124,6,0,P|125:141|181:151,1,110,0|8,0:0|0:0,0:0:0:0:
274,73,18047,2,0,L|304:18,2,55,0|0|8,0:0|0:0|0:0,0:0:0:0:
291,130,18739,1,0,0:0:0:0:
291,130,18970,6,0,P|306:185|288:234,1,110,0|8,0:0|0:0,0:0:0:0:
188,301,19893,2,0,L|123:260,2,55,0|0|8,0:0|0:0|0:0,0:0:0:0:
236,336,20585,1,0,0:0:0:0:
236,336,20816,6,0,P|289:347|347:336,1,110,0|8,0:0|0:0,0:0:0:0:
441,266,21739,2,0,L|497:301,2,55,0|0|8,0:0|0:0|0:0,0:0:0:0:
392,232,22431,1,0,0:0:0:0:
392,232,22662,6,0,P|380:178|400:126,2,110,2|0|0,0:0|0:0|0:0,0:0:0:0:
346,344,24047,1,0,0:0:0:0:
229,312,24508,6,0,B|195:305|174:311|174:311|149:320|112:312,1,110,0|8,0:0|0:0,0:0:0:0:
60,303,25201,1,0,0:0:0:0:
16,261,25431,2,0,B|30:208|30:208|20:136,1,110,0|8,0:0|0:0,0:0:0:0:
16,92,26124,1,0,0:0:0:0:
48,40,26355,6,0,P|98:50|153:28,1,110,0|8,0:0|0:0,0:0:0:0:
208,12,27047,1,0,0:0:0:0:
264,32,27278,2,0,L|374:83,1,110,0|8,0:0|0:0,0:0:0:0:
468,140,28201,6,0,P|457:199|472:250,1,110,2|8,0:0|0:0,0:0:0:0:
468,308,28893,2,0,P|385:295|305:308,1,165,0|8,0:0|0:0,0:0:0:0:
228,212,30047,6,0,L|164:207,1,55
120,236,30508,2,0,L|56:231,1,55
11,259,30970,2,0,B|30:147,1,110,2|2,0:0|0:0,0:0:0:0:
81,41,31893,6,0,P|129:50|188:33,1,110,0|8,0:0|0:0,0:0:0:0:
246,18,32585,1,0,0:0:0:0:
306,27,32816,2,0,L|412:56,1,110,0|8,0:0|0:0,0:0:0:0:
474,160,33739,6,0,B|463:221|486:213|470:273,2,110,2|8|0,0:0|0:0|0:0,0:0:0:0:
412,56,35124,1,8,0:0:0:0:
291,77,35585,6,0,P|239:86|182:76,1,110,2|8,0:0|0:0,0:0:0:0:
124,61,36278,1,0,0:0:0:0:
70,89,36508,2,0,L|34:42,2,55,0|0|8,0:0|0:0|0:0,0:0:0:0:
145,183,37431,6,0,P|226:168|308:184,1,165,6|6,0:0|0:0,0:0:0:0:
479,238,38816,2,0,L|460:297,1,55,8|0,0:0|0:0,0:0:0:0:
477,349,39278,6,0,P|423:336|366:347,1,110,2|8,0:0|0:0,0:0:0:0:
311,359,39970,1,0,0:0:0:0:
251,349,40201,2,0,B|189:341|206:357|138:347,1,110,0|8,0:0|0:0,0:0:0:0:
20,359,41124,6,0,P|33:305|26:246,1,110,2|8,0:0|0:0,0:0:0:0:
22,190,41816,1,0,0:0:0:0:
23,129,42047,2,0,B|32:69|13:80|25:20,1,110,0|8,0:0|0:0,0:0:0:0:
144,39,42970,6,0,P|200:48|254:38,1,110,2|8,0:0|0:0,0:0:0:0:
311,29,43662,1,0,0:0:0:0:
364,56,43893,2,0,P|375:117|363:165,1,110,0|8,0:0|0:0,0:0:0:0:
328,278,44816,6,0,L|255:270,1,55,2|0,0:0|0:0,0:0:0:0:
215,292,45278,2,0,L|142:284,1,55,8|0,0:0|0:0,0:0:0:0:
100,274,45739,2,0,P|112:220|103:165,1,110,2|2,0:0|0:0,0:0:0:0:
82,47,46662,5,2,0:0:0:0:
455,72,54047,6,0,P|398:60|346:69,1,110,4|8,0:0|0:0,0:0:0:0:
290,87,54739,1,8,0:0:0:0:
232,68,54970,2,0,L|190:27,2,55,8|8|8,0:0|0:0|0:0,0:0:0:0:
294,171,55893,6,0,P|305:228|294:280,1,110,8|8,0:0|0:0,0:0:0:0:
270,333,56585,1,8,0:0:0:0:
221,368,56816,2,0,L|155:379,2,55,8|0|8,0:0|0:0|0:0,0:0:0:0:
231,247,57739,6,0,P|246:198|235:139,1,110,4|2,0:0|0:0,0:0:0:0:
217,83,58431,1,2,0:0:0:0:
217,83,58662,2,0,L|269:67,1,55,2|2,0:0|0:0,0:0:0:0:
329,75,59124,2,0,L|381:59,1,55,2|2,0:0|0:0,0:0:0:0:
440,43,59585,5,10,0:0:0:0:
194,310,60970,1,8,0:0:0:0:
104,229,61431,6,0,P|95:178|107:120,1,110,2|8,0:0|0:0,0:0:0:0:
133,67,62124,1,2,0:0:0:0:
133,67,62355,2,0,B|170:65|170:65|199:69|199:69|248:65,1,110,0|8,0:0|0:0,0:0:0:0:
362,52,63278,5,2,0:0:0:0:
362,52,63739,2,0,P|378:131|347:218,1,165,8|2,0:0|0:0,0:0:0:0:
317,258,64662,2,0,L|255:244,1,55,8|0,0:0|0:0,0:0:0:0:
207,270,65124,6,0,P|219:217|207:158,1,110,2|8,0:0|0:0,0:0:0:0:
197,103,65816,1,2,0:0:0:0:
197,103,66047,2,0,L|253:78,1,55,0|0,0:0|0:0,0:0:0:0:
306,93,66508,2,0,L|362:68,1,55,8|0,0:0|0:0,0:0:0:0:
405,35,66970,6,0,P|441:74|455:132,1,110,2|8,0:0|0:0,0:0:0:0:
462,188,67662,1,10,0:0:0:0:
465,248,67893,2,0,B|468:320,2,55,0|2|8,0:0|0:0|0:0,0:0:0:0:
358,189,68816,5,2,0:0:0:0:
275,100,69278,1,8,0:0:0:0:
189,185,69739,2,0,P|131:171|82:186,1,110,0|8,0:0|0:0,0:0:0:0:
20,288,70662,5,2,0:0:0:0:
136,253,71124,1,8,0:0:0:0:
252,286,71585,2,0,P|308:293|365:284,1,110,0|8,0:0|0:0,0:0:0:0:
454,208,72508,6,0,L|444:149,1,55,2|0,0:0|0:0,0:0:0:0:
452,93,72970,2,0,P|402:108|345:101,1,110,8|8,0:0|0:0,0:0:0:0:
225,82,73893,2,0,L|154:76,1,55,8|2,0:0|0:0,0:0:0:0:
118,109,74355,6,0,L|47:103,1,55,14|4,0:0|0:0,0:0:0:0:
3,116,74816,2,0,P|16:171|-7:233,2,110,12|2|8,0:0|0:0|0:0,0:0:0:0:
69,14,76201,6,0,L|176:68,1,110,2|8,0:0|0:0,0:0:0:0:
220,92,76893,2,0,P|273:80|329:92,1,110,2|2,0:0|0:0,0:0:0:0:
384,115,77585,2,0,L|407:171,1,55,8|0,0:0|0:0,0:0:0:0:
440,216,78047,6,0,L|336:264,1,110,2|8,0:0|0:0,0:0:0:0:
280,268,78739,2,0,P|262:218|271:156,1,110,2|2,0:0|0:0,0:0:0:0:
300,108,79431,1,8,0:0:0:0:
212,24,79893,6,0,L|147:12,1,55,2|0,0:0|0:0,0:0:0:0:
116,56,80355,2,0,L|51:44,1,55,2|0,0:0|0:0,0:0:0:0:
3,66,80816,1,0,0:0:0:0:
32,184,81278,2,0,L|95:194,1,55
146,204,81739,5,0,0:0:0:0:
189,317,82201,2,0,L|248:308,1,55
301,299,82662,1,0,0:0:0:0:
284,179,83124,1,0,0:0:0:0:
164,192,83585,6,0,L|132:84,1,110,2|8,0:0|0:0,0:0:0:0:
120,28,84278,2,0,B|174:8|177:37|230:20,1,110,2|2,0:0|0:0,0:0:0:0:
288,24,84970,2,0,L|297:94,1,55,8|0,0:0|0:0,0:0:0:0:
312,136,85431,6,0,P|248:128|196:144,1,110,2|8,0:0|0:0,0:0:0:0:
164,184,86124,2,0,P|149:237|166:292,1,110,2|2,0:0|0:0,0:0:0:0:
212,324,86816,1,8,0:0:0:0:
332,344,87278,6,0,P|388:332|443:343,2,110,2|8|0,0:0|0:0|0:0,0:0:0:0:
212,324,88662,1,8,0:0:0:0:
164,212,89124,6,0,B|246:188|238:228|332:205,1,165,2|2,0:0|0:0,0:0:0:0:
372,164,90047,1,2,0:0:0:0:
460,248,90508,1,10,0:0:0:0:
364,322,90970,6,0,P|308:302|256:300,1,110,2|8,0:0|0:0,0:0:0:0:
140,332,91893,2,0,L|83:360,2,55,0|0|8,0:0|0:0|0:0,0:0:0:0:
184,292,92585,1,0,0:0:0:0:
184,292,92816,6,0,P|198:243|187:185,1,110,2|8,0:0|0:0,0:0:0:0:
108,92,93739,2,0,L|53:63,2,55,0|0|8,0:0|0:0|0:0,0:0:0:0:
164,120,94431,1,0,0:0:0:0:
164,120,94662,6,0,P|217:109|271:117,1,110,2|8,0:0|0:0,0:0:0:0:
388,152,95585,2,0,L|451:146,2,55,0|0|8,0:0|0:0|0:0,0:0:0:0:
336,188,96278,1,0,0:0:0:0:
336,188,96508,6,0,P|327:243|343:298,2,110,2|8|0,0:0|0:0|0:0,0:0:0:0:
356,68,97893,1,8,0:0:0:0:
240,104,98355,6,0,B|207:99|207:99|171:102|171:102|114:94,1,110,2|8,0:0|0:0,0:0:0:0:
72,92,99047,1,0,0:0:0:0:
72,92,99278,2,0,P|86:171|61:252,1,165
64,312,100201,6,0,P|117:299|172:311,1,110,2|8,0:0|0:0,0:0:0:0:
228,328,100893,1,0,0:0:0:0:
228,328,101124,2,0,L|257:212,1,110,0|8,0:0|0:0,0:0:0:0:
324,120,102047,6,0,L|215:109,1,110,2|8,0:0|0:0,0:0:0:0:
169,68,102739,2,0,P|183:145|151:231,1,165,0|8,0:0|0:0,0:0:0:0:
84,323,103893,6,0,L|147:323,1,55,2|0,0:0|0:0,0:0:0:0:
193,349,104355,2,0,L|256:349,1,55,8|2,0:0|0:0,0:0:0:0:
308,348,104816,2,0,P|344:316|360:256,1,110,2|2,0:0|0:0,0:0:0:0:
356,136,105739,6,0,P|319:113|280:111,2,82.5,2|0|2,0:0|0:0|0:0,0:0:0:0:
396,184,106662,1,0,0:0:0:0:
376,304,107124,2,0,L|315:294,1,55,8|0,0:0|0:0,0:0:0:0:
288,244,107585,6,0,P|247:226|196:224,2,82.5,2|2|0,0:0|0:0|0:0,0:0:0:0:
321,295,108508,1,0,0:0:0:0:
396,200,108970,1,8,0:0:0:0:
316,112,109431,6,0,P|260:99|209:110,1,110,2|8,0:0|0:0,0:0:0:0:
160,144,110124,1,0,0:0:0:0:
164,204,110355,2,0,L|199:312,1,110,0|8,0:0|0:0,0:0:0:0:
318,320,111278,6,0,L|403:371,2,82.5,2|2|0,0:0|0:0|0:0,0:0:0:0:
270,282,112201,1,0,0:0:0:0:
222,170,112662,1,8,0:0:0:0:
122,240,113124,6,0,L|115:183,1,55,2|0,0:0|0:0,0:0:0:0:
66,149,113585,2,0,L|59:92,1,55,8|0,0:0|0:0,0:0:0:0:
53,33,114047,1,0,0:0:0:0:
167,70,114508,1,8,0:0:0:0:
280,28,114970,6,0,L|287:85,1,55,2|0,0:0|0:0,0:0:0:0:
265,139,115431,2,0,L|272:196,1,55,8|0,0:0|0:0,0:0:0:0:
280,253,115893,1,0,0:0:0:0:
387,197,116355,1,8,0:0:0:0:
489,260,116816,6,0,P|499:317|483:367,2,110,2|8|2,0:0|0:0|0:0,0:0:0:0:
387,197,118201,1,8,0:0:0:0:
280,256,118662,6,0,P|225:265|171:253,1,110,2|8,0:0|0:0,0:0:0:0:
120,224,119355,1,0,0:0:0:0:
76,184,119585,2,0,P|86:130|76:75,1,110,2|8,0:0|0:0,0:0:0:0:
188,28,120508,5,2,0:0:0:0:
461,42,127893,6,0,P|472:95|458:153,1,110,2|2,0:0|0:0,0:0:0:0:
449,208,128585,1,0,0:0:0:0:
435,266,128816,2,0,L|422:329,2,55,2|0|2,0:0|0:0|0:0,0:0:0:0:
323,219,129739,6,0,P|266:208|215:218,1,110,2|2,0:0|0:0,0:0:0:0:
164,249,130431,1,0,0:0:0:0:
110,277,130662,2,0,L|58:302,2,55,2|0|2,0:0|0:0|0:0,0:0:0:0:
209,345,131585,6,0,B|250:340|250:340|278:344|278:344|332:339,1,110,2|2,0:0|0:0,0:0:0:0:
378,337,132278,1,2,0:0:0:0:
378,337,132508,2,0,L|383:260,1,55,2|2,0:0|0:0,0:0:0:0:
409,228,132970,2,0,L|414:151,1,55,2|2,0:0|0:0,0:0:0:0:
415,112,133431,5,10,0:0:0:0:
415,112,134816,1,8,0:0:0:0:
471,218,135277,6,0,P|480:269|468:327,1,110,2|8,0:0|0:0,0:0:0:0:
413,352,135970,1,2,0:0:0:0:
413,352,136201,2,0,B|376:354|376:354|347:350|347:350|298:354,1,110,0|8,0:0|0:0,0:0:0:0:
183,335,137124,5,2,0:0:0:0:
183,335,137585,2,0,P|167:256|198:169,1,165,8|2,0:0|0:0,0:0:0:0:
216,121,138508,2,0,L|278:135,1,55,8|0,0:0|0:0,0:0:0:0:
324,107,138970,6,0,P|312:160|324:219,1,110,2|8,0:0|0:0,0:0:0:0:
328,274,139662,1,2,0:0:0:0:
328,274,139893,2,0,L|272:299,1,55
217,300,140354,2,0,L|161:325,1,55,8|0,0:0|0:0,0:0:0:0:
110,346,140816,6,0,P|74:307|60:249,1,110,2|8,0:0|0:0,0:0:0:0:
52,192,141508,1,10,0:0:0:0:
50,131,141739,2,0,B|50:58,2,55,0|2|8,0:0|0:0|0:0,0:0:0:0:
153,193,142662,5,2,0:0:0:0:
236,281,143124,1,8,0:0:0:0:
320,195,143585,2,0,P|378:209|427:194,1,110,0|8,0:0|0:0,0:0:0:0:
488,91,144508,5,2,0:0:0:0:
372,126,144970,1,8,0:0:0:0:
254,96,145431,2,0,P|198:89|141:98,1,110,0|8,0:0|0:0,0:0:0:0:
54,177,146354,6,0,L|64:236,1,55,2|0,0:0|0:0,0:0:0:0:
52,291,146816,2,0,P|102:276|159:283,1,110,8|8,0:0|0:0,0:0:0:0:
278,301,147739,2,0,L|349:307,1,55,8|2,0:0|0:0,0:0:0:0:
387,278,148201,6,0,L|458:284,1,55,14|4,0:0|0:0,0:0:0:0:
500,268,148662,2,0,P|487:213|510:151,2,110,12|2|8,0:0|0:0|0:0,0:0:0:0:
436,371,150047,6,0,L|332:316,1,110,2|8,0:0|0:0,0:0:0:0:
284,292,150739,2,0,P|231:304|175:292,1,110,2|2,0:0|0:0,0:0:0:0:
124,268,151431,2,0,L|101:212,1,55,8|0,0:0|0:0,0:0:0:0:
68,168,151893,6,0,L|176:128,1,110,2|8,0:0|0:0,0:0:0:0:
232,116,152585,2,0,P|250:166|233:228,1,110,2|2,0:0|0:0,0:0:0:0:
200,268,153277,1,8,0:0:0:0:
288,352,153739,6,0,L|353:364,1,55,2|0,0:0|0:0,0:0:0:0:
388,324,154201,2,0,L|453:336,1,55,2|0,0:0|0:0,0:0:0:0:
504,340,154662,1,0,0:0:0:0:
473,222,155124,2,0,L|411:211,1,55
359,198,155585,5,0,0:0:0:0:
347,77,156047,2,0,L|288:86,1,55
231,97,156508,1,0,0:0:0:0:
233,218,156970,1,0,0:0:0:0:
352,192,157431,6,0,L|384:308,1,110,2|8,0:0|0:0,0:0:0:0:
392,356,158124,2,0,B|338:376|335:347|282:364,1,110,2|2,0:0|0:0,0:0:0:0:
224,360,158816,2,0,L|215:290,1,55,8|0,0:0|0:0,0:0:0:0:
200,248,159277,6,0,P|248:260|320:248,1,110,2|8,0:0|0:0,0:0:0:0:
352,212,159970,2,0,P|367:159|352:104,1,110,2|2,0:0|0:0,0:0:0:0:
304,76,160662,1,8,0:0:0:0:
192,32,161124,6,0,P|136:20|81:31,2,110,2|8|0,0:0|0:0|0:0,0:0:0:0:
304,76,162508,1,8,0:0:0:0:
336,192,162970,6,0,B|257:171|262:225|170:201,1,165,2|2,0:0|0:0,0:0:0:0:
124,168,163893,1,2,0:0:0:0:
64,64,164354,1,10,0:0:0:0:
256,192,179124,12,8,180509,0:0:0:0:
408,229,181431,6,0,P|417:178|405:120,1,110,2|8,0:0|0:0,0:0:0:0:
379,67,182124,1,2,0:0:0:0:
379,67,182355,2,0,B|342:65|342:65|313:69|313:69|264:65,1,110,0|8,0:0|0:0,0:0:0:0:
150,52,183278,5,2,0:0:0:0:
150,52,183739,2,0,P|134:131|165:218,1,165,8|2,0:0|0:0,0:0:0:0:
195,258,184662,2,0,L|257:244,1,55,8|0,0:0|0:0,0:0:0:0:
305,270,185124,6,0,P|293:217|305:158,1,110,2|8,0:0|0:0,0:0:0:0:
315,103,185816,1,2,0:0:0:0:
315,103,186047,2,0,L|259:78,1,55,0|0,0:0|0:0,0:0:0:0:
206,93,186508,2,0,L|150:68,1,55,8|0,0:0|0:0,0:0:0:0:
107,35,186970,6,0,P|71:74|57:132,1,110,2|8,0:0|0:0,0:0:0:0:
50,188,187662,1,10,0:0:0:0:
47,248,187893,2,0,B|44:320,2,55,0|2|8,0:0|0:0|0:0,0:0:0:0:
154,189,188816,5,2,0:0:0:0:
237,100,189278,1,8,0:0:0:0:
323,185,189739,2,0,P|381:171|430:186,1,110,0|8,0:0|0:0,0:0:0:0:
492,288,190662,5,2,0:0:0:0:
376,253,191124,1,8,0:0:0:0:
260,286,191585,2,0,P|204:293|147:284,1,110,0|8,0:0|0:0,0:0:0:0:
58,208,192508,6,0,L|68:149,1,55,2|0,0:0|0:0,0:0:0:0:
60,93,192970,2,0,P|110:108|167:101,1,110,8|8,0:0|0:0,0:0:0:0:
287,82,193893,2,0,L|358:76,1,55,8|2,0:0|0:0,0:0:0:0:
394,109,194355,6,0,L|465:103,1,55,14|4,0:0|0:0,0:0:0:0:
509,116,194816,2,0,P|496:171|519:233,2,110,12|2|8,0:0|0:0|0:0,0:0:0:0:
443,14,196201,6,0,L|336:68,1,110,2|8,0:0|0:0,0:0:0:0:
292,92,196893,2,0,P|239:80|183:92,1,110,2|2,0:0|0:0,0:0:0:0:
128,116,197585,2,0,L|105:172,1,55,8|0,0:0|0:0,0:0:0:0:
80,220,198047,6,0,L|196:248,1,110,2|8,0:0|0:0,0:0:0:0:
244,260,198739,2,0,P|264:211|253:148,1,110,2|2,0:0|0:0,0:0:0:0:
216,112,199431,1,8,0:0:0:0:
300,24,199893,6,0,L|365:12,1,55,2|0,0:0|0:0,0:0:0:0:
400,56,200355,2,0,L|465:44,1,55,2|0,0:0|0:0,0:0:0:0:
512,68,200816,1,0,0:0:0:0:
464,180,201278,2,0,L|405:195,1,55
353,213,201739,5,0,0:0:0:0:
308,325,202201,2,0,L|249:316,1,55
194,306,202662,1,0,0:0:0:0:
228,189,203124,1,0,0:0:0:0:
349,193,203585,6,0,L|380:88,1,110,2|8,0:0|0:0,0:0:0:0:
392,28,204278,2,0,B|338:8|335:37|282:20,1,110,2|2,0:0|0:0,0:0:0:0:
224,24,204970,2,0,L|215:94,1,55,8|0,0:0|0:0,0:0:0:0:
201,135,205431,6,0,P|244:124|320:144,1,110,2|8,0:0|0:0,0:0:0:0:
348,180,206124,2,0,P|363:233|349:286,1,110,2|2,0:0|0:0,0:0:0:0:
304,328,206816,1,8,0:0:0:0:
184,352,207278,6,0,P|128:340|73:351,2,110,2|8|0,0:0|0:0|0:0,0:0:0:0:
304,328,208662,1,8,0:0:0:0:
356,220,209124,6,0,B|274:196|283:237|188:213,1,165,2|2,0:0|0:0,0:0:0:0:
136,188,210047,1,2,0:0:0:0:
52,276,210508,1,10,0:0:0:0:
