osu file format v14

[General]
AudioFilename: audio.mp3
AudioLeadIn: 0
PreviewTime: 60624
Countdown: 0
SampleSet: Soft
StackLeniency: 0.7
Mode: 0
LetterboxInBreaks: 0
WidescreenStoryboard: 0

[Editor]
Bookmarks: 17124,164816,179585
DistanceSpacing: 1
BeatDivisor: 4
GridSize: 16
TimelineZoom: 1

[Metadata]
Title:TT
TitleUnicode:TT
Artist:TWICE
ArtistUnicode:트와이스
Creator:Lilyanna
Version:Easy
Source:
Tags:JYP Entertainment TWICEcoaster : LANE 1 나연 정연 모모 사나 지효 미나 다현 채영 쯔위 Nayeon Jeongyeon Momo Sana Jihyo Mina Dahyun Chaeyoung Tzuyu K-Pop Kpop Nekomata Firetruck Kisses Irreversible wasinkingspeedq
BeatmapID:1151025
BeatmapSetID:543062

[Difficulty]
HPDrainRate:2
CircleSize:3.3
OverallDifficulty:2
ApproachRate:3
SliderMultiplier:0.8
SliderTickRate:1

[Events]
//Background and Video events
Video,-26222,"twice tt.mp4"
0,0,"fghbgfhf.jpg",0,0
//Break Periods
2,46862,52607
2,120708,126453
2,164816,176299
//Storyboard Layer 0 (Background)
//Storyboard Layer 1 (Fail)
//Storyboard Layer 2 (Pass)
//Storyboard Layer 3 (Foreground)
//Storyboard Sound Samples

[TimingPoints]
2355,461.538461538462,4,2,2,60,1,0
61431,-100,4,2,2,80,0,1
75278,-100,4,2,3,80,0,1
75739,-100,4,2,2,80,0,1
90970,-100,4,2,2,70,0,0
104585,-100,4,2,3,70,0,0
105508,-100,4,2,2,70,0,0
132508,-100,4,2,2,60,0,0
132970,-100,4,2,2,70,0,0
133431,-100,4,2,2,80,0,0
135278,-100,4,2,2,80,0,1
149124,-100,4,2,3,80,0,1
150047,-100,4,2,2,80,0,1
162970,-100,4,2,2,50,0,1
163893,-100,4,2,2,70,0,1
164354,-100,4,2,2,80,0,1
164816,-100,4,2,2,20,0,0
180739,-100,4,2,2,80,0,0
181431,-100,4,2,2,85,0,1
195278,-100,4,2,3,80,0,1
196201,-100,4,2,2,85,0,1
209124,-100,4,2,2,55,0,1
210047,-100,4,2,2,75,0,1
210508,-100,4,2,2,75,0,0

[Colours]
Combo1 : 125,162,111
Combo2 : 191,187,11
Combo3 : 255,100,104
Combo4 : 0,103,206

[HitObjects]
214,69,17124,6,0,P|255:59|301:75,1,80,0|8,0:0|0:0,0:0:0:0:
253,139,18047,1,0,0:0:0:0:
332,137,18508,1,8,0:0:0:0:
292,206,18970,2,0,P|285:237|301:288,1,80,0|8,0:0|0:0,0:0:0:0:
350,342,19893,1,0,0:0:0:0:
271,355,20355,1,8,0:0:0:0:
211,301,20816,6,0,P|169:290|120:308,1,80,0|8,0:0|0:0,0:0:0:0:
72,349,21739,1,0,0:0:0:0:
37,276,22201,1,8,0:0:0:0:
100,227,22662,2,0,P|108:185|99:145,1,80,2|0,0:0|0:0,0:0:0:0:
22,133,23585,2,0,P|14:91|23:51,1,80
101,53,24508,6,0,P|142:62|179:54,1,80,0|8,0:0|0:0,0:0:0:0:
256,35,25431,1,0,0:0:0:0:
299,102,25893,1,8,0:0:0:0:
252,167,26355,2,0,P|245:206|253:245,1,80,0|8,0:0|0:0,0:0:0:0:
300,309,27278,2,0,P|329:302|385:318,1,80,0|8,0:0|0:0,0:0:0:0:
446,352,28201,6,0,P|454:313|445:273,1,80,2|8,0:0|0:0,0:0:0:0:
382,225,29124,2,0,P|373:187|380:147,1,80,0|8,0:0|0:0,0:0:0:0:
459,143,30047,2,0,P|467:104|460:64,2,80,0|0|2,0:0|0:0|0:0,0:0:0:0:
428,216,31431,1,2,0:0:0:0:
355,250,31893,6,0,L|267:260,1,80,0|8,0:0|0:0,0:0:0:0:
276,178,32816,2,0,L|196:187,1,80,0|8,0:0|0:0,0:0:0:0:
158,257,33739,2,0,P|124:220|155:119,1,160,2|0,0:0|0:0,0:0:0:0:
167,44,35124,1,8,0:0:0:0:
248,45,35585,6,0,L|335:34,1,80,2|8,0:0|0:0,0:0:0:0:
323,116,36508,2,0,L|402:106,1,80,0|8,0:0|0:0,0:0:0:0:
440,36,37431,2,0,P|474:73|443:174,1,160,6|0,0:0|0:0,0:0:0:0:
378,208,38816,1,8,0:0:0:0:
304,242,39278,6,0,P|266:230|228:239,1,80,2|8,0:0|0:0,0:0:0:0:
263,312,40201,2,0,P|224:319|186:308,1,80,0|8,0:0|0:0,0:0:0:0:
118,265,41124,2,0,P|129:227|120:188,1,80,2|8,0:0|0:0,0:0:0:0:
48,223,42047,2,0,P|40:184|51:146,1,80,0|8,0:0|0:0,0:0:0:0:
105,86,42970,6,0,B|185:70|185:102|267:89,1,160,2|0,0:0|0:0,0:0:0:0:
343,88,44355,1,8,0:0:0:0:
400,143,44816,2,0,B|416:223|384:223|396:301,1,160,2|2,0:0|0:0,0:0:0:0:
336,354,46201,1,2,0:0:0:0:
291,287,46662,5,2,0:0:0:0:
125,274,54047,6,0,L|115:189,1,80,4|8,0:0|0:0,0:0:0:0:
38,217,54970,2,0,L|28:132,1,80,8|8,0:0|0:0,0:0:0:0:
105,115,55893,2,0,L|189:105,1,80,8|8,0:0|0:0,0:0:0:0:
171,26,56816,2,0,L|255:16,1,80,8|8,0:0|0:0,0:0:0:0:
321,53,57739,5,4,0:0:0:0:
256,192,57970,12,0,59585,0:0:0:0:
138,260,60970,5,8,0:0:0:0:
206,302,61431,6,0,B|246:311|246:311|296:301,1,80,2|8,0:0|0:0,0:0:0:0:
325,235,62355,1,0,0:0:0:0:
373,298,62816,1,8,0:0:0:0:
403,223,63278,2,0,P|409:182|399:135,2,80,2|8|0,0:0|0:0|0:0,0:0:0:0:
372,298,64662,1,8,0:0:0:0:
291,300,65124,6,0,B|251:291|251:291|201:301,1,80,2|8,0:0|0:0,0:0:0:0:
137,325,66047,1,0,0:0:0:0:
152,246,66508,1,8,0:0:0:0:
71,247,66970,2,0,P|117:172|184:171,1,160,2|0,0:0|0:0,0:0:0:0:
259,190,68355,1,8,0:0:0:0:
328,150,68816,6,0,P|338:101|324:62,1,80,2|8,0:0|0:0,0:0:0:0:
260,33,69739,1,0,0:0:0:0:
179,35,70201,1,8,0:0:0:0:
115,83,70662,2,0,P|105:132|119:171,1,80,2|8,0:0|0:0,0:0:0:0:
161,223,71585,1,0,0:0:0:0:
124,294,72047,1,8,0:0:0:0:
195,331,72508,6,0,L|283:340,1,80,2|8,0:0|0:0,0:0:0:0:
272,259,73431,2,0,L|360:268,1,80,8|8,0:0|0:0,0:0:0:0:
419,225,74355,2,0,L|409:136,1,80,14|12,0:0|0:0,0:0:0:0:
491,148,75278,2,0,L|481:59,1,80,2|8,0:0|0:0,0:0:0:0:
403,50,76201,6,0,P|334:53|281:38,2,120,2|0|8,0:0|0:0|0:0,0:0:0:0:
427,126,78047,2,0,P|364:155|310:162,2,120,2|0|8,0:0|0:0|0:0,0:0:0:0:
472,191,79893,6,0,P|493:245|459:349,1,160,2|0,0:0|0:0,0:0:0:0:
386,332,81278,1,8,0:0:0:0:
327,277,81739,2,0,P|279:268|244:282,1,80,2|8,0:0|0:0,0:0:0:0:
287,348,82662,2,0,P|234:356|204:342,1,80,0|8,0:0|0:0,0:0:0:0:
164,281,83585,6,0,P|161:212|176:159,2,120,2|0|8,0:0|0:0|0:0,0:0:0:0:
87,304,85431,2,0,P|57:241|50:187,2,120,2|0|8,0:0|0:0|0:0,0:0:0:0:
153,349,87278,6,0,P|191:361|229:353,1,80,2|8,0:0|0:0,0:0:0:0:
290,301,88201,2,0,P|329:294|367:305,1,80,0|8,0:0|0:0,0:0:0:0:
446,295,89124,2,0,P|469:219|450:142,1,160,2|2,0:0|0:0,0:0:0:0:
403,77,90508,1,10,0:0:0:0:
332,115,90970,6,0,P|324:158|336:201,1,80,2|8,0:0|0:0,0:0:0:0:
387,250,91893,1,0,0:0:0:0:
311,275,92355,1,8,0:0:0:0:
244,230,92816,2,0,P|201:234|159:224,1,80,2|8,0:0|0:0,0:0:0:0:
121,159,93739,1,0,0:0:0:0:
76,92,94201,1,8,0:0:0:0:
35,160,94662,6,0,P|27:205|34:241,1,80,2|8,0:0|0:0,0:0:0:0:
94,289,95585,1,0,0:0:0:0:
168,259,96047,1,8,0:0:0:0:
240,293,96508,2,0,P|282:301|322:292,1,80,2|8,0:0|0:0,0:0:0:0:
360,225,97431,2,0,P|402:217|442:226,1,80,0|8,0:0|0:0,0:0:0:0:
499,173,98355,6,0,P|487:117|497:89,1,80,2|8,0:0|0:0,0:0:0:0:
475,21,99278,1,0,0:0:0:0:
403,56,99739,1,8,0:0:0:0:
328,25,100201,2,0,B|239:34,1,80,2|8,0:0|0:0,0:0:0:0:
170,50,101124,1,0,0:0:0:0:
220,112,101585,1,8,0:0:0:0:
143,136,102047,6,0,B|144:220,1,80,2|8,0:0|0:0,0:0:0:0:
138,295,102970,1,0,0:0:0:0:
199,346,103431,1,8,0:0:0:0:
252,286,103893,2,0,P|296:215|253:141,1,160,2|2,0:0|0:0,0:0:0:0:
215,212,105278,1,2,0:0:0:0:
184,138,105739,6,0,P|219:82|316:82,1,160,2|0,0:0|0:0,0:0:0:0:
365,130,107124,1,8,0:0:0:0:
425,182,107585,2,0,L|442:341,1,160,2|0,0:0|0:0,0:0:0:0:
364,359,108970,1,8,0:0:0:0:
308,301,109431,6,0,L|214:293,1,80,2|8,0:0|0:0,0:0:0:0:
247,216,110355,2,0,L|167:209,1,80,0|8,0:0|0:0,0:0:0:0:
155,129,111278,2,0,P|118:143|98:253,1,160,2|0,0:0|0:0,0:0:0:0:
167,209,112662,1,8,0:0:0:0:
174,288,113124,6,0,B|254:304|254:272|336:285,1,160,2|0,0:0|0:0,0:0:0:0:
397,332,114508,1,8,0:0:0:0:
455,276,114970,2,0,B|471:196|439:195|452:114,1,160,2|0,0:0|0:0,0:0:0:0:
455,37,116354,1,8,0:0:0:0:
377,56,116816,6,0,P|329:48|290:55,1,80,2|8,0:0|0:0,0:0:0:0:
291,132,117739,2,0,P|243:140|204:133,1,80,2|8,0:0|0:0,0:0:0:0:
147,88,118662,2,0,P|131:129|139:166,1,80,2|8,0:0|0:0,0:0:0:0:
185,227,119585,1,2,0:0:0:0:
142,295,120047,1,8,0:0:0:0:
208,339,120508,5,2,0:0:0:0:
217,246,127893,6,0,L|302:256,1,80,2|2,0:0|0:0,0:0:0:0:
272,332,128816,2,0,L|357:342,1,80,2|2,0:0|0:0,0:0:0:0:
378,265,129739,2,0,L|388:181,1,80,2|2,0:0|0:0,0:0:0:0:
465,203,130662,2,0,L|475:118,1,80,2|2,0:0|0:0,0:0:0:0:
422,62,131585,5,2,0:0:0:0:
256,192,131816,12,0,133431,0:0:0:0:
144,113,134816,5,8,0:0:0:0:
203,59,135278,6,0,B|243:50|243:50|293:60,1,80,2|8,0:0|0:0,0:0:0:0:
329,121,136201,1,0,0:0:0:0:
405,142,136662,1,8,0:0:0:0:
346,197,137124,2,0,P|341:230|349:281,2,80,2|8|0,0:0|0:0|0:0,0:0:0:0:
405,142,138508,1,8,0:0:0:0:
343,90,138970,6,0,B|303:81|303:81|253:91,1,80,2|8,0:0|0:0,0:0:0:0:
207,144,139893,1,0,0:0:0:0:
140,99,140355,1,8,0:0:0:0:
170,24,140817,2,0,P|93:32|58:100,1,160,2|0,0:0|0:0,0:0:0:0:
52,180,142201,1,8,0:0:0:0:
95,247,142662,6,0,P|100:285|88:332,1,80,2|8,0:0|0:0,0:0:0:0:
161,363,143585,1,0,0:0:0:0:
235,334,144047,1,8,0:0:0:0:
292,278,144508,2,0,P|297:240|285:193,1,80,2|8,0:0|0:0,0:0:0:0:
225,149,145431,1,0,0:0:0:0:
160,196,145893,1,8,0:0:0:0:
83,174,146355,6,0,L|74:86,1,80,2|8,0:0|0:0,0:0:0:0:
155,90,147278,2,0,L|146:2,1,80,0|8,0:0|0:0,0:0:0:0:
227,25,148202,2,0,L|316:35,1,80,8|0,0:0|0:0,0:0:0:0:
276,109,149125,2,0,L|365:119,1,80,2|2,0:0|0:0,0:0:0:0:
402,182,150047,6,0,P|399:251|414:304,2,120,2|0|8,0:0|0:0|0:0,0:0:0:0:
326,158,151893,2,0,P|296:220|289:274,2,120,2|0|8,0:0|0:0|0:0,0:0:0:0:
254,121,153739,6,0,P|213:142|98:114,1,160,2|0,0:0|0:0,0:0:0:0:
50,63,155124,1,8,0:0:0:0:
122,30,155585,2,0,P|173:22|205:35,1,80,2|8,0:0|0:0,0:0:0:0:
272,61,156508,2,0,P|320:70|358:55,1,80,0|8,0:0|0:0,0:0:0:0:
407,115,157431,6,0,P|434:178|471:219,2,120,2|0|8,0:0|0:0|0:0,0:0:0:0:
328,127,159277,2,0,P|328:196|346:248,2,120,2|0|8,0:0|0:0|0:0,0:0:0:0:
253,98,161124,6,0,P|203:105|170:93,1,80,2|8,0:0|0:0,0:0:0:0:
137,26,162047,2,0,P|175:16|214:24,1,80,0|8,0:0|0:0,0:0:0:0:
295,30,162970,2,0,P|329:68|292:168,1,160,2|2,0:0|0:0,0:0:0:0:
253,98,164355,1,10,0:0:0:0:
256,192,177739,12,0,179585,0:0:0:0:
149,48,180970,5,8,0:0:0:0:
104,114,181431,6,0,B|95:154|95:154|105:204,1,80,2|8,0:0|0:0,0:0:0:0:
136,264,182355,1,0,0:0:0:0:
104,337,182816,1,8,0:0:0:0:
184,334,183278,2,0,P|225:344|270:329,2,80,2|8|0,0:0|0:0|0:0,0:0:0:0:
222,264,184662,1,8,0:0:0:0:
219,183,185124,6,0,B|210:143|210:143|220:93,1,80,2|8,0:0|0:0,0:0:0:0:
264,39,186047,1,0,0:0:0:0:
324,91,186508,1,10,0:0:0:0:
397,59,186970,2,0,P|383:146|322:173,1,160,2|0,0:0|0:0,0:0:0:0:
247,192,188355,1,8,0:0:0:0:
168,177,188816,6,0,P|119:167|80:181,1,80,2|8,0:0|0:0,0:0:0:0:
27,223,189739,1,0,0:0:0:0:
30,302,190201,1,8,0:0:0:0:
96,346,190662,2,0,P|145:356|184:342,1,80,2|8,0:0|0:0,0:0:0:0:
235,297,191585,1,0,0:0:0:0:
236,216,192047,1,8,0:0:0:0:
275,146,192508,6,0,L|363:155,1,80,2|8,0:0|0:0,0:0:0:0:
336,76,193431,2,0,L|424:85,1,80,0|8,0:0|0:0,0:0:0:0:
464,147,194355,2,0,L|472:226,1,80,10|8,0:0|0:0,0:0:0:0:
394,208,195278,2,0,L|402:287,1,80,2|2,0:0|0:0,0:0:0:0:
332,328,196201,6,0,P|263:325|210:340,2,120,2|0|8,0:0|0:0|0:0,0:0:0:0:
356,252,198047,2,0,P|293:222|239:215,2,120,2|0|8,0:0|0:0|0:0,0:0:0:0:
428,218,199893,6,0,P|444:161|413:50,1,160,2|0,0:0|0:0,0:0:0:0:
350,28,201278,1,8,0:0:0:0:
302,92,201739,2,0,P|252:98|219:87,1,80,2|8,0:0|0:0,0:0:0:0:
163,38,202662,2,0,P|112:30|80:43,1,80,0|8,0:0|0:0,0:0:0:0:
126,108,203585,6,0,P|123:177|138:230,2,120,2|0|8,0:0|0:0|0:0,0:0:0:0:
50,84,205431,2,0,P|20:146|13:200,2,120,2|0|8,0:0|0:0|0:0,0:0:0:0:
128,98,207278,6,0,P|166:108|204:99,1,80,2|8,0:0|0:0,0:0:0:0:
166,27,208201,2,0,P|204:18|243:28,1,80,0|8,0:0|0:0,0:0:0:0:
302,82,209124,2,0,P|285:147|311:233,1,160,2|2,0:0|0:0,0:0:0:0:
358,298,210508,1,10,0:0:0:0:
