osu file format v14

[General]
AudioFilename: audio.mp3
AudioLeadIn: 0
PreviewTime: -1
Countdown: 1
SampleSet: Normal
StackLeniency: 0.7
Mode: 3
LetterboxInBreaks: 0
SpecialStyle: 0
WidescreenStoryboard: 0

[Editor]
Bookmarks: 62889
DistanceSpacing: 2.5
BeatDivisor: 8
GridSize: 4
TimelineZoom: 1.9

[Metadata]
Title:TT (Airuei Remix)
TitleUnicode:TT (Airuei Remix)
Artist:TWICE
ArtistUnicode:TWICE
Creator:snexe
Version:i love u
Source:
Tags:
BeatmapID:1958172
BeatmapSetID:937412

[Difficulty]
HPDrainRate:5
CircleSize:4
OverallDifficulty:5
ApproachRate:5
SliderMultiplier:1.4
SliderTickRate:1

[Events]
//Background and Video events
0,0,"460c9131513ddb68ad09da619e136e1a.jpg",0,0
//Break Periods
//Storyboard Layer 0 (Background)
//Storyboard Layer 1 (Fail)
//Storyboard Layer 2 (Pass)
//Storyboard Layer 3 (Foreground)
//Storyboard Sound Samples

[TimingPoints]
120,461.538461538462,4,1,0,100,1,0
120,-142.857142857143,4,1,0,100,0,0
1966,-135.685210312076,4,1,0,100,0,0
3812,-128.205128205128,4,1,0,100,0,0
5658,-121.951219512195,4,1,0,100,0,0
7504,-116.279069767442,4,1,0,100,0,0
9350,-111.111111111111,4,1,0,100,0,0
11196,-106.382978723404,4,1,0,100,0,0
13043,-100,4,1,0,100,0,0
13273,-66.6666666666667,4,1,0,100,0,0
13302,-200,4,1,0,100,0,0
13331,-66.6666666666667,4,1,0,100,0,0
13360,-200,4,1,0,100,0,0
13389,-66.6666666666667,4,1,0,100,0,0
13418,-200,4,1,0,100,0,0
13446,-66.6666666666667,4,1,0,100,0,0
13475,-200,4,1,0,100,0,0
13504,-100,4,1,0,100,0,0
14427,-111.111111111111,4,1,0,100,0,0
14543,-125,4,1,0,100,0,0
14658,-142.857142857143,4,1,0,100,0,0
14773,-166.666666666667,4,1,0,100,0,0
14889,-100,4,1,0,100,0,0
29658,-105.263157894737,4,1,0,100,0,0
30581,-111.111111111111,4,1,0,100,0,0
31504,-117.647058823529,4,1,0,100,0,0
32427,-125,4,1,0,100,0,0
33350,-133.333333333333,4,1,0,100,0,0
34273,-125,4,1,0,100,0,0
35196,-117.647058823529,4,1,0,100,0,0
36120,-111.111111111111,4,1,0,100,0,0
36581,-105.263157894737,4,1,0,100,0,0
37043,-100,4,1,0,100,0,0
37389,-66.6666666666667,4,1,0,100,0,0
37418,-200,4,1,0,100,0,0
37446,-66.6666666666667,4,1,0,100,0,0
37475,-200,4,1,0,100,0,0
37504,-100,4,1,0,100,0,0
38658,-66.6666666666667,4,1,0,100,0,0
38687,-200,4,1,0,100,0,0
38716,-66.6666666666667,4,1,0,100,0,0
38745,-200,4,1,0,100,0,0
38773,-66.6666666666667,4,1,0,100,0,0
38802,-200,4,1,0,100,0,0
38831,-66.6666666666667,4,1,0,100,0,0
38860,-200,4,1,0,100,0,0
38889,-100,4,1,0,100,0,0
39120,-66.6666666666667,4,1,0,100,0,0
39235,-133.333333333333,4,1,0,100,0,0
39350,-66.6666666666667,4,1,0,100,0,0
39466,-133.333333333333,4,1,0,100,0,0
39581,-100,4,1,0,100,0,0
39812,-90.9090909090909,4,1,0,100,0,0
40043,-83.3333333333333,4,1,0,100,0,0
40273,-76.9230769230769,4,1,0,100,0,0
40504,-71.4285714285714,4,1,0,100,0,0
40735,-100,4,1,0,100,0,0
46273,-105.263157894737,4,1,0,100,0,0
46735,-111.111111111111,4,1,0,100,0,0
47196,-117.647058823529,4,1,0,100,0,0
47658,-125,4,1,0,100,0,0
48120,-133.333333333333,4,1,0,100,0,0
49043,-125,4,1,0,100,0,0
49966,-117.647058823529,4,1,0,100,0,0
50889,-111.111111111111,4,1,0,100,0,0
51350,-105.263157894737,4,1,0,100,0,0
51812,-66.6666666666667,4,1,0,100,0,0
51841,-200,4,1,0,100,0,0
51870,-66.6666666666667,4,1,0,100,0,0
51898,-200,4,1,0,100,0,0
51927,-66.6666666666667,4,1,0,100,0,0
51956,-200,4,1,0,100,0,0
51985,-66.6666666666667,4,1,0,100,0,0
52014,-200,4,1,0,100,0,0
52043,-100,4,1,0,100,0,0
52273,-66.6666666666667,4,1,0,100,0,0
52302,-200,4,1,0,100,0,0
52331,-66.6666666666667,4,1,0,100,0,0
52360,-200,4,1,0,100,0,0
52389,-66.6666666666667,4,1,0,100,0,0
52446,-133.333333333333,4,1,0,100,0,0
52504,-66.6666666666667,4,1,0,100,0,0
52562,-133.333333333333,4,1,0,100,0,0
52620,-66.6666666666667,4,1,0,100,0,0
52677,-133.333333333333,4,1,0,100,0,0
52735,-100,4,1,0,100,0,0
53427,-66.6666666666667,4,1,0,100,0,0
53456,-200,4,1,0,100,0,0
53485,-66.6666666666667,4,1,0,100,0,0
53514,-200,4,1,0,100,0,0
53543,-66.6666666666667,4,1,0,100,0,0
53571,-200,4,1,0,100,0,0
53600,-66.6666666666667,4,1,0,100,0,0
53629,-200,4,1,0,100,0,0
53658,-66.6666666666667,4,1,0,100,0,0
53716,-133.333333333333,4,1,0,100,0,0
53773,-66.6666666666667,4,1,0,100,0,0
53831,-133.333333333333,4,1,0,100,0,0
53889,-66.6666666666667,4,1,0,100,0,0
53918,-200,4,1,0,100,0,0
53946,-66.6666666666667,4,1,0,100,0,0
53975,-200,4,1,0,100,0,0
54004,-66.6666666666667,4,1,0,100,0,0
54033,-200,4,1,0,100,0,0
54062,-66.6666666666667,4,1,0,100,0,0
54091,-200,4,1,0,100,0,0
54120,-100,4,1,0,100,0,0
54581,-66.6666666666667,4,1,0,100,0,0
54812,-66.6666666666667,4,1,0,100,0,0
54870,-1000,4,1,0,100,0,0
54927,-66.6666666666667,4,1,0,100,0,0
54985,-1000,4,1,0,100,0,0
55043,-66.6666666666667,4,1,0,100,0,0
55100,-1000,4,1,0,100,0,0
55158,-66.6666666666667,4,1,0,100,0,0
55216,-1000,4,1,0,100,0,0
55273,-66.6666666666667,4,1,0,100,0,0
55331,-1000,4,1,0,100,0,0
55389,-66.6666666666667,4,1,0,100,0,0
55446,-1000,4,1,0,100,0,0
55504,-100,4,1,0,100,0,0
59196,-105.263157894737,4,1,0,100,0,0
60120,-111.111111111111,4,1,0,100,0,0
61043,-117.647058823529,4,1,0,100,0,0
61966,-125,4,1,0,100,0,0
62889,-111.111111111111,4,1,0,100,0,0
77658,-100,4,1,0,100,0,0
79043,-52.6315789473684,4,1,0,100,0,0
79100,-1000,4,1,0,100,0,0
79158,-52.6315789473684,4,1,0,100,0,0
79216,-1000,4,1,0,100,0,0
79273,-52.6315789473684,4,1,0,100,0,0
79331,-1000,4,1,0,100,0,0
79389,-52.6315789473684,4,1,0,100,0,0
79446,-1000,4,1,0,100,0,0
79504,-111.111111111111,4,1,0,100,0,0
92427,-100,4,1,0,100,0,1
121966,-100,4,1,0,100,0,0

[HitObjects]
448,192,1043,5,0,0:0:0:0:
320,192,1158,1,0,0:0:0:0:
64,192,1273,1,0,0:0:0:0:
320,192,1389,1,0,0:0:0:0:
448,192,1504,128,0,1620:0:0:0:0:
320,192,1735,1,0,0:0:0:0:
192,192,1850,1,0,0:0:0:0:
64,192,1966,128,0,2081:0:0:0:0:
448,192,1966,128,0,2081:0:0:0:0:
192,192,2889,1,0,0:0:0:0:
320,192,3004,1,0,0:0:0:0:
448,192,3120,1,0,0:0:0:0:
192,192,3235,1,0,0:0:0:0:
64,192,3350,128,0,3466:0:0:0:0:
320,192,3581,128,0,3812:0:0:0:0:
192,192,3812,128,0,4043:0:0:0:0:
448,192,4735,1,0,0:0:0:0:
192,192,4850,1,0,0:0:0:0:
320,192,4966,1,0,0:0:0:0:
64,192,5081,1,0,0:0:0:0:
448,192,5196,128,0,5427:0:0:0:0:
320,192,5427,128,0,5658:0:0:0:0:
64,192,5658,128,0,6120:0:0:0:0:
192,192,5658,128,0,5889:0:0:0:0:
448,192,6120,128,0,6350:0:0:0:0:
320,192,6120,1,0,0:0:0:0:
320,192,6350,128,0,6581:0:0:0:0:
192,192,6350,1,0,0:0:0:0:
64,192,6581,1,0,0:0:0:0:
192,192,6581,128,0,7043:0:0:0:0:
64,192,7043,128,0,7504:0:0:0:0:
448,192,7043,128,0,7504:0:0:0:0:
192,192,8196,128,0,8427:0:0:0:0:
448,192,8427,128,0,8543:0:0:0:0:
448,192,8658,1,0,0:0:0:0:
64,192,8773,128,0,9004:0:0:0:0:
320,192,9004,128,0,9235:0:0:0:0:
192,192,9350,128,0,9581:0:0:0:0:
320,192,9581,128,0,9812:0:0:0:0:
64,192,9927,128,0,10158:0:0:0:0:
448,192,10158,1,0,0:0:0:0:
320,192,10273,128,0,10504:0:0:0:0:
192,192,10504,1,0,0:0:0:0:
320,192,10620,128,0,10850:0:0:0:0:
64,192,10850,1,0,0:0:0:0:
320,192,11081,128,0,11427:0:0:0:0:
448,192,11081,128,0,11427:0:0:0:0:
64,192,11427,128,0,11658:0:0:0:0:
192,192,11427,128,0,11658:0:0:0:0:
448,192,12350,1,0,0:0:0:0:
64,192,12466,1,0,0:0:0:0:
448,192,12581,128,0,12812:0:0:0:0:
320,192,12812,128,0,13043:0:0:0:0:
64,192,13043,128,0,13273:0:0:0:0:
192,192,13043,1,0,0:0:0:0:
320,192,13273,1,0,0:0:0:0:
192,192,13331,1,0,0:0:0:0:
320,192,13389,1,0,0:0:0:0:
192,192,13446,1,0,0:0:0:0:
448,192,13504,128,0,13735:0:0:0:0:
192,192,13735,128,0,13966:0:0:0:0:
320,192,13966,128,0,14312:0:0:0:0:
64,192,14427,1,0,0:0:0:0:
448,192,14889,128,0,15120:0:0:0:0:
320,192,14889,1,0,0:0:0:0:
64,192,15120,1,0,0:0:0:0:
192,192,15235,128,0,15466:0:0:0:0:
320,192,15466,1,0,0:0:0:0:
64,192,15581,128,0,15812:0:0:0:0:
320,192,15812,128,0,16043:0:0:0:0:
448,192,16043,128,0,16273:0:0:0:0:
192,192,16273,128,0,16504:0:0:0:0:
320,192,16273,1,0,0:0:0:0:
64,192,16504,128,0,16735:0:0:0:0:
448,192,16735,128,0,17196:0:0:0:0:
192,192,17196,128,0,17658:0:0:0:0:
320,192,17196,1,0,0:0:0:0:
320,192,17658,1,0,0:0:0:0:
448,192,17889,1,0,0:0:0:0:
320,192,17946,1,0,0:0:0:0:
192,192,18004,1,0,0:0:0:0:
64,192,18062,1,0,0:0:0:0:
448,192,18120,128,0,18350:0:0:0:0:
192,192,18350,128,0,18581:0:0:0:0:
320,192,18581,128,0,18696:0:0:0:0:
320,192,18812,1,0,0:0:0:0:
192,192,18927,128,0,19273:0:0:0:0:
320,192,19273,128,0,19504:0:0:0:0:
64,192,19504,128,0,19735:0:0:0:0:
448,192,19504,128,0,19735:0:0:0:0:
320,192,19735,128,0,19966:0:0:0:0:
192,192,19966,128,0,20196:0:0:0:0:
64,192,19966,1,0,0:0:0:0:
448,192,20196,1,0,0:0:0:0:
64,192,20427,1,0,0:0:0:0:
448,192,20427,128,0,20658:0:0:0:0:
320,192,20658,128,0,20889:0:0:0:0:
192,192,20889,1,0,0:0:0:0:
448,192,21120,128,0,21350:0:0:0:0:
320,192,21350,128,0,21581:0:0:0:0:
320,192,21812,1,0,0:0:0:0:
192,192,21812,128,0,22043:0:0:0:0:
64,192,22043,128,0,22273:0:0:0:0:
320,192,22273,1,0,0:0:0:0:
448,192,22273,128,0,22735:0:0:0:0:
64,192,22620,1,0,0:0:0:0:
192,192,22735,128,0,22850:0:0:0:0:
192,192,22966,128,0,23081:0:0:0:0:
192,192,23196,128,0,23427:0:0:0:0:
448,192,23312,1,0,0:0:0:0:
320,192,23658,128,0,23889:0:0:0:0:
64,192,23889,1,0,0:0:0:0:
192,192,24004,1,0,0:0:0:0:
64,192,24120,1,0,0:0:0:0:
448,192,24350,128,0,24466:0:0:0:0:
64,192,24466,1,0,0:0:0:0:
448,192,24581,128,0,24696:0:0:0:0:
448,192,24812,1,0,0:0:0:0:
192,192,25043,1,0,0:0:0:0:
320,192,25158,1,0,0:0:0:0:
64,192,25273,1,0,0:0:0:0:
192,192,25331,1,0,0:0:0:0:
320,192,25389,1,0,0:0:0:0:
448,192,25446,1,0,0:0:0:0:
64,192,25504,128,0,25735:0:0:0:0:
448,192,25850,1,0,0:0:0:0:
64,192,25966,1,0,0:0:0:0:
192,192,26023,1,0,0:0:0:0:
320,192,26081,1,0,0:0:0:0:
448,192,26196,128,0,26427:0:0:0:0:
64,192,26312,1,0,0:0:0:0:
192,192,26427,128,0,26658:0:0:0:0:
320,192,26658,128,0,26889:0:0:0:0:
64,192,26889,128,0,27350:0:0:0:0:
192,192,27004,1,0,0:0:0:0:
320,192,27350,1,0,0:0:0:0:
448,192,27350,128,0,27581:0:0:0:0:
192,192,27581,128,0,27812:0:0:0:0:
448,192,27696,1,0,0:0:0:0:
320,192,27812,128,0,28043:0:0:0:0:
64,192,27812,128,0,28043:0:0:0:0:
448,192,28043,128,0,28273:0:0:0:0:
192,192,28158,1,0,0:0:0:0:
64,192,28273,128,0,28504:0:0:0:0:
320,192,28504,128,0,28735:0:0:0:0:
192,192,28735,128,0,29658:0:0:0:0:
448,192,28850,1,0,0:0:0:0:
64,192,29081,1,0,0:0:0:0:
320,192,29196,128,0,29658:0:0:0:0:
448,192,29427,1,0,0:0:0:0:
64,192,29543,1,0,0:0:0:0:
448,192,29658,1,0,0:0:0:0:
320,192,29812,1,0,0:0:0:0:
192,192,29966,1,0,0:0:0:0:
448,192,30120,1,0,0:0:0:0:
320,192,30273,1,0,0:0:0:0:
192,192,30427,1,0,0:0:0:0:
448,192,30581,1,0,0:0:0:0:
320,192,30735,1,0,0:0:0:0:
192,192,30889,1,0,0:0:0:0:
448,192,31043,1,0,0:0:0:0:
320,192,31100,1,0,0:0:0:0:
192,192,31158,1,0,0:0:0:0:
64,192,31216,1,0,0:0:0:0:
448,192,31350,1,0,0:0:0:0:
64,192,31504,1,0,0:0:0:0:
192,192,31562,1,0,0:0:0:0:
320,192,31620,1,0,0:0:0:0:
448,192,31677,1,0,0:0:0:0:
192,192,31812,1,0,0:0:0:0:
64,192,31966,1,0,0:0:0:0:
192,192,32120,1,0,0:0:0:0:
320,192,32273,1,0,0:0:0:0:
64,192,32427,1,0,0:0:0:0:
192,192,32735,1,0,0:0:0:0:
448,192,33120,1,0,0:0:0:0:
320,192,33235,1,0,0:0:0:0:
192,192,33350,1,0,0:0:0:0:
64,192,33350,128,0,33696:0:0:0:0:
448,192,33696,1,0,0:0:0:0:
320,192,34043,1,0,0:0:0:0:
192,192,34043,1,0,0:0:0:0:
192,192,34273,1,0,0:0:0:0:
192,192,34504,1,0,0:0:0:0:
192,192,34735,128,0,35196:0:0:0:0:
320,192,34735,128,0,35196:0:0:0:0:
64,192,35196,128,0,35658:0:0:0:0:
448,192,35889,128,0,36120:0:0:0:0:
320,192,36120,128,0,36350:0:0:0:0:
192,192,36350,128,0,36581:0:0:0:0:
64,192,36581,128,0,36812:0:0:0:0:
320,192,36812,128,0,37043:0:0:0:0:
64,192,37043,1,0,0:0:0:0:
192,192,37043,128,0,37389:0:0:0:0:
448,192,37043,1,0,0:0:0:0:
320,192,37389,1,0,0:0:0:0:
192,192,37504,1,0,0:0:0:0:
320,192,37620,1,0,0:0:0:0:
448,192,37735,1,0,0:0:0:0:
64,192,37735,128,0,37966:0:0:0:0:
192,192,37966,1,0,0:0:0:0:
320,192,37966,1,0,0:0:0:0:
448,192,37966,128,0,38196:0:0:0:0:
192,192,38196,128,0,38427:0:0:0:0:
320,192,38427,1,0,0:0:0:0:
448,192,38427,128,0,38889:0:0:0:0:
64,192,38658,1,0,0:0:0:0:
192,192,38773,1,0,0:0:0:0:
320,192,38889,128,0,39350:0:0:0:0:
192,192,39120,1,0,0:0:0:0:
64,192,39120,1,0,0:0:0:0:
192,192,39350,1,0,0:0:0:0:
64,192,39350,1,0,0:0:0:0:
448,192,39581,128,0,39812:0:0:0:0:
192,192,39812,1,0,0:0:0:0:
320,192,39812,1,0,0:0:0:0:
64,192,39812,1,0,0:0:0:0:
64,192,40043,1,0,0:0:0:0:
64,192,40273,1,0,0:0:0:0:
64,192,40504,1,0,0:0:0:0:
448,192,40735,1,0,0:0:0:0:
320,192,40735,1,0,0:0:0:0:
192,192,40735,128,0,41196:0:0:0:0:
64,192,41196,128,0,41427:0:0:0:0:
320,192,41427,128,0,41658:0:0:0:0:
192,192,41427,1,0,0:0:0:0:
192,192,41658,128,0,41889:0:0:0:0:
448,192,41658,1,0,0:0:0:0:
64,192,41658,1,0,0:0:0:0:
448,192,41889,128,0,42120:0:0:0:0:
64,192,42120,128,0,42581:0:0:0:0:
320,192,42120,1,0,0:0:0:0:
320,192,42581,1,0,0:0:0:0:
320,192,42812,128,0,43043:0:0:0:0:
64,192,43043,1,0,0:0:0:0:
192,192,43043,128,0,43273:0:0:0:0:
448,192,43273,1,0,0:0:0:0:
64,192,43504,1,0,0:0:0:0:
192,192,43504,1,0,0:0:0:0:
320,192,43504,128,0,43735:0:0:0:0:
192,192,43735,1,0,0:0:0:0:
448,192,43735,1,0,0:0:0:0:
64,192,43966,128,0,44427:0:0:0:0:
448,192,43966,128,0,44427:0:0:0:0:
192,192,44196,1,0,0:0:0:0:
320,192,44196,1,0,0:0:0:0:
192,192,44427,128,0,44658:0:0:0:0:
320,192,44427,1,0,0:0:0:0:
320,192,44658,128,0,44889:0:0:0:0:
448,192,44889,1,0,0:0:0:0:
192,192,45120,1,0,0:0:0:0:
64,192,45120,128,0,45350:0:0:0:0:
448,192,45350,1,0,0:0:0:0:
192,192,45350,1,0,0:0:0:0:
320,192,45350,128,0,45581:0:0:0:0:
192,192,45581,128,0,45812:0:0:0:0:
448,192,45812,128,0,46158:0:0:0:0:
64,192,45812,128,0,46158:0:0:0:0:
64,192,46273,128,0,46504:0:0:0:0:
448,192,46273,128,0,46504:0:0:0:0:
192,192,46735,128,0,46966:0:0:0:0:
320,192,46735,128,0,46966:0:0:0:0:
64,192,47196,1,0,0:0:0:0:
192,192,47196,128,0,47427:0:0:0:0:
320,192,47196,128,0,47427:0:0:0:0:
448,192,47196,1,0,0:0:0:0:
64,192,47658,128,0,47889:0:0:0:0:
448,192,47889,128,0,48120:0:0:0:0:
320,192,47889,1,0,0:0:0:0:
192,192,48120,1,0,0:0:0:0:
64,192,48120,128,0,48466:0:0:0:0:
320,192,48466,1,0,0:0:0:0:
192,192,48812,1,0,0:0:0:0:
320,192,48927,1,0,0:0:0:0:
192,192,49043,1,0,0:0:0:0:
192,192,49273,1,0,0:0:0:0:
192,192,49504,128,0,49966:0:0:0:0:
320,192,49504,128,0,49735:0:0:0:0:
448,192,49735,1,0,0:0:0:0:
320,192,49850,1,0,0:0:0:0:
64,192,49966,128,0,50312:0:0:0:0:
320,192,50196,1,0,0:0:0:0:
192,192,50312,1,0,0:0:0:0:
64,192,50427,1,0,0:0:0:0:
320,192,50658,1,0,0:0:0:0:
192,192,50773,1,0,0:0:0:0:
320,192,50889,128,0,51120:0:0:0:0:
448,192,51120,128,0,51350:0:0:0:0:
192,192,51350,128,0,51581:0:0:0:0:
320,192,51581,128,0,51812:0:0:0:0:
192,192,51812,1,0,0:0:0:0:
64,192,51812,1,0,0:0:0:0:
448,192,51812,1,0,0:0:0:0:
320,192,51927,1,0,0:0:0:0:
192,192,52043,128,0,52273:0:0:0:0:
64,192,52273,1,0,0:0:0:0:
320,192,52389,1,0,0:0:0:0:
64,192,52504,1,0,0:0:0:0:
192,192,52504,1,0,0:0:0:0:
448,192,52620,1,0,0:0:0:0:
192,192,52735,1,0,0:0:0:0:
64,192,52735,1,0,0:0:0:0:
320,192,52735,128,0,52966:0:0:0:0:
192,192,52966,128,0,53196:0:0:0:0:
448,192,53196,128,0,53427:0:0:0:0:
64,192,53196,1,0,0:0:0:0:
320,192,53427,1,0,0:0:0:0:
192,192,53543,1,0,0:0:0:0:
320,192,53658,1,0,0:0:0:0:
192,192,53773,1,0,0:0:0:0:
64,192,53889,1,0,0:0:0:0:
448,192,53889,1,0,0:0:0:0:
320,192,54004,1,0,0:0:0:0:
448,192,54120,128,0,54350:0:0:0:0:
192,192,54350,1,0,0:0:0:0:
64,192,54350,128,0,54581:0:0:0:0:
192,192,54581,1,0,0:0:0:0:
448,192,54581,1,0,0:0:0:0:
320,192,54581,128,0,54812:0:0:0:0:
192,192,54812,1,0,0:0:0:0:
448,192,54927,1,0,0:0:0:0:
64,192,55043,1,0,0:0:0:0:
320,192,55158,1,0,0:0:0:0:
192,192,55273,1,0,0:0:0:0:
320,192,55389,1,0,0:0:0:0:
448,192,55504,128,0,55966:0:0:0:0:
64,192,55504,128,0,55735:0:0:0:0:
192,192,56196,128,0,56658:0:0:0:0:
320,192,56196,1,0,0:0:0:0:
64,192,56427,1,0,0:0:0:0:
448,192,56427,1,0,0:0:0:0:
320,192,56427,1,0,0:0:0:0:
448,192,56889,128,0,57350:0:0:0:0:
320,192,56889,128,0,57350:0:0:0:0:
64,192,57350,128,0,57581:0:0:0:0:
192,192,57581,1,0,0:0:0:0:
320,192,57581,128,0,57812:0:0:0:0:
192,192,57812,128,0,58043:0:0:0:0:
64,192,58043,1,0,0:0:0:0:
448,192,58043,128,0,58273:0:0:0:0:
320,192,58273,1,0,0:0:0:0:
192,192,58273,1,0,0:0:0:0:
64,192,58273,128,0,58504:0:0:0:0:
320,192,58504,128,0,58735:0:0:0:0:
192,192,58735,1,0,0:0:0:0:
192,192,58966,1,0,0:0:0:0:
64,192,59196,1,0,0:0:0:0:
448,192,59196,128,0,59312:0:0:0:0:
448,192,59427,128,0,59543:0:0:0:0:
192,192,59889,1,0,0:0:0:0:
320,192,59889,128,0,60004:0:0:0:0:
64,192,60120,1,0,0:0:0:0:
448,192,60120,1,0,0:0:0:0:
320,192,60120,128,0,60235:0:0:0:0:
448,192,60581,1,0,0:0:0:0:
192,192,60581,128,0,60696:0:0:0:0:
192,192,60812,128,0,60927:0:0:0:0:
64,192,61043,1,0,0:0:0:0:
320,192,61043,1,0,0:0:0:0:
448,192,61273,1,0,0:0:0:0:
192,192,61504,1,0,0:0:0:0:
320,192,61504,1,0,0:0:0:0:
64,192,61735,1,0,0:0:0:0:
320,192,61966,1,0,0:0:0:0:
448,192,61966,1,0,0:0:0:0:
192,192,62196,1,0,0:0:0:0:
64,192,62427,1,0,0:0:0:0:
448,192,62427,1,0,0:0:0:0:
320,192,62658,1,0,0:0:0:0:
64,192,62889,1,0,0:0:0:0:
192,192,62889,1,0,0:0:0:0:
320,192,63004,1,0,0:0:0:0:
192,192,63120,1,0,0:0:0:0:
448,192,63235,1,0,0:0:0:0:
192,192,63350,1,0,0:0:0:0:
320,192,63466,1,0,0:0:0:0:
64,192,63581,1,0,0:0:0:0:
192,192,63696,1,0,0:0:0:0:
320,192,63812,1,0,0:0:0:0:
64,192,63927,1,0,0:0:0:0:
320,192,64043,1,0,0:0:0:0:
192,192,64158,1,0,0:0:0:0:
448,192,64273,1,0,0:0:0:0:
192,192,64389,1,0,0:0:0:0:
320,192,64504,1,0,0:0:0:0:
64,192,64620,1,0,0:0:0:0:
192,192,64735,1,0,0:0:0:0:
64,192,64850,1,0,0:0:0:0:
320,192,64966,1,0,0:0:0:0:
192,192,65081,1,0,0:0:0:0:
320,192,65196,1,0,0:0:0:0:
448,192,65312,1,0,0:0:0:0:
192,192,65427,1,0,0:0:0:0:
320,192,65543,1,0,0:0:0:0:
192,192,65658,1,0,0:0:0:0:
448,192,65773,1,0,0:0:0:0:
320,192,65889,1,0,0:0:0:0:
192,192,66004,1,0,0:0:0:0:
64,192,66120,1,0,0:0:0:0:
320,192,66235,1,0,0:0:0:0:
192,192,66350,1,0,0:0:0:0:
320,192,66466,1,0,0:0:0:0:
64,192,66581,1,0,0:0:0:0:
192,192,66696,1,0,0:0:0:0:
64,192,66812,1,0,0:0:0:0:
320,192,66927,1,0,0:0:0:0:
192,192,67043,1,0,0:0:0:0:
320,192,67158,1,0,0:0:0:0:
448,192,67273,1,0,0:0:0:0:
192,192,67389,1,0,0:0:0:0:
320,192,67504,1,0,0:0:0:0:
64,192,67620,1,0,0:0:0:0:
192,192,67735,1,0,0:0:0:0:
320,192,67850,1,0,0:0:0:0:
192,192,67966,1,0,0:0:0:0:
448,192,68081,1,0,0:0:0:0:
192,192,68196,1,0,0:0:0:0:
320,192,68312,1,0,0:0:0:0:
448,192,68427,1,0,0:0:0:0:
192,192,68543,1,0,0:0:0:0:
320,192,68658,1,0,0:0:0:0:
192,192,68773,1,0,0:0:0:0:
448,192,68889,1,0,0:0:0:0:
64,192,69004,1,0,0:0:0:0:
192,192,69120,1,0,0:0:0:0:
320,192,69235,1,0,0:0:0:0:
64,192,69350,1,0,0:0:0:0:
320,192,69466,1,0,0:0:0:0:
192,192,69581,1,0,0:0:0:0:
448,192,69696,1,0,0:0:0:0:
192,192,69812,1,0,0:0:0:0:
320,192,69927,1,0,0:0:0:0:
64,192,70043,1,0,0:0:0:0:
192,192,70158,1,0,0:0:0:0:
320,192,70273,1,0,0:0:0:0:
448,192,70273,1,0,0:0:0:0:
320,192,70504,1,0,0:0:0:0:
448,192,70504,1,0,0:0:0:0:
320,192,70735,1,0,0:0:0:0:
448,192,70735,1,0,0:0:0:0:
320,192,70966,1,0,0:0:0:0:
448,192,70966,1,0,0:0:0:0:
64,192,71196,1,0,0:0:0:0:
192,192,71196,1,0,0:0:0:0:
192,192,71427,1,0,0:0:0:0:
64,192,71427,1,0,0:0:0:0:
64,192,71658,1,0,0:0:0:0:
192,192,71658,1,0,0:0:0:0:
64,192,71889,1,0,0:0:0:0:
192,192,71889,1,0,0:0:0:0:
448,192,72120,1,0,0:0:0:0:
320,192,72120,1,0,0:0:0:0:
64,192,72350,1,0,0:0:0:0:
192,192,72350,1,0,0:0:0:0:
320,192,72581,1,0,0:0:0:0:
448,192,72581,1,0,0:0:0:0:
192,192,72812,1,0,0:0:0:0:
64,192,72812,1,0,0:0:0:0:
192,192,73043,1,0,0:0:0:0:
448,192,73043,1,0,0:0:0:0:
320,192,73273,1,0,0:0:0:0:
64,192,73273,1,0,0:0:0:0:
192,192,73504,1,0,0:0:0:0:
448,192,73504,1,0,0:0:0:0:
320,192,73735,1,0,0:0:0:0:
64,192,73735,1,0,0:0:0:0:
192,192,73966,1,0,0:0:0:0:
64,192,73966,1,0,0:0:0:0:
64,192,74196,1,0,0:0:0:0:
192,192,74196,1,0,0:0:0:0:
320,192,74427,1,0,0:0:0:0:
448,192,74427,1,0,0:0:0:0:
320,192,74658,1,0,0:0:0:0:
448,192,74658,1,0,0:0:0:0:
64,192,74889,1,0,0:0:0:0:
320,192,74889,1,0,0:0:0:0:
64,192,75120,1,0,0:0:0:0:
320,192,75120,1,0,0:0:0:0:
192,192,75350,1,0,0:0:0:0:
448,192,75350,1,0,0:0:0:0:
192,192,75581,1,0,0:0:0:0:
448,192,75581,1,0,0:0:0:0:
320,192,75812,1,0,0:0:0:0:
448,192,75812,1,0,0:0:0:0:
320,192,76043,1,0,0:0:0:0:
448,192,76043,1,0,0:0:0:0:
320,192,76273,1,0,0:0:0:0:
448,192,76273,1,0,0:0:0:0:
448,192,76504,1,0,0:0:0:0:
320,192,76504,1,0,0:0:0:0:
64,192,76735,1,0,0:0:0:0:
192,192,76735,1,0,0:0:0:0:
192,192,76966,1,0,0:0:0:0:
64,192,76966,1,0,0:0:0:0:
64,192,77196,1,0,0:0:0:0:
192,192,77196,1,0,0:0:0:0:
192,192,77427,1,0,0:0:0:0:
64,192,77427,1,0,0:0:0:0:
64,192,77658,1,0,0:0:0:0:
448,192,77658,1,0,0:0:0:0:
320,192,77658,1,0,0:0:0:0:
192,192,77658,1,0,0:0:0:0:
320,192,77889,1,0,0:0:0:0:
64,192,78120,1,0,0:0:0:0:
448,192,78120,1,0,0:0:0:0:
192,192,78120,1,0,0:0:0:0:
320,192,78120,1,0,0:0:0:0:
192,192,78350,1,0,0:0:0:0:
320,192,78581,1,0,0:0:0:0:
448,192,78581,1,0,0:0:0:0:
64,192,78581,1,0,0:0:0:0:
192,192,78581,1,0,0:0:0:0:
320,192,78812,1,0,0:0:0:0:
64,192,79043,1,0,0:0:0:0:
448,192,79043,1,0,0:0:0:0:
320,192,79043,1,0,0:0:0:0:
192,192,79043,1,0,0:0:0:0:
320,192,79158,1,0,0:0:0:0:
448,192,79158,1,0,0:0:0:0:
320,192,79273,1,0,0:0:0:0:
448,192,79273,1,0,0:0:0:0:
448,192,79389,1,0,0:0:0:0:
320,192,79389,1,0,0:0:0:0:
64,192,79504,1,0,0:0:0:0:
320,192,79504,1,0,0:0:0:0:
448,192,79504,1,0,0:0:0:0:
192,192,79504,1,0,0:0:0:0:
192,192,79735,1,0,0:0:0:0:
64,192,79966,1,0,0:0:0:0:
192,192,79966,1,0,0:0:0:0:
320,192,79966,1,0,0:0:0:0:
448,192,79966,1,0,0:0:0:0:
64,192,80196,1,0,0:0:0:0:
320,192,80196,1,0,0:0:0:0:
192,192,80427,1,0,0:0:0:0:
448,192,80427,1,0,0:0:0:0:
320,192,80427,1,0,0:0:0:0:
320,192,80658,1,0,0:0:0:0:
448,192,80658,1,0,0:0:0:0:
64,192,80889,1,0,0:0:0:0:
192,192,80889,1,0,0:0:0:0:
448,192,80889,1,0,0:0:0:0:
64,192,81120,1,0,0:0:0:0:
448,192,81120,1,0,0:0:0:0:
192,192,81177,1,0,0:0:0:0:
320,192,81235,1,0,0:0:0:0:
64,192,81293,1,0,0:0:0:0:
448,192,81350,1,0,0:0:0:0:
192,192,81350,1,0,0:0:0:0:
320,192,81581,1,0,0:0:0:0:
448,192,81812,1,0,0:0:0:0:
192,192,81812,1,0,0:0:0:0:
64,192,81812,1,0,0:0:0:0:
320,192,82043,1,0,0:0:0:0:
448,192,82043,1,0,0:0:0:0:
192,192,82273,1,0,0:0:0:0:
448,192,82273,1,0,0:0:0:0:
64,192,82273,1,0,0:0:0:0:
64,192,82504,1,0,0:0:0:0:
192,192,82504,1,0,0:0:0:0:
320,192,82735,1,0,0:0:0:0:
448,192,82735,1,0,0:0:0:0:
64,192,82735,1,0,0:0:0:0:
192,192,82966,1,0,0:0:0:0:
64,192,83196,1,0,0:0:0:0:
192,192,83196,1,0,0:0:0:0:
448,192,83196,128,0,83658:0:0:0:0:
320,192,83427,1,0,0:0:0:0:
192,192,83658,1,0,0:0:0:0:
320,192,83658,1,0,0:0:0:0:
64,192,83658,128,0,83716:0:0:0:0:
64,192,83889,1,0,0:0:0:0:
192,192,83889,128,0,84062:0:0:0:0:
192,192,84120,1,0,0:0:0:0:
64,192,84120,1,0,0:0:0:0:
320,192,84120,128,0,84293:0:0:0:0:
320,192,84350,1,0,0:0:0:0:
448,192,84350,128,0,84523:0:0:0:0:
448,192,84581,1,0,0:0:0:0:
64,192,84581,1,0,0:0:0:0:
192,192,84581,128,0,84754:0:0:0:0:
192,192,84812,1,0,0:0:0:0:
320,192,84812,128,0,84985:0:0:0:0:
64,192,85043,1,0,0:0:0:0:
320,192,85043,128,0,85331:0:0:0:0:
448,192,85043,1,0,0:0:0:0:
64,192,85273,1,0,0:0:0:0:
192,192,85273,1,0,0:0:0:0:
320,192,85389,1,0,0:0:0:0:
448,192,85389,1,0,0:0:0:0:
64,192,85504,1,0,0:0:0:0:
192,192,85504,128,0,85677:0:0:0:0:
448,192,85620,1,0,0:0:0:0:
320,192,85735,1,0,0:0:0:0:
192,192,85735,128,0,85908:0:0:0:0:
64,192,85850,1,0,0:0:0:0:
448,192,85850,1,0,0:0:0:0:
192,192,85966,1,0,0:0:0:0:
320,192,85966,128,0,86139:0:0:0:0:
448,192,86081,1,0,0:0:0:0:
64,192,86081,1,0,0:0:0:0:
320,192,86196,1,0,0:0:0:0:
192,192,86196,128,0,86370:0:0:0:0:
64,192,86312,1,0,0:0:0:0:
448,192,86312,1,0,0:0:0:0:
320,192,86427,128,0,86831:0:0:0:0:
192,192,86427,1,0,0:0:0:0:
64,192,86658,1,0,0:0:0:0:
448,192,86658,1,0,0:0:0:0:
192,192,86773,1,0,0:0:0:0:
320,192,86889,128,0,87293:0:0:0:0:
64,192,86889,1,0,0:0:0:0:
448,192,86889,1,0,0:0:0:0:
64,192,87120,1,0,0:0:0:0:
192,192,87120,1,0,0:0:0:0:
448,192,87235,1,0,0:0:0:0:
64,192,87350,1,0,0:0:0:0:
192,192,87350,1,0,0:0:0:0:
320,192,87350,1,0,0:0:0:0:
448,192,87466,1,0,0:0:0:0:
448,192,87581,1,0,0:0:0:0:
320,192,87581,1,0,0:0:0:0:
192,192,87581,1,0,0:0:0:0:
64,192,87581,1,0,0:0:0:0:
64,192,87696,1,0,0:0:0:0:
192,192,87696,1,0,0:0:0:0:
320,192,87812,1,0,0:0:0:0:
448,192,87812,1,0,0:0:0:0:
64,192,87927,1,0,0:0:0:0:
192,192,87927,1,0,0:0:0:0:
320,192,87927,1,0,0:0:0:0:
448,192,87927,1,0,0:0:0:0:
448,192,88043,1,0,0:0:0:0:
320,192,88043,1,0,0:0:0:0:
192,192,88158,1,0,0:0:0:0:
64,192,88158,1,0,0:0:0:0:
64,192,88273,1,0,0:0:0:0:
192,192,88273,1,0,0:0:0:0:
320,192,88273,1,0,0:0:0:0:
448,192,88273,1,0,0:0:0:0:
320,192,88389,1,0,0:0:0:0:
448,192,88389,1,0,0:0:0:0:
448,192,88504,1,0,0:0:0:0:
320,192,88504,1,0,0:0:0:0:
192,192,88504,1,0,0:0:0:0:
64,192,88504,1,0,0:0:0:0:
192,192,88620,1,0,0:0:0:0:
64,192,88735,1,0,0:0:0:0:
320,192,88735,1,0,0:0:0:0:
448,192,88735,1,0,0:0:0:0:
320,192,88850,1,0,0:0:0:0:
64,192,88966,1,0,0:0:0:0:
192,192,88966,1,0,0:0:0:0:
448,192,88966,1,0,0:0:0:0:
64,192,89081,1,0,0:0:0:0:
192,192,89196,1,0,0:0:0:0:
320,192,89196,1,0,0:0:0:0:
448,192,89196,1,0,0:0:0:0:
448,192,89312,1,0,0:0:0:0:
64,192,89427,1,0,0:0:0:0:
192,192,89427,1,0,0:0:0:0:
320,192,89427,1,0,0:0:0:0:
192,192,89543,1,0,0:0:0:0:
64,192,89658,1,0,0:0:0:0:
320,192,89658,1,0,0:0:0:0:
448,192,89658,1,0,0:0:0:0:
320,192,89773,1,0,0:0:0:0:
192,192,89889,1,0,0:0:0:0:
64,192,89889,1,0,0:0:0:0:
448,192,89889,1,0,0:0:0:0:
64,192,90004,1,0,0:0:0:0:
192,192,90120,1,0,0:0:0:0:
320,192,90120,1,0,0:0:0:0:
448,192,90120,1,0,0:0:0:0:
320,192,90235,1,0,0:0:0:0:
192,192,90350,1,0,0:0:0:0:
64,192,90350,1,0,0:0:0:0:
448,192,90350,1,0,0:0:0:0:
320,192,90466,1,0,0:0:0:0:
448,192,90581,1,0,0:0:0:0:
320,192,90581,1,0,0:0:0:0:
192,192,90581,1,0,0:0:0:0:
64,192,90581,1,0,0:0:0:0:
192,192,90696,1,0,0:0:0:0:
64,192,90812,1,0,0:0:0:0:
320,192,90812,1,0,0:0:0:0:
448,192,90812,1,0,0:0:0:0:
192,192,90927,1,0,0:0:0:0:
64,192,91043,1,0,0:0:0:0:
192,192,91043,1,0,0:0:0:0:
320,192,91043,1,0,0:0:0:0:
448,192,91043,1,0,0:0:0:0:
64,192,91158,1,0,0:0:0:0:
192,192,91273,1,0,0:0:0:0:
320,192,91273,1,0,0:0:0:0:
448,192,91273,1,0,0:0:0:0:
64,192,91389,1,0,0:0:0:0:
64,192,91504,1,0,0:0:0:0:
192,192,91504,1,0,0:0:0:0:
320,192,91504,1,0,0:0:0:0:
448,192,91504,1,0,0:0:0:0:
192,192,91620,1,0,0:0:0:0:
320,192,91735,1,0,0:0:0:0:
448,192,91735,1,0,0:0:0:0:
64,192,91735,1,0,0:0:0:0:
192,192,91850,1,0,0:0:0:0:
320,192,91966,1,0,0:0:0:0:
448,192,91966,1,0,0:0:0:0:
192,192,92081,1,0,0:0:0:0:
64,192,92081,1,0,0:0:0:0:
320,192,92196,1,0,0:0:0:0:
448,192,92196,1,0,0:0:0:0:
192,192,92312,1,0,0:0:0:0:
64,192,92312,1,0,0:0:0:0:
448,192,92427,1,0,0:0:0:0:
64,192,92427,128,0,92600:0:0:0:0:
192,192,92427,128,0,92600:0:0:0:0:
320,192,92543,1,0,0:0:0:0:
64,192,92658,128,0,92889:0:0:0:0:
192,192,92658,128,0,92831:0:0:0:0:
448,192,92773,1,0,0:0:0:0:
192,192,92889,128,0,93120:0:0:0:0:
320,192,92889,128,0,93062:0:0:0:0:
64,192,93004,1,0,0:0:0:0:
320,192,93120,128,0,93350:0:0:0:0:
448,192,93120,128,0,93293:0:0:0:0:
192,192,93235,1,0,0:0:0:0:
64,192,93350,128,0,93523:0:0:0:0:
448,192,93350,128,0,93581:0:0:0:0:
320,192,93466,1,0,0:0:0:0:
64,192,93581,128,0,93812:0:0:0:0:
192,192,93581,128,0,93754:0:0:0:0:
448,192,93696,1,0,0:0:0:0:
192,192,93812,128,0,94043:0:0:0:0:
320,192,93812,128,0,93985:0:0:0:0:
64,192,93927,1,0,0:0:0:0:
448,192,94043,128,0,94158:0:0:0:0:
320,192,94100,128,0,94216:0:0:0:0:
192,192,94158,128,0,94273:0:0:0:0:
64,192,94273,1,0,0:0:0:0:
320,192,94273,128,0,94562:0:0:0:0:
192,192,94389,128,0,94504:0:0:0:0:
448,192,94504,128,0,94793:0:0:0:0:
64,192,94504,128,0,94620:0:0:0:0:
320,192,94620,128,0,94735:0:0:0:0:
192,192,94735,128,0,95023:0:0:0:0:
64,192,94735,128,0,94850:0:0:0:0:
448,192,94850,128,0,94966:0:0:0:0:
320,192,94966,128,0,95254:0:0:0:0:
64,192,94966,128,0,95081:0:0:0:0:
192,192,95081,128,0,95196:0:0:0:0:
64,192,95196,128,0,95485:0:0:0:0:
448,192,95196,128,0,95312:0:0:0:0:
320,192,95312,128,0,95427:0:0:0:0:
192,192,95427,128,0,95716:0:0:0:0:
448,192,95427,128,0,95543:0:0:0:0:
64,192,95543,128,0,95658:0:0:0:0:
320,192,95658,128,0,95946:0:0:0:0:
448,192,95658,128,0,95773:0:0:0:0:
192,192,95773,128,0,95889:0:0:0:0:
64,192,95889,128,0,96004:0:0:0:0:
448,192,95889,128,0,96004:0:0:0:0:
320,192,96004,128,0,96120:0:0:0:0:
192,192,96062,128,0,96120:0:0:0:0:
64,192,96120,128,0,96177:0:0:0:0:
448,192,96120,128,0,96177:0:0:0:0:
192,192,96235,128,0,96293:0:0:0:0:
320,192,96350,128,0,96408:0:0:0:0:
448,192,96350,128,0,96408:0:0:0:0:
64,192,96466,128,0,96523:0:0:0:0:
448,192,96581,128,0,96639:0:0:0:0:
320,192,96581,128,0,96639:0:0:0:0:
64,192,96696,128,0,96754:0:0:0:0:
192,192,96812,128,0,96870:0:0:0:0:
320,192,96812,128,0,96870:0:0:0:0:
448,192,96927,128,0,96985:0:0:0:0:
64,192,97043,128,0,97100:0:0:0:0:
192,192,97043,128,0,97100:0:0:0:0:
320,192,97158,128,0,97216:0:0:0:0:
64,192,97273,128,0,97331:0:0:0:0:
448,192,97273,128,0,97331:0:0:0:0:
192,192,97389,128,0,97446:0:0:0:0:
320,192,97504,128,0,97562:0:0:0:0:
448,192,97504,128,0,97562:0:0:0:0:
64,192,97620,128,0,97677:0:0:0:0:
192,192,97735,128,0,97793:0:0:0:0:
320,192,97735,128,0,97793:0:0:0:0:
448,192,97850,128,0,97908:0:0:0:0:
64,192,97966,128,0,98023:0:0:0:0:
192,192,98023,128,0,98081:0:0:0:0:
320,192,98081,128,0,98196:0:0:0:0:
64,192,98139,128,0,98427:0:0:0:0:
192,192,98196,128,0,98254:0:0:0:0:
448,192,98254,128,0,98312:0:0:0:0:
320,192,98312,128,0,98370:0:0:0:0:
192,192,98370,128,0,98485:0:0:0:0:
448,192,98427,128,0,98600:0:0:0:0:
320,192,98485,128,0,98543:0:0:0:0:
64,192,98543,128,0,98716:0:0:0:0:
192,192,98600,128,0,98658:0:0:0:0:
320,192,98658,128,0,98831:0:0:0:0:
448,192,98716,128,0,98773:0:0:0:0:
192,192,98773,128,0,98889:0:0:0:0:
64,192,98831,128,0,98946:0:0:0:0:
448,192,98889,128,0,99004:0:0:0:0:
320,192,98946,128,0,99062:0:0:0:0:
192,192,99004,128,0,99177:0:0:0:0:
64,192,99062,128,0,99120:0:0:0:0:
448,192,99120,128,0,99235:0:0:0:0:
320,192,99177,128,0,99235:0:0:0:0:
64,192,99235,128,0,99293:0:0:0:0:
192,192,99293,128,0,99350:0:0:0:0:
320,192,99350,128,0,99523:0:0:0:0:
448,192,99350,128,0,99523:0:0:0:0:
448,192,99581,128,0,100216:0:0:0:0:
320,192,99581,128,0,100216:0:0:0:0:
64,192,99581,1,0,0:0:0:0:
192,192,99581,1,0,0:0:0:0:
192,192,99696,1,0,0:0:0:0:
64,192,99696,1,0,0:0:0:0:
64,192,99812,128,0,100273:0:0:0:0:
192,192,99812,128,0,100273:0:0:0:0:
320,192,100273,1,0,0:0:0:0:
448,192,100273,1,0,0:0:0:0:
192,192,100389,1,0,0:0:0:0:
320,192,100504,1,0,0:0:0:0:
448,192,100504,1,0,0:0:0:0:
320,192,100620,1,0,0:0:0:0:
448,192,100620,1,0,0:0:0:0:
320,192,100735,128,0,101081:0:0:0:0:
448,192,100735,128,0,100850:0:0:0:0:
64,192,100735,1,0,0:0:0:0:
192,192,100735,1,0,0:0:0:0:
448,192,100966,128,0,101543:0:0:0:0:
320,192,101196,128,0,102466:0:0:0:0:
64,192,101196,1,0,0:0:0:0:
192,192,101196,1,0,0:0:0:0:
448,192,101658,128,0,102466:0:0:0:0:
64,192,101658,1,0,0:0:0:0:
192,192,101658,1,0,0:0:0:0:
64,192,102120,1,0,0:0:0:0:
192,192,102120,1,0,0:0:0:0:
64,192,102350,1,0,0:0:0:0:
192,192,102350,1,0,0:0:0:0:
192,192,102466,1,0,0:0:0:0:
64,192,102466,1,0,0:0:0:0:
64,192,102581,128,0,102927:0:0:0:0:
320,192,102581,1,0,0:0:0:0:
448,192,102581,1,0,0:0:0:0:
192,192,102581,128,0,102696:0:0:0:0:
192,192,102812,128,0,103389:0:0:0:0:
64,192,103043,128,0,103389:0:0:0:0:
320,192,103043,1,0,0:0:0:0:
448,192,103043,1,0,0:0:0:0:
64,192,103504,128,0,103677:0:0:0:0:
192,192,103504,128,0,103677:0:0:0:0:
448,192,103504,128,0,103677:0:0:0:0:
320,192,103504,1,0,0:0:0:0:
64,192,103735,128,0,103908:0:0:0:0:
320,192,103735,128,0,103908:0:0:0:0:
448,192,103735,128,0,103908:0:0:0:0:
64,192,103966,128,0,104139:0:0:0:0:
192,192,103966,128,0,104139:0:0:0:0:
320,192,103966,128,0,104139:0:0:0:0:
448,192,103966,1,0,0:0:0:0:
192,192,104196,128,0,104370:0:0:0:0:
320,192,104196,128,0,104370:0:0:0:0:
448,192,104196,128,0,104370:0:0:0:0:
64,192,104427,128,0,104485:0:0:0:0:
192,192,104427,128,0,104543:0:0:0:0:
320,192,104427,128,0,104600:0:0:0:0:
320,192,104658,1,0,0:0:0:0:
64,192,104889,128,0,105062:0:0:0:0:
448,192,104889,1,0,0:0:0:0:
192,192,104946,128,0,105062:0:0:0:0:
320,192,105004,128,0,105062:0:0:0:0:
192,192,105120,128,0,105177:0:0:0:0:
320,192,105120,128,0,105235:0:0:0:0:
448,192,105120,128,0,105293:0:0:0:0:
64,192,105120,1,0,0:0:0:0:
448,192,105350,128,0,105523:0:0:0:0:
64,192,105350,1,0,0:0:0:0:
320,192,105408,128,0,105523:0:0:0:0:
192,192,105466,128,0,105523:0:0:0:0:
64,192,105581,128,0,105754:0:0:0:0:
192,192,105581,128,0,105696:0:0:0:0:
320,192,105581,128,0,105639:0:0:0:0:
448,192,105581,1,0,0:0:0:0:
448,192,105696,1,0,0:0:0:0:
320,192,105696,1,0,0:0:0:0:
64,192,105812,1,0,0:0:0:0:
192,192,105812,1,0,0:0:0:0:
320,192,105927,1,0,0:0:0:0:
448,192,105927,1,0,0:0:0:0:
64,192,106043,128,0,106620:0:0:0:0:
192,192,106043,128,0,106677:0:0:0:0:
320,192,106273,128,0,106735:0:0:0:0:
448,192,106273,128,0,106793:0:0:0:0:
64,192,106735,128,0,106850:0:0:0:0:
192,192,106793,128,0,106908:0:0:0:0:
320,192,106850,128,0,106966:0:0:0:0:
448,192,106908,128,0,107023:0:0:0:0:
64,192,106908,1,0,0:0:0:0:
192,192,106966,1,0,0:0:0:0:
320,192,107023,1,0,0:0:0:0:
448,192,107081,1,0,0:0:0:0:
64,192,107196,128,0,107600:0:0:0:0:
192,192,107196,128,0,107254:0:0:0:0:
320,192,107196,1,0,0:0:0:0:
448,192,107312,1,0,0:0:0:0:
320,192,107427,1,0,0:0:0:0:
192,192,107543,1,0,0:0:0:0:
64,192,107658,1,0,0:0:0:0:
320,192,107658,128,0,107716:0:0:0:0:
448,192,107658,128,0,108062:0:0:0:0:
192,192,107773,1,0,0:0:0:0:
320,192,107889,128,0,108062:0:0:0:0:
64,192,108004,1,0,0:0:0:0:
192,192,108120,128,0,108293:0:0:0:0:
320,192,108120,1,0,0:0:0:0:
448,192,108235,1,0,0:0:0:0:
64,192,108350,128,0,108523:0:0:0:0:
192,192,108350,1,0,0:0:0:0:
448,192,108466,1,0,0:0:0:0:
192,192,108581,128,0,108754:0:0:0:0:
320,192,108581,128,0,108754:0:0:0:0:
64,192,108696,1,0,0:0:0:0:
320,192,108812,128,0,108985:0:0:0:0:
448,192,108812,128,0,108985:0:0:0:0:
192,192,108927,1,0,0:0:0:0:
320,192,109043,128,0,109100:0:0:0:0:
64,192,109043,128,0,109158:0:0:0:0:
448,192,109043,128,0,109331:0:0:0:0:
192,192,109158,128,0,109273:0:0:0:0:
320,192,109273,128,0,109389:0:0:0:0:
448,192,109389,128,0,109504:0:0:0:0:
64,192,109504,128,0,109908:0:0:0:0:
192,192,109504,128,0,109562:0:0:0:0:
320,192,109504,1,0,0:0:0:0:
448,192,109620,128,0,109735:0:0:0:0:
320,192,109735,128,0,109908:0:0:0:0:
192,192,109850,128,0,109966:0:0:0:0:
64,192,109966,128,0,110139:0:0:0:0:
320,192,109966,128,0,110023:0:0:0:0:
448,192,109966,1,0,0:0:0:0:
320,192,110081,1,0,0:0:0:0:
448,192,110196,128,0,110370:0:0:0:0:
64,192,110196,128,0,110254:0:0:0:0:
192,192,110196,128,0,110254:0:0:0:0:
64,192,110312,1,0,0:0:0:0:
192,192,110312,1,0,0:0:0:0:
64,192,110427,128,0,110485:0:0:0:0:
448,192,110427,128,0,110485:0:0:0:0:
192,192,110427,1,0,0:0:0:0:
320,192,110485,128,0,110543:0:0:0:0:
192,192,110543,128,0,110600:0:0:0:0:
64,192,110600,128,0,110658:0:0:0:0:
448,192,110600,128,0,110831:0:0:0:0:
320,192,110658,128,0,110831:0:0:0:0:
192,192,110716,128,0,110831:0:0:0:0:
64,192,110773,128,0,110831:0:0:0:0:
64,192,110889,128,0,111004:0:0:0:0:
192,192,110889,128,0,111004:0:0:0:0:
448,192,110889,128,0,111120:0:0:0:0:
320,192,111004,128,0,111235:0:0:0:0:
64,192,111120,128,0,111235:0:0:0:0:
192,192,111120,128,0,111235:0:0:0:0:
448,192,111235,128,0,111350:0:0:0:0:
320,192,111350,128,0,111581:0:0:0:0:
192,192,111350,128,0,111466:0:0:0:0:
64,192,111350,128,0,111466:0:0:0:0:
448,192,111466,128,0,111696:0:0:0:0:
64,192,111581,128,0,111696:0:0:0:0:
192,192,111581,128,0,111696:0:0:0:0:
320,192,111696,128,0,111812:0:0:0:0:
64,192,111812,128,0,111927:0:0:0:0:
192,192,111812,128,0,112043:0:0:0:0:
448,192,111812,128,0,111927:0:0:0:0:
320,192,111927,128,0,112158:0:0:0:0:
64,192,112043,128,0,112158:0:0:0:0:
448,192,112043,128,0,112158:0:0:0:0:
192,192,112158,128,0,112273:0:0:0:0:
320,192,112273,128,0,112389:0:0:0:0:
448,192,112273,128,0,112389:0:0:0:0:
64,192,112273,128,0,112504:0:0:0:0:
192,192,112389,128,0,112620:0:0:0:0:
320,192,112504,128,0,112620:0:0:0:0:
448,192,112504,128,0,112620:0:0:0:0:
64,192,112620,128,0,112735:0:0:0:0:
192,192,112735,128,0,112850:0:0:0:0:
320,192,112735,128,0,112966:0:0:0:0:
448,192,112735,128,0,112850:0:0:0:0:
64,192,112850,128,0,113081:0:0:0:0:
192,192,112966,128,0,113081:0:0:0:0:
448,192,112966,128,0,113081:0:0:0:0:
320,192,113081,128,0,113196:0:0:0:0:
448,192,113196,128,0,113427:0:0:0:0:
64,192,113196,128,0,113312:0:0:0:0:
192,192,113196,128,0,113312:0:0:0:0:
320,192,113312,128,0,113543:0:0:0:0:
64,192,113427,128,0,113543:0:0:0:0:
192,192,113427,128,0,113543:0:0:0:0:
448,192,113543,128,0,113658:0:0:0:0:
320,192,113658,128,0,113773:0:0:0:0:
192,192,113658,128,0,113889:0:0:0:0:
64,192,113658,128,0,113773:0:0:0:0:
448,192,113773,128,0,114004:0:0:0:0:
64,192,113889,128,0,114293:0:0:0:0:
320,192,113889,128,0,114004:0:0:0:0:
192,192,114004,128,0,114293:0:0:0:0:
320,192,114120,128,0,114293:0:0:0:0:
448,192,114120,128,0,114293:0:0:0:0:
64,192,114350,128,0,114523:0:0:0:0:
192,192,114350,128,0,114523:0:0:0:0:
320,192,114350,1,0,0:0:0:0:
448,192,114350,1,0,0:0:0:0:
64,192,114581,128,0,114754:0:0:0:0:
192,192,114581,128,0,114696:0:0:0:0:
320,192,114581,1,0,0:0:0:0:
448,192,114696,128,0,114812:0:0:0:0:
64,192,114812,128,0,114927:0:0:0:0:
320,192,114812,128,0,114927:0:0:0:0:
192,192,114927,128,0,115043:0:0:0:0:
320,192,115043,128,0,115158:0:0:0:0:
64,192,115043,1,0,0:0:0:0:
448,192,115043,128,0,115216:0:0:0:0:
192,192,115158,128,0,115389:0:0:0:0:
64,192,115273,128,0,115908:0:0:0:0:
320,192,115273,128,0,115389:0:0:0:0:
448,192,115389,128,0,115850:0:0:0:0:
192,192,115504,128,0,115620:0:0:0:0:
320,192,115504,128,0,115735:0:0:0:0:
192,192,115735,128,0,115850:0:0:0:0:
320,192,115850,128,0,115966:0:0:0:0:
192,192,115966,128,0,116081:0:0:0:0:
448,192,115966,128,0,116081:0:0:0:0:
64,192,115966,128,0,116139:0:0:0:0:
320,192,116081,128,0,116370:0:0:0:0:
192,192,116196,128,0,116370:0:0:0:0:
448,192,116196,128,0,116370:0:0:0:0:
64,192,116312,128,0,116370:0:0:0:0:
192,192,116427,128,0,116485:0:0:0:0:
320,192,116427,128,0,116543:0:0:0:0:
448,192,116427,128,0,116600:0:0:0:0:
64,192,116543,128,0,116658:0:0:0:0:
192,192,116658,128,0,116773:0:0:0:0:
320,192,116658,128,0,116773:0:0:0:0:
448,192,116773,128,0,116889:0:0:0:0:
64,192,116889,128,0,117062:0:0:0:0:
192,192,116889,128,0,117004:0:0:0:0:
320,192,116889,128,0,116946:0:0:0:0:
448,192,117004,128,0,117177:0:0:0:0:
320,192,117062,128,0,117120:0:0:0:0:
192,192,117120,128,0,117293:0:0:0:0:
64,192,117177,128,0,117235:0:0:0:0:
320,192,117235,128,0,117350:0:0:0:0:
448,192,117293,128,0,117408:0:0:0:0:
64,192,117350,128,0,117466:0:0:0:0:
192,192,117408,128,0,117523:0:0:0:0:
320,192,117466,128,0,117581:0:0:0:0:
448,192,117523,128,0,117639:0:0:0:0:
64,192,117581,128,0,117754:0:0:0:0:
192,192,117639,128,0,117754:0:0:0:0:
320,192,117696,128,0,117754:0:0:0:0:
448,192,117754,128,0,117812:0:0:0:0:
64,192,117812,1,0,0:0:0:0:
192,192,117812,1,0,0:0:0:0:
320,192,117812,1,0,0:0:0:0:
192,192,118043,1,0,0:0:0:0:
448,192,118043,1,0,0:0:0:0:
64,192,118273,128,0,118504:0:0:0:0:
192,192,118273,128,0,118446:0:0:0:0:
448,192,118389,128,0,118620:0:0:0:0:
320,192,118504,128,0,118677:0:0:0:0:
192,192,118562,128,0,118735:0:0:0:0:
64,192,118620,128,0,118850:0:0:0:0:
448,192,118735,128,0,118850:0:0:0:0:
320,192,118793,128,0,118966:0:0:0:0:
192,192,118850,128,0,119081:0:0:0:0:
448,192,118966,128,0,119312:0:0:0:0:
64,192,118966,128,0,119081:0:0:0:0:
320,192,119081,128,0,119196:0:0:0:0:
64,192,119196,128,0,119427:0:0:0:0:
192,192,119196,128,0,119312:0:0:0:0:
320,192,119312,128,0,119600:0:0:0:0:
192,192,119427,128,0,119658:0:0:0:0:
448,192,119427,128,0,119543:0:0:0:0:
64,192,119543,128,0,119773:0:0:0:0:
448,192,119658,128,0,119773:0:0:0:0:
320,192,119716,128,0,119889:0:0:0:0:
192,192,119773,128,0,120062:0:0:0:0:
64,192,119889,128,0,120004:0:0:0:0:
448,192,119889,128,0,120177:0:0:0:0:
320,192,120004,128,0,120120:0:0:0:0:
64,192,120120,128,0,120235:0:0:0:0:
192,192,120177,128,0,120293:0:0:0:0:
320,192,120235,128,0,120350:0:0:0:0:
448,192,120293,128,0,120408:0:0:0:0:
192,192,120350,128,0,120466:0:0:0:0:
64,192,120408,128,0,120523:0:0:0:0:
320,192,120466,128,0,120581:0:0:0:0:
448,192,120523,128,0,120639:0:0:0:0:
192,192,120581,128,0,120696:0:0:0:0:
64,192,120639,128,0,120754:0:0:0:0:
448,192,120696,128,0,120812:0:0:0:0:
320,192,120754,128,0,120870:0:0:0:0:
192,192,120812,128,0,120927:0:0:0:0:
64,192,120870,128,0,120985:0:0:0:0:
320,192,120927,128,0,121043:0:0:0:0:
448,192,120985,128,0,121158:0:0:0:0:
64,192,121043,128,0,121158:0:0:0:0:
192,192,121100,128,0,121158:0:0:0:0:
320,192,121158,128,0,121273:0:0:0:0:
192,192,121216,128,0,121331:0:0:0:0:
448,192,121273,1,0,0:0:0:0:
64,192,121273,128,0,121389:0:0:0:0:
320,192,121331,1,0,0:0:0:0:
192,192,121389,1,0,0:0:0:0:
64,192,121446,1,0,0:0:0:0:
448,192,121504,1,0,0:0:0:0:
320,192,121620,1,0,0:0:0:0:
192,192,121735,1,0,0:0:0:0:
64,192,121850,1,0,0:0:0:0:
64,192,121966,128,0,123812:0:0:0:0:
192,192,121966,128,0,122081:0:0:0:0:
320,192,121966,128,0,122023:0:0:0:0:
448,192,121966,1,0,0:0:0:0:
