osu file format v14

[General]
AudioFilename: audio.mp3
AudioLeadIn: 0
PreviewTime: 74356
Countdown: 1
SampleSet: Soft
StackLeniency: 0.7
Mode: 0
LetterboxInBreaks: 0
WidescreenStoryboard: 1

[Editor]
DistanceSpacing: 0.8
BeatDivisor: 2
GridSize: 8
TimelineZoom: 1

[Metadata]
Title:SIGNAL
TitleUnicode:SIGNAL
Artist:TWICE
ArtistUnicode:트와이스
Creator:dingo424
Version:Hard
Source:
Tags:TWICE 트와이스 Signal 나연 정연 모모 사나 지효 미나 다현 채영 쯔위 nayeon jeongyeon momo sana jihyo mina dahyun chaeyoung tzuyu
BeatmapID:1296811
BeatmapSetID:614754

[Difficulty]
HPDrainRate:5.5
CircleSize:4
OverallDifficulty:6
ApproachRate:7
SliderMultiplier:0.75
SliderTickRate:1

[Events]
//Background and Video events
0,0,"gzc1NCT1_mini.jpg",0,0
Video,0,"signal.avi"
//Break Periods
//Storyboard Layer 0 (Background)
//Storyboard Layer 1 (Fail)
//Storyboard Layer 2 (Pass)
//Storyboard Layer 3 (Foreground)
//Storyboard Sound Samples

[TimingPoints]
530.548029114665,288.808664259928,4,2,1,65,1,0
18970,288.461538461538,4,2,1,65,1,0
27803,-66.6666666666667,4,2,1,65,0,0
37411,-66.6666666666667,4,2,1,65,0,0
55784,-66.6666666666667,4,2,1,65,0,0
74354,-66.6666666666667,4,2,1,65,0,1
92239,-66.6666666666667,4,2,1,65,0,0
138969,-66.6666666666667,4,2,1,65,0,1
174739,-66.6666666666667,4,2,1,65,0,0

[Colours]
Combo1 : 255,0,0
Combo2 : 0,64,128
Combo3 : 255,128,192
Combo4 : 0,128,128

[HitObjects]
144,200,530,5,0,0:0:0:0:
200,112,819,1,0,0:0:0:0:
264,200,1108,1,0,0:0:0:0:
328,112,1396,1,0,0:0:0:0:
368,200,1685,1,0,0:0:0:0:
328,152,2552,5,0,0:0:0:0:
328,152,2696,1,0,0:0:0:0:
328,152,2841,2,0,L|360:264,1,112.5
152,208,3707,1,0,0:0:0:0:
144,200,3851,1,0,0:0:0:0:
136,192,3996,2,0,L|112:72,1,112.5
176,216,5151,5,0,0:0:0:0:
248,128,5440,1,0,0:0:0:0:
312,216,5729,1,0,0:0:0:0:
392,128,6017,1,0,0:0:0:0:
448,224,6306,1,0,0:0:0:0:
128,136,7173,6,0,P|192:128|216:144,1,75
312,144,7750,1,0,0:0:0:0:
344,176,7895,1,0,0:0:0:0:
320,312,8328,2,0,P|280:320|232:304,1,75
152,232,8905,1,0,0:0:0:0:
128,208,9050,1,0,0:0:0:0:
96,96,9483,5,0,0:0:0:0:
128,80,9628,1,0,0:0:0:0:
160,72,9772,2,0,P|216:64|256:88,1,75
200,136,10205,1,0,0:0:0:0:
368,136,10638,1,0,0:0:0:0:
360,176,10783,1,0,0:0:0:0:
344,216,10927,2,0,P|336:256|288:288,1,75
264,216,11360,1,0,0:0:0:0:
248,48,11794,5,0,0:0:0:0:
192,56,11938,2,0,P|144:88|160:168,1,112.5
216,128,12516,1,0,0:0:0:0:
216,248,12949,1,0,0:0:0:0:
280,248,13093,2,0,P|328:208|328:152,1,112.5
240,168,13671,1,0,0:0:0:0:
120,112,14104,5,0,0:0:0:0:
80,152,14248,1,0,0:0:0:0:
80,208,14393,2,0,B|96:248|152:264,1,75
184,280,14826,1,0,0:0:0:0:
320,240,15259,1,0,0:0:0:0:
344,208,15404,1,0,0:0:0:0:
368,176,15548,2,0,P|376:144|360:96,1,75
336,72,15981,1,0,0:0:0:0:
112,64,16703,6,0,P|104:112|144:152,1,75
96,240,17281,2,0,P|104:288|144:320,1,75
248,312,17859,2,0,P|272:276|264:224,1,75
272,144,18436,1,2,0:0:0:0:
168,152,18689,5,0,0:0:0:0:
136,128,18833,1,0,0:0:0:0:
152,88,19014,2,0,P|184:64|224:56,1,75,0|8,0:0|0:0,0:0:0:0:
256,56,19402,2,0,P|296:56|328:88,1,75
336,112,19835,1,0,0:0:0:0:
352,152,19979,1,0,0:0:0:0:
360,192,20123,2,0,P|360:264|336:272,1,75,0|8,0:0|0:0,0:0:0:0:
336,296,20556,1,0,0:0:0:0:
136,208,20989,5,0,0:0:0:0:
168,176,21133,1,0,0:0:0:0:
192,144,21277,2,0,P|232:128|264:144,1,75,0|8,0:0|0:0,0:0:0:0:
296,152,21710,2,0,P|328:184|328:224,1,75
336,248,22143,2,0,P|312:288|272:312,1,75
184,72,23296,5,0,0:0:0:0:
240,56,23441,1,0,0:0:0:0:
304,56,23585,2,0,P|352:80|360:112,1,75,0|8,0:0|0:0,0:0:0:0:
392,144,24018,2,0,P|408:216|400:232,1,75
408,272,24450,1,0,0:0:0:0:
368,304,24594,1,0,0:0:0:0:
312,328,24739,2,0,P|256:336|232:320,1,75,0|8,0:0|0:0,0:0:0:0:
184,304,25171,1,0,0:0:0:0:
96,160,25604,5,0,0:0:0:0:
112,112,25748,1,0,0:0:0:0:
160,96,25893,1,0,0:0:0:0:
288,40,26181,2,0,P|344:48|352:64,1,75,8|0,0:0|0:0,0:0:0:0:
408,160,26758,2,0,P|424:192|408:240,1,75
136,168,28200,5,2,0:0:0:0:
216,72,28489,2,0,P|263:71|297:114,1,56.2500021457673,8|0,0:0|0:0,0:0:0:0:
320,96,28777,1,0,0:0:0:0:
352,128,28921,2,0,P|368:176|352:216,1,56.2500021457673
352,224,29210,1,0,0:0:0:0:
320,256,29354,1,0,0:0:0:0:
192,288,29643,1,8,0:0:0:0:
72,168,30219,5,0,0:0:0:0:
112,144,30364,1,0,0:0:0:0:
168,56,30796,2,0,P|229:40|253:56,1,56.2500021457673,8|0,0:0|0:0,0:0:0:0:
264,56,31085,2,2,P|304:88|328:107,1,56.2500021457673,0|0,0:0|0:0,0:0:0:0:
344,128,31373,1,0,0:0:0:0:
368,168,31518,1,0,0:0:0:0:
363,216,31662,2,0,P|347:272|302:310,1,112.500004291535,0|8,0:0|0:0,0:0:0:0:
134,258,32527,6,0,L|191:258,1,56.2500021457673
384,280,33104,1,8,0:0:0:0:
408,240,33248,2,0,P|416:192|408:152,1,56.2500021457673
408,144,33537,1,0,0:0:0:0:
392,96,33681,2,0,P|344:56|312:48,1,56.2500021457673
304,40,33969,2,0,P|216:40|184:64,1,112.500004291535,0|8,0:0|0:0,0:0:0:0:
80,48,34835,6,0,L|156:130,1,112.500004291535
128,256,35412,2,0,L|61:322,1,56.2500021457673,8|0,0:0|0:0,0:0:0:0:
256,240,35989,1,0,0:0:0:0:
304,272,36133,1,0,0:0:0:0:
360,280,36277,2,0,P|439:244|463:156,1,168.750006437302,0|8,0:0|0:0,0:0:0:0:
336,64,37143,5,0,0:0:0:0:
248,88,37431,2,0,P|192:104|176:168,2,112.500004291535,2|0|8,0:0|0:0|0:0,0:0:0:0:
256,176,38296,1,0,0:0:0:0:
248,264,38585,2,0,P|192:248|176:176,2,112.500004291535,0|0|8,0:0|0:0|0:0,0:0:0:0:
368,216,39450,5,0,0:0:0:0:
464,144,39739,2,0,B|464:80|384:32,1,112.500004291535
320,112,40316,2,0,P|280:160|224:152,1,112.500004291535,8|0,0:0|0:0,0:0:0:0:
128,128,40893,5,0,0:0:0:0:
128,128,41037,1,0,0:0:0:0:
88,312,41325,1,0,0:0:0:0:
88,312,41469,1,8,0:0:0:0:
144,216,41758,5,0,0:0:0:0:
176,112,42046,2,0,P|240:144|248:192,1,112.500004291535
320,280,42623,2,0,P|328:320|256:320,1,112.500004291535,8|0,0:0|0:0,0:0:0:0:
112,288,43200,5,0,0:0:0:0:
112,288,43344,1,0,0:0:0:0:
72,144,43633,1,0,0:0:0:0:
72,144,43777,1,8,0:0:0:0:
176,96,44066,5,0,0:0:0:0:
200,144,44210,1,0,0:0:0:0:
240,184,44354,2,0,P|296:208|328:168,1,112.500004291535
432,224,44931,2,0,P|464:248|440:312,1,112.500004291535,8|0,0:0|0:0,0:0:0:0:
336,296,45508,1,0,0:0:0:0:
232,288,45796,2,0,P|216:256|200:224,2,56.2500021457673,0|0|8,0:0|0:0|0:0,0:0:0:0:
96,184,46373,6,0,P|56:120|64:64,1,112.500004291535
184,40,46950,1,0,0:0:0:0:
280,96,47239,1,8,0:0:0:0:
336,192,47527,5,0,0:0:0:0:
288,296,47816,2,0,P|240:296|208:264,2,56.2500021457673
400,280,48393,1,8,0:0:0:0:
448,176,48681,5,0,0:0:0:0:
360,112,48969,2,0,P|344:64|280:32,1,112.500004291535
272,120,49546,2,0,P|208:160|176:224,1,112.500004291535,8|0,0:0|0:0,0:0:0:0:
72,224,50123,5,0,0:0:0:0:
72,232,50268,1,0,0:0:0:0:
256,248,50556,1,0,0:0:0:0:
256,248,50700,1,8,0:0:0:0:
176,168,50989,5,0,0:0:0:0:
208,120,51133,1,0,0:0:0:0:
248,80,51277,2,0,P|296:40|352:56,1,112.500004291535
368,160,51854,1,8,0:0:0:0:
384,272,52143,1,0,0:0:0:0:
280,240,52431,2,0,P|261:233|194:234,1,56.2500021457673
168,232,52719,2,0,P|158:233|99:281,2,56.2500021457673,0|0|8,0:0|0:0|0:0,0:0:0:0:
96,144,53296,5,0,0:0:0:0:
128,80,53441,1,0,0:0:0:0:
168,136,53585,1,0,0:0:0:0:
256,200,53873,2,0,P|304:232|360:200,1,112.500004291535,0|8,0:0|0:0,0:0:0:0:
400,112,54450,1,0,0:0:0:0:
296,64,54739,5,0,0:0:0:0:
256,128,54883,1,2,0:0:0:0:
216,64,55027,1,0,0:0:0:0:
104,56,55316,1,0,0:0:0:0:
56,104,55460,1,2,0:0:0:0:
112,144,55604,1,0,0:0:0:0:
48,232,55893,6,8,P|88:256|168:216,1,112.500004291535
184,136,56469,2,8,P|224:120|288:168,1,112.500004291535
264,264,57046,2,8,P|312:288|368:256,1,112.500004291535
376,152,57623,2,8,P|424:128|480:160,1,112.500004291535
464,264,58200,5,8,0:0:0:0:
408,280,58344,1,8,0:0:0:0:
360,304,58489,2,8,P|296:240|304:216,1,112.500004291535
376,152,59066,1,8,0:0:0:0:
352,96,59210,1,8,0:0:0:0:
296,80,59354,2,8,B|296:81|240:48|160:96,1,112.500004291535
128,184,59931,5,8,0:0:0:0:
160,200,60075,1,8,0:0:0:0:
192,224,60219,1,8,0:0:0:0:
224,200,60364,1,8,0:0:0:0:
256,176,60508,2,8,P|312:152|360:192,1,112.500004291535
400,280,61085,2,8,P|344:304|280:280,1,112.500004291535
192,240,61662,1,8,0:0:0:0:
56,64,62239,6,8,P|104:40|128:48,1,56.2500021457673
160,40,62527,2,8,P|224:72|232:88,1,56.2500021457673
256,72,62816,2,8,P|320:96|320:136,1,112.500004291535
344,240,63393,1,8,0:0:0:0:
256,232,63681,1,8,0:0:0:0:
168,240,63969,2,8,P|200:288|248:296,2,56.2500021457673
280,168,64546,1,8,0:0:0:0:
56,144,65123,6,8,P|88:168|144:160,2,56.2500021457673
96,40,65700,1,10,0:0:0:0:
208,64,65989,2,8,P|240:40|288:48,2,56.2500021457673
224,176,66566,1,8,0:0:0:0:
320,120,66854,1,8,0:0:0:0:
328,232,67143,2,8,P|408:240|440:240,1,112.500004291535
368,328,67719,1,8,0:0:0:0:
256,312,68008,1,8,0:0:0:0:
168,248,68296,2,8,P|120:184|144:144,1,112.500004291535
120,56,69162,5,8,0:0:0:0:
152,72,69306,1,8,0:0:0:0:
184,88,69450,1,8,0:0:0:0:
216,72,69594,1,8,0:0:0:0:
248,64,69739,2,8,P|320:64|320:96,1,112.500004291535
368,192,70316,1,8,0:0:0:0:
352,288,70604,2,8,P|304:328|256:312,1,112.500004291535
256,192,71469,12,4,73777,0:0:0:0:
80,88,74354,5,0,0:0:0:0:
128,88,74498,1,0,0:0:0:0:
168,88,74643,1,8,0:0:0:0:
216,96,74787,2,0,P|280:120|256:168,1,112.500004291535
136,256,75508,1,0,0:0:0:0:
168,280,75652,1,0,0:0:0:0:
208,304,75796,1,8,0:0:0:0:
256,312,75941,2,0,P|312:288|304:240,1,112.500004291535
200,72,76662,6,0,B|168:120|168:120|184:192,1,112.500004291535,0|8,0:0|0:0,0:0:0:0:
328,72,77239,2,0,B|352:120|352:120|320:184,1,112.500004291535
160,240,77816,2,0,B|144:296|144:296|168:352,1,112.500004291535,0|8,0:0|0:0,0:0:0:0:
312,336,78393,2,0,B|336:288|336:288|304:208,1,112.500004291535
80,112,78969,5,0,0:0:0:0:
120,96,79114,1,0,0:0:0:0:
152,88,79258,1,8,0:0:0:0:
208,88,79402,2,0,P|264:88|312:128,1,112.500004291535
344,248,80123,2,0,B|312:264|272:216,1,56.2500021457673
264,208,80412,1,8,0:0:0:0:
240,160,80556,2,0,P|224:144|136:160,1,112.500004291535
136,320,81277,5,0,0:0:0:0:
248,288,81566,2,0,P|304:328|344:304,1,112.500004291535,8|0,0:0|0:0,0:0:0:0:
312,200,82143,2,0,P|368:152|424:192,1,112.500004291535
288,32,83008,1,8,0:0:0:0:
208,320,83585,6,0,P|248:336|296:328,2,56.2500021457673,0|0|8,0:0|0:0|0:0,0:0:0:0:
160,288,84018,1,0,0:0:0:0:
80,192,84306,2,0,P|112:136|136:136,1,56.2500021457673
184,88,84739,2,0,P|240:56|264:72,1,56.2500021457673
280,48,85027,1,8,0:0:0:0:
336,48,85171,2,0,P|408:80|418:152,1,112.500004291535
336,320,85893,6,0,B|320:272|320:272|328:208,1,112.500004291535,0|8,0:0|0:0,0:0:0:0:
328,136,86469,2,0,B|352:88|352:88|328:16,1,112.500004291535
184,136,87046,2,0,B|160:88|160:88|176:16,1,112.500004291535,0|8,0:0|0:0,0:0:0:0:
192,216,87623,2,0,B|200:280|200:280|152:352,1,112.500004291535
88,136,88200,6,0,P|112:112|176:112,1,56.2500021457673
192,96,88489,1,8,0:0:0:0:
256,88,88633,2,0,P|360:104|384:144,1,112.500004291535
344,248,89354,2,0,P|280:248|264:224,1,56.2500021457673
232,248,89643,1,8,0:0:0:0:
176,240,89787,2,0,P|96:208|80:176,1,112.500004291535
176,72,90508,6,0,P|248:48|256:64,2,112.500004291535,0|8|0,0:0|0:0|0:0,0:0:0:0:
128,176,91373,2,0,P|184:216|224:192,1,112.500004291535
384,176,92239,1,8,0:0:0:0:
104,96,92816,6,0,P|176:80|208:112,1,112.500004291535,2|0,0:0|0:0,0:0:0:0:
256,200,93393,1,2,0:0:0:0:
152,240,93681,2,0,P|160:320|112:344,1,112.500004291535,8|0,0:0|0:0,0:0:0:0:
88,56,94835,2,0,L|136:112,1,56.2500021457673,2|0,0:0|0:0,0:0:0:0:
152,120,95123,1,0,0:0:0:0:
296,152,95412,2,0,L|232:200,1,56.2500021457673,8|0,0:0|0:0,0:0:0:0:
208,304,95989,2,0,P|208:280|160:232,2,56.2500021457673,2|0|0,0:0|0:0|0:0,0:0:0:0:
312,320,96566,2,0,P|376:288|400:264,1,56.2500021457673,8|0,0:0|0:0,0:0:0:0:
432,136,97431,6,0,P|424:104|376:128,1,56.2500021457673,2|0,0:0|0:0,0:0:0:0:
344,72,97719,2,0,P|288:32|272:40,1,56.2500021457673
248,40,98008,2,0,P|176:64|200:56,1,56.2500021457673,8|0,0:0|0:0,0:0:0:0:
136,80,98296,1,0,0:0:0:0:
120,184,98585,2,0,P|64:232|72:272,1,112.500004291535,2|0,0:0|0:0,0:0:0:0:
272,280,99450,5,0,0:0:0:0:
320,288,99594,1,0,0:0:0:0:
360,296,99739,2,0,P|432:312|448:312,2,84.3750032186509,2|0|8,0:0|0:0|0:0,0:0:0:0:
160,192,100604,2,0,P|224:160|240:176,1,56.2500021457673
256,152,100893,1,2,0:0:0:0:
312,144,101037,2,0,P|392:160|392:176,1,112.500004291535,0|8,0:0|0:0,0:0:0:0:
432,328,101758,5,0,0:0:0:0:
320,296,102046,2,0,L|256:248,1,56.2500021457673
216,256,102335,2,0,L|160:312,1,56.2500021457673
128,304,102623,2,0,L|80:256,1,56.2500021457673,8|0,0:0|0:0,0:0:0:0:
56,224,102912,1,0,0:0:0:0:
56,112,103200,2,0,L|120:56,1,56.2500021457673
168,64,103489,2,0,L|224:112,2,56.2500021457673,0|0|8,0:0|0:0|0:0,0:0:0:0:
320,120,104066,6,0,P|352:168|320:264,2,112.500004291535
248,208,104931,1,8,0:0:0:0:
304,304,105219,1,0,0:0:0:0:
192,304,105508,2,0,P|136:272|136:256,2,84.3750032186509
240,328,106085,1,8,0:0:0:0:
208,192,106373,5,0,0:0:0:0:
192,152,106518,1,0,0:0:0:0:
192,112,106662,2,0,P|272:72|304:96,1,112.500004291535
392,112,107239,2,0,B|456:168|456:208|456:208|440:200,1,112.500004291535,8|0,0:0|0:0,0:0:0:0:
384,288,107816,1,0,0:0:0:0:
336,272,107960,1,0,0:0:0:0:
224,264,108248,2,0,B|176:208|184:216,1,56.2500021457673,0|8,0:0|0:0,0:0:0:0:
136,120,108681,6,0,L|200:88,1,56.2500021457673
232,88,108969,1,0,0:0:0:0:
344,96,109258,2,0,P|424:112|424:136,2,112.500004291535,0|8|0,0:0|0:0|0:0,0:0:0:0:
376,208,110123,2,0,L|440:272,1,56.2500021457673
320,304,110556,2,0,B|264:344|264:344|280:352,1,56.2500021457673,0|8,0:0|0:0,0:0:0:0:
168,312,110989,6,0,P|112:304|80:256,1,112.500004291535
64,168,111566,1,0,0:0:0:0:
144,104,111854,2,0,P|168:48|240:56,1,112.500004291535,8|0,0:0|0:0,0:0:0:0:
304,104,112431,2,0,P|352:152|336:224,2,112.500004291535,0|0|8,0:0|0:0|0:0,0:0:0:0:
200,104,113296,1,0,0:0:0:0:
168,200,113585,2,0,L|96:272,1,56.2500021457673
144,288,113873,1,0,0:0:0:0:
264,304,114162,2,0,P|304:344|368:336,1,112.500004291535,8|0,0:0|0:0,0:0:0:0:
400,240,114739,6,0,L|456:192,1,56.2500021457673
376,112,115171,2,0,L|336:56,1,56.2500021457673,0|8,0:0|0:0,0:0:0:0:
232,72,115604,6,0,P|144:32|88:40,2,112.500004291535
144,144,116469,1,8,0:0:0:0:
96,168,116614,2,0,L|40:232,1,56.2500021457673
128,304,117046,1,0,0:0:0:0:
168,312,117191,1,0,0:0:0:0:
280,312,117479,2,0,P|336:304|360:264,1,56.2500021457673,0|8,0:0|0:0,0:0:0:0:
360,200,117912,5,0,0:0:0:0:
344,152,118056,2,0,P|320:112|296:96,1,56.2500021457673
200,88,118489,2,0,P|128:64|104:24,2,112.500004291535,0|8|0,0:0|0:0|0:0,0:0:0:0:
288,184,119354,1,0,0:0:0:0:
248,232,119498,1,2,0:0:0:0:
216,176,119643,1,0,0:0:0:0:
120,168,119931,1,0,0:0:0:0:
88,112,120075,1,2,0:0:0:0:
56,168,120219,1,0,0:0:0:0:
64,264,120508,6,8,P|112:328|136:320,2,112.500004291535
64,152,121373,1,8,0:0:0:0:
152,80,121662,2,8,P|232:40|280:56,2,112.500004291535
136,192,122527,1,8,0:0:0:0:
200,280,122816,2,8,P|296:312|304:304,1,112.500004291535
296,208,123393,1,8,0:0:0:0:
312,96,123681,2,8,P|384:64|424:72,1,112.500004291535
456,176,124258,1,8,0:0:0:0:
384,264,124546,6,8,P|312:272|304:256,1,56.2500021457673
296,248,124835,1,8,0:0:0:0:
264,200,124979,1,8,0:0:0:0:
232,152,125123,2,8,P|232:96|176:88,1,112.500004291535
112,184,125700,2,8,P|40:224|72:264,2,112.500004291535
192,104,126566,1,8,0:0:0:0:
208,216,126854,6,8,P|256:256|312:232,1,112.500004291535
336,240,127287,1,8,0:0:0:0:
376,256,127431,1,8,0:0:0:0:
416,152,127719,2,8,P|416:80|392:80,1,112.500004291535
288,96,128296,2,8,P|216:40|192:56,1,112.500004291535
112,96,128873,2,8,P|48:120|40:168,1,112.500004291535
224,280,129739,6,8,P|272:328|336:328,1,112.500004291535
376,240,130316,2,8,P|432:184|440:168,1,56.2500021457673
392,152,130604,2,8,L|408:88,1,56.2500021457673
368,56,130893,1,8,0:0:0:0:
256,64,131181,2,8,P|152:56|128:96,1,112.500004291535
64,120,131758,1,8,0:0:0:0:
72,232,132046,2,8,P|80:312|144:320,1,112.500004291535
208,280,132623,2,8,P|296:288|336:264,2,112.500004291535
168,176,133489,1,8,0:0:0:0:
240,88,133777,5,8,0:0:0:0:
280,120,133921,1,8,0:0:0:0:
304,152,134066,1,8,0:0:0:0:
296,192,134210,1,8,0:0:0:0:
272,240,134354,2,8,B|264:312|208:336,1,112.500004291535
120,256,134931,2,8,P|40:184|40:168,1,112.500004291535
104,96,135508,2,8,P|176:40|200:40,1,112.500004291535
248,136,136085,5,8,0:0:0:0:
288,112,136229,1,8,0:0:0:0:
336,96,136373,2,8,P|408:96|416:112,1,56.2500021457673
432,128,136662,2,8,P|472:192|432:224,1,112.500004291535
368,280,137239,1,8,0:0:0:0:
336,296,137383,1,8,0:0:0:0:
296,304,137527,2,8,P|200:280|192:256,2,112.500004291535
248,200,138393,1,8,0:0:0:0:
80,96,138969,5,0,0:0:0:0:
120,72,139114,1,0,0:0:0:0:
168,56,139258,1,8,0:0:0:0:
216,48,139402,2,0,P|320:64|344:104,1,112.500004291535
392,232,140123,1,0,0:0:0:0:
352,248,140268,1,0,0:0:0:0:
320,256,140412,1,8,0:0:0:0:
288,264,140556,2,0,P|216:240|192:200,1,112.500004291535
120,48,141277,6,0,B|160:88|160:88|216:104,1,112.500004291535,0|8,0:0|0:0,0:0:0:0:
336,96,141854,2,0,B|376:136|376:136|400:208,1,112.500004291535
328,288,142431,2,0,B|272:312|272:312|184:304,1,112.500004291535,0|8,0:0|0:0,0:0:0:0:
144,240,143008,2,0,B|96:208|96:208|56:136,1,112.500004291535
136,72,143585,6,0,P|88:56|64:72,2,56.2500021457673,2|0|8,0:0|0:0|0:0,0:0:0:0:
200,104,144018,2,0,P|272:160|304:168,1,112.500004291535
328,296,144739,1,2,0:0:0:0:
280,312,144883,2,0,P|208:320|184:304,1,56.2500021457673,0|8,0:0|0:0,0:0:0:0:
168,328,145171,2,0,P|96:280|88:256,1,112.500004291535
72,96,145893,6,0,P|144:72|192:88,1,112.500004291535,0|8,0:0|0:0,0:0:0:0:
290,86,146469,2,0,P|370:134|354:190,1,112.500004291535
350,252,147046,1,0,0:0:0:0:
266,327,147335,1,8,0:0:0:0:
168,270,147623,2,0,L|112:318,2,56.2500021457673
320,96,148200,5,2,0:0:0:0:
280,80,148344,1,0,0:0:0:0:
240,64,148489,1,8,0:0:0:0:
192,56,148633,2,0,P|136:80|96:136,1,112.500004291535
112,240,149354,2,0,P|144:280|200:280,1,56.2500021457673,2|0,0:0|0:0,0:0:0:0:
192,296,149643,1,8,0:0:0:0:
248,304,149787,2,0,P|328:296|368:240,1,112.500004291535
432,96,150508,6,0,B|376:104|376:104|304:64,1,112.500004291535,0|8,0:0|0:0,0:0:0:0:
208,112,151085,2,0,B|147:100|147:100|80:128,1,112.500004291535
89,201,151662,2,0,B|120:256|120:256|200:296,1,112.500004291535,0|8,0:0|0:0,0:0:0:0:
279,291,152239,2,0,B|320:240|320:240|367:227,1,112.500004291535
472,200,152816,5,2,0:0:0:0:
456,160,152960,1,0,0:0:0:0:
424,128,153104,1,8,0:0:0:0:
384,104,153248,2,0,P|344:56|264:48,1,112.500004291535
178,96,153969,1,2,0:0:0:0:
160,128,154114,1,0,0:0:0:0:
176,168,154258,1,8,0:0:0:0:
192,200,154402,2,0,P|116:267|67:260,1,112.500004291535
256,192,155123,12,4,156854,0:0:0:0:
82,225,157431,5,2,0:0:0:0:
67,279,157575,1,0,0:0:0:0:
100,324,157719,1,8,0:0:0:0:
152,344,157864,2,0,P|232:320|232:280,1,112.500004291535
324,139,158585,1,2,0:0:0:0:
304,88,158729,1,0,0:0:0:0:
256,64,158873,1,8,0:0:0:0:
208,72,159018,2,0,B|144:48|96:120,1,112.500004291535
96,208,159739,6,0,B|112:264|112:264|176:304,1,112.500004291535,2|8,0:0|0:0,0:0:0:0:
304,288,160316,2,0,B|352:248|352:248|368:184,1,112.500004291535
360,88,160893,2,0,B|320:56|320:56|256:48,1,112.500004291535,2|8,0:0|0:0,0:0:0:0:
128,56,161469,2,0,B|96:104|96:104|72:192,1,112.500004291535
104,280,162046,6,0,P|144:296|184:280,1,56.2500021457673,2|0,0:0|0:0,0:0:0:0:
208,280,162335,1,8,0:0:0:0:
256,248,162479,2,0,P|264:208|224:152,1,112.500004291535
120,48,163200,2,0,P|88:64|72:88,1,56.2500021457673,2|0,0:0|0:0,0:0:0:0:
48,128,163489,1,8,0:0:0:0:
48,192,163633,2,0,P|144:192|160:160,1,112.500004291535
368,352,164354,6,0,P|392:304|392:232,1,112.500004291535,2|8,0:0|0:0,0:0:0:0:
400,144,164931,2,0,B|392:72|336:40,1,112.500004291535
232,48,165508,2,0,B|176:80|163:148,1,112.500004291535,2|8,0:0|0:0,0:0:0:0:
255,220,166085,1,0,0:0:0:0:
274,260,166229,1,0,0:0:0:0:
238,287,166373,1,0,0:0:0:0:
120,272,166662,6,0,P|99:308|67:324,2,56.2500021457673,2|0|8,0:0|0:0|0:0,0:0:0:0:
144,216,167094,1,0,0:0:0:0:
88,152,167383,2,0,P|88:120|120:72,1,56.2500021457673
181,44,167816,1,0,0:0:0:0:
237,40,167960,1,0,0:0:0:0:
292,46,168104,2,0,L|380:62,2,84.3750032186509,8|0|0,0:0|0:0|0:0,0:0:0:0:
416,160,168969,6,0,B|432:216|432:216|408:264,1,112.500004291535,0|8,0:0|0:0,0:0:0:0:
320,328,169546,2,0,B|272:352|272:352|184:336,1,112.500004291535
88,320,170123,2,0,B|64:272|64:272|72:208,1,112.500004291535,0|8,0:0|0:0,0:0:0:0:
80,120,170700,2,0,B|96:64|96:64|152:32,1,112.500004291535
245,56,171277,5,2,0:0:0:0:
296,77,171421,1,0,0:0:0:0:
345,102,171566,2,0,L|409:134,1,56.2500021457673,8|0,0:0|0:0,0:0:0:0:
459,219,171998,1,0,0:0:0:0:
292,244,172431,1,2,0:0:0:0:
244,273,172575,1,0,0:0:0:0:
197,304,172719,2,0,P|176:320|136:320,1,56.2500021457673,8|0,0:0|0:0,0:0:0:0:
56,280,173152,1,0,0:0:0:0:
68,62,173585,5,2,0:0:0:0:
178,43,173873,2,0,P|243:42|263:80,1,112.500004291535,8|0,0:0|0:0,0:0:0:0:
279,189,174450,1,0,0:0:0:0:
301,299,174739,2,0,P|188:285|112:233,1,168.750006437302,0|8,0:0|0:0,0:0:0:0:
304,144,175604,6,0,P|360:112|400:120,2,56.2500021457673
328,280,176181,1,8,0:0:0:0:
288,304,176325,2,0,P|240:320|192:320,1,56.2500021457673
90,306,176758,1,0,0:0:0:0:
65,264,176902,1,0,0:0:0:0:
55,214,177046,2,0,P|46:146|102:115,1,112.500004291535,0|8,0:0|0:0,0:0:0:0:
121,88,177479,1,0,0:0:0:0:
224,40,177912,5,0,0:0:0:0:
272,48,178056,1,0,0:0:0:0:
320,56,178200,2,0,P|384:72|416:136,1,112.500004291535,0|8,0:0|0:0,0:0:0:0:
408,256,178777,2,0,P|360:288|296:272,1,112.500004291535
200,248,179354,1,0,0:0:0:0:
296,64,180219,5,0,0:0:0:0:
248,48,180364,1,0,0:0:0:0:
192,40,180508,2,0,P|143:63|96:128,1,112.500004291535,0|8,0:0|0:0,0:0:0:0:
88,160,180941,2,0,L|32:240,1,56.2500021457673
120,296,181373,2,0,L|88:344,2,56.2500021457673
184,208,181950,2,0,B|200:152|232:136,1,56.2500021457673,8|0,0:0|0:0,0:0:0:0:
301,75,182527,5,0,0:0:0:0:
349,103,182671,1,0,0:0:0:0:
392,139,182816,2,0,P|445:189|448:267,1,112.500004291535,0|8,0:0|0:0,0:0:0:0:
374,304,183393,1,0,0:0:0:0:
261,296,183681,2,0,B|190:343|136:331|116:324,1,112.500004291535
98,69,185123,5,0,0:0:0:0:
209,83,185412,1,8,0:0:0:0:
256,88,185556,1,0,0:0:0:0:
304,96,185700,2,0,P|344:120|360:144,1,56.2500021457673
376,152,185989,1,0,0:0:0:0:
408,192,186133,1,0,0:0:0:0:
416,240,186277,2,0,P|424:328|392:336,2,112.500004291535,0|8|0,0:0|0:0|0:0,0:0:0:0:
288,208,187143,5,0,0:0:0:0:
256,248,187287,1,0,0:0:0:0:
120,336,187719,2,0,P|74:295|74:271,1,56.2500021457673,8|0,0:0|0:0,0:0:0:0:
56,272,188008,1,0,0:0:0:0:
40,224,188152,1,0,0:0:0:0:
32,176,188296,2,0,P|37:146|56:112,1,56.2500021457673
80,88,188585,1,0,0:0:0:0:
184,48,188873,1,8,0:0:0:0:
333,51,189450,6,0,L|392:72,1,56.2500021457673
421,202,190027,1,8,0:0:0:0:
421,258,190171,2,0,P|408:288|384:304,1,56.2500021457673
352,320,190460,1,0,0:0:0:0:
304,328,190604,2,0,P|264:344|208:328,1,56.2500021457673
200,344,190893,2,0,P|128:328|96:280,1,112.500004291535,0|8,0:0|0:0,0:0:0:0:
144,200,191758,5,0,0:0:0:0:
176,152,191902,1,0,0:0:0:0:
206,111,192046,2,0,P|230:59|293:57,1,112.500004291535,0|8,0:0|0:0,0:0:0:0:
334,69,192479,1,0,0:0:0:0:
394,226,192912,1,0,0:0:0:0:
376,264,193056,1,0,0:0:0:0:
352,296,193200,2,0,P|331:322|242:321,1,112.500004291535,0|8,0:0|0:0,0:0:0:0:
224,312,193633,1,0,0:0:0:0:
264,136,194066,1,4,0:0:0:0:
