osu file format v14

[General]
AudioFilename: audio.mp3
AudioLeadIn: 0
PreviewTime: -1
Countdown: 1
SampleSet: Normal
StackLeniency: 0.7
Mode: 3
LetterboxInBreaks: 0
SpecialStyle: 0
WidescreenStoryboard: 1

[Editor]
Bookmarks: -3
DistanceSpacing: 0.4
BeatDivisor: 8
GridSize: 32
TimelineZoom: 1

[Metadata]
Title:SIGNAL 80s REMIX
TitleUnicode:SIGNAL 80s REMIX
Artist:TWICE
ArtistUnicode:TWICE
Creator:caryllelol
Version:Easy
Source:
Tags:TWICE, SIGNAL, REMIX, 80s
BeatmapID:1598897
BeatmapSetID:754658

[Difficulty]
HPDrainRate:4
CircleSize:4
OverallDifficulty:6
ApproachRate:6
SliderMultiplier:2.7
SliderTickRate:3

[Events]
//Background and Video events
0,0,"ed.jpg",0,0
//Break Periods
2,9331,17352
2,35372,47551
//Storyboard Layer 0 (Background)
//Storyboard Layer 1 (Fail)
//Storyboard Layer 2 (Pass)
//Storyboard Layer 3 (Foreground)
//Storyboard Sound Samples

[TimingPoints]
1155.45886389213,545.355389929104,4,1,0,100,1,0

[HitObjects]
64,192,1087,5,8,0:0:0:0:
448,192,1632,128,8,2314:0:0:0:0:
320,192,3132,1,8,0:0:0:0:
192,192,3132,1,8,0:0:0:0:
448,192,3814,1,8,0:0:0:0:
64,192,3814,1,8,0:0:0:0:
192,192,4291,128,8,4972:0:0:0:0:
320,192,4291,128,8,4972:0:0:0:0:
448,192,5313,128,8,5927:0:0:0:0:
64,192,5450,128,8,5927:0:0:0:0:
192,192,6404,128,8,7154:0:0:0:0:
320,192,6404,128,8,7154:0:0:0:0:
64,192,7563,128,8,7904:0:0:0:0:
192,192,8040,128,8,8449:0:0:0:0:
320,192,8654,128,8,9131:0:0:0:0:
448,192,8654,128,8,9131:0:0:0:0:
64,192,18402,132,8,19356:0:0:0:0:
320,192,19561,128,8,20447:0:0:0:0:
192,192,20651,1,8,0:0:0:0:
320,192,20651,1,8,0:0:0:0:
64,192,21197,1,8,0:0:0:0:
448,192,21538,1,8,0:0:0:0:
64,192,21538,1,8,0:0:0:0:
64,192,22696,128,8,23310:0:0:0:0:
192,192,23446,1,8,0:0:0:0:
320,192,23446,1,8,0:0:0:0:
64,192,23719,128,8,24128:0:0:0:0:
448,192,23719,128,8,24128:0:0:0:0:
448,192,24810,1,8,0:0:0:0:
320,192,25014,1,8,0:0:0:0:
192,192,25151,1,8,0:0:0:0:
192,192,25355,1,8,0:0:0:0:
320,192,25355,1,8,0:0:0:0:
64,192,25628,128,8,25900:0:0:0:0:
448,192,25628,128,8,25900:0:0:0:0:
192,192,27196,1,8,0:0:0:0:
320,192,27196,1,8,0:0:0:0:
64,192,27400,128,8,27741:0:0:0:0:
448,192,27400,128,8,27741:0:0:0:0:
448,192,28286,1,8,0:0:0:0:
64,192,28286,1,8,0:0:0:0:
192,192,28423,128,8,28832:0:0:0:0:
320,192,28423,128,8,28832:0:0:0:0:
64,192,29309,1,8,0:0:0:0:
448,192,29309,1,8,0:0:0:0:
192,192,29582,1,8,0:0:0:0:
192,192,29854,1,8,0:0:0:0:
320,192,30059,1,8,0:0:0:0:
320,192,30195,128,8,30536:0:0:0:0:
320,192,31490,1,8,0:0:0:0:
320,192,31695,1,8,0:0:0:0:
192,192,31968,1,8,0:0:0:0:
320,192,31968,1,8,0:0:0:0:
64,192,32377,1,8,0:0:0:0:
448,192,32377,1,8,0:0:0:0:
448,192,32581,128,8,32854:0:0:0:0:
64,192,32581,128,8,32854:0:0:0:0:
64,192,33535,1,8,0:0:0:0:
192,192,33672,1,8,0:0:0:0:
320,192,33876,1,8,0:0:0:0:
64,192,34149,1,8,0:0:0:0:
448,192,34149,1,8,0:0:0:0:
192,192,34422,1,8,0:0:0:0:
320,192,34422,1,8,0:0:0:0:
64,192,34694,128,8,35172:0:0:0:0:
448,192,34694,128,8,35172:0:0:0:0:
192,192,48601,5,8,0:0:0:0:
320,192,48601,1,8,0:0:0:0:
64,192,48942,1,8,0:0:0:0:
448,192,49078,1,8,0:0:0:0:
448,192,49487,1,8,0:0:0:0:
192,192,49623,1,8,0:0:0:0:
64,192,49964,1,8,0:0:0:0:
448,192,50032,1,8,0:0:0:0:
192,192,50237,128,8,50646:0:0:0:0:
320,192,50237,128,8,50646:0:0:0:0:
64,192,50782,128,8,52146:0:0:0:0:
192,192,51328,1,8,0:0:0:0:
448,192,51328,1,8,0:0:0:0:
192,192,51873,1,8,0:0:0:0:
448,192,51873,1,8,0:0:0:0:
448,192,52350,128,8,52896:0:0:0:0:
320,192,52350,1,8,0:0:0:0:
64,192,52896,1,8,0:0:0:0:
