osu file format v14

[General]
AudioFilename: audio.mp3
AudioLeadIn: 0
PreviewTime: -1
Countdown: 1
SampleSet: Normal
StackLeniency: 0.7
Mode: 3
LetterboxInBreaks: 0
SpecialStyle: 0
WidescreenStoryboard: 1

[Editor]
Bookmarks: -3
DistanceSpacing: 0.4
BeatDivisor: 4
GridSize: 32
TimelineZoom: 1

[Metadata]
Title:SIGNAL 80s REMIX
TitleUnicode:SIGNAL 80s REMIX
Artist:TWICE
ArtistUnicode:TWICE
Creator:caryllelol
Version:Atari's Hard (very hard ;D)
Source:
Tags:TWICE, SIGNAL, REMIX, 80s
BeatmapID:1694835
BeatmapSetID:754658

[Difficulty]
HPDrainRate:4
CircleSize:6
OverallDifficulty:6
ApproachRate:6
SliderMultiplier:2.7
SliderTickRate:3

[Events]
//Background and Video events
0,0,"ed.jpg",0,0
//Break Periods
//Storyboard Layer 0 (Background)
//Storyboard Layer 1 (Fail)
//Storyboard Layer 2 (Pass)
//Storyboard Layer 3 (Foreground)
//Storyboard Sound Samples

[TimingPoints]
1124.45886389213,545.455389929104,4,1,0,100,1,0

[HitObjects]
213,192,861,5,0,0:0:0:0:
128,192,1128,128,0,1946:0:0:0:0:
469,192,1128,128,0,1946:0:0:0:0:
384,192,1397,1,0,0:0:0:0:
298,192,1533,1,0,0:0:0:0:
213,192,1942,1,0,0:0:0:0:
42,192,2215,128,0,3033:0:0:0:0:
384,192,2215,128,0,3033:0:0:0:0:
213,192,2488,1,0,0:0:0:0:
298,192,2624,1,0,0:0:0:0:
213,192,3033,1,0,0:0:0:0:
42,192,3169,1,0,0:0:0:0:
128,192,3306,1,0,0:0:0:0:
384,192,3306,1,0,0:0:0:0:
469,192,3579,1,0,0:0:0:0:
384,192,3851,1,0,0:0:0:0:
128,192,3851,1,0,0:0:0:0:
42,192,4124,1,0,0:0:0:0:
469,192,4397,1,0,0:0:0:0:
128,192,4397,1,0,0:0:0:0:
384,192,4397,1,0,0:0:0:0:
213,192,4669,128,0,5215:0:0:0:0:
298,192,4669,128,0,5215:0:0:0:0:
384,192,4942,1,0,0:0:0:0:
128,192,5215,1,0,0:0:0:0:
384,192,5488,128,0,6306:0:0:0:0:
42,192,5488,128,0,6306:0:0:0:0:
298,192,5760,1,0,0:0:0:0:
469,192,5897,1,0,0:0:0:0:
298,192,6306,1,0,0:0:0:0:
128,192,6579,128,0,7397:0:0:0:0:
469,192,6579,128,0,7397:0:0:0:0:
213,192,6851,1,0,0:0:0:0:
42,192,6988,1,0,0:0:0:0:
469,192,7533,1,0,0:0:0:0:
298,192,7669,1,0,0:0:0:0:
128,192,7669,1,0,0:0:0:0:
42,192,7669,1,0,0:0:0:0:
213,192,7942,1,0,0:0:0:0:
128,192,8215,1,0,0:0:0:0:
298,192,8215,1,0,0:0:0:0:
384,192,8215,1,0,0:0:0:0:
298,192,8488,1,0,0:0:0:0:
213,192,8760,1,0,0:0:0:0:
128,192,8760,1,0,0:0:0:0:
384,192,8760,1,0,0:0:0:0:
42,192,8897,128,0,9306:0:0:0:0:
384,192,9442,128,0,9851:0:0:0:0:
128,192,10124,1,0,0:0:0:0:
42,192,10260,1,0,0:0:0:0:
213,192,10397,1,0,0:0:0:0:
128,192,10533,1,0,0:0:0:0:
298,192,10669,1,0,0:0:0:0:
213,192,10806,1,0,0:0:0:0:
469,192,10942,128,0,11215:0:0:0:0:
298,192,10942,128,0,11215:0:0:0:0:
213,192,11215,128,0,11488:0:0:0:0:
384,192,11215,128,0,11488:0:0:0:0:
128,192,11488,1,0,0:0:0:0:
213,192,11760,1,0,0:0:0:0:
384,192,11897,1,0,0:0:0:0:
384,192,12306,1,0,0:0:0:0:
469,192,12442,1,0,0:0:0:0:
298,192,12579,1,0,0:0:0:0:
384,192,12715,1,0,0:0:0:0:
213,192,12851,1,0,0:0:0:0:
298,192,12988,1,0,0:0:0:0:
42,192,13124,128,0,13397:0:0:0:0:
213,192,13124,128,0,13397:0:0:0:0:
128,192,13397,128,0,13669:0:0:0:0:
298,192,13397,128,0,13669:0:0:0:0:
384,192,13669,1,0,0:0:0:0:
298,192,13942,1,0,0:0:0:0:
128,192,14079,1,0,0:0:0:0:
42,192,14488,1,0,0:0:0:0:
298,192,14624,1,0,0:0:0:0:
128,192,14760,1,0,0:0:0:0:
384,192,14897,1,0,0:0:0:0:
213,192,15033,1,0,0:0:0:0:
469,192,15169,1,0,0:0:0:0:
384,192,15306,128,0,15579:0:0:0:0:
128,192,15306,128,0,15579:0:0:0:0:
42,192,15579,128,0,15851:0:0:0:0:
298,192,15579,128,0,15851:0:0:0:0:
213,192,16124,1,0,0:0:0:0:
469,192,16397,128,0,17215:0:0:0:0:
384,192,16669,1,0,0:0:0:0:
298,192,16806,1,0,0:0:0:0:
213,192,17215,1,0,0:0:0:0:
298,192,17215,1,0,0:0:0:0:
42,192,17488,128,0,18033:0:0:0:0:
128,192,17760,1,0,0:0:0:0:
213,192,17897,1,0,0:0:0:0:
128,192,18169,1,0,0:0:0:0:
298,192,18306,1,0,0:0:0:0:
213,192,18442,1,0,0:0:0:0:
42,192,18579,128,0,18851:0:0:0:0:
469,192,18579,128,0,18851:0:0:0:0:
128,192,18851,1,0,0:0:0:0:
213,192,19124,1,0,0:0:0:0:
128,192,19397,1,0,0:0:0:0:
42,192,19669,128,0,19942:0:0:0:0:
469,192,19669,128,0,19942:0:0:0:0:
384,192,19942,1,0,0:0:0:0:
298,192,20215,1,0,0:0:0:0:
213,192,20488,1,0,0:0:0:0:
213,192,20760,128,0,21169:0:0:0:0:
384,192,20760,128,0,21169:0:0:0:0:
298,192,21033,1,0,0:0:0:0:
298,192,21306,128,0,21579:0:0:0:0:
128,192,21306,128,0,21579:0:0:0:0:
213,192,21579,1,0,0:0:0:0:
213,192,21851,1,0,0:0:0:0:
213,192,21988,1,0,0:0:0:0:
128,192,22124,1,0,0:0:0:0:
384,192,22397,1,0,0:0:0:0:
384,192,22533,1,0,0:0:0:0:
298,192,22669,1,0,0:0:0:0:
128,192,22874,1,0,0:0:0:0:
213,192,22942,128,0,23760:0:0:0:0:
469,192,23215,128,0,23760:0:0:0:0:
298,192,23488,128,0,23760:0:0:0:0:
298,192,24033,1,0,0:0:0:0:
298,192,24169,1,0,0:0:0:0:
384,192,24306,1,0,0:0:0:0:
128,192,24579,1,0,0:0:0:0:
128,192,24715,1,0,0:0:0:0:
213,192,24851,1,0,0:0:0:0:
384,192,25056,1,0,0:0:0:0:
298,192,25124,128,0,25942:0:0:0:0:
42,192,25397,128,0,25942:0:0:0:0:
213,192,25669,128,0,25942:0:0:0:0:
469,192,26488,1,0,0:0:0:0:
384,192,26488,1,0,0:0:0:0:
298,192,26624,1,0,0:0:0:0:
213,192,26624,1,0,0:0:0:0:
128,192,26760,1,0,0:0:0:0:
42,192,26760,1,0,0:0:0:0:
128,192,27033,1,0,0:0:0:0:
384,192,27033,1,0,0:0:0:0:
128,192,27306,128,0,27579:0:0:0:0:
384,192,27306,128,0,27579:0:0:0:0:
298,192,27851,1,0,0:0:0:0:
213,192,28124,1,0,0:0:0:0:
128,192,28397,128,0,28669:0:0:0:0:
384,192,28397,128,0,28669:0:0:0:0:
213,192,28942,1,0,0:0:0:0:
298,192,29215,1,0,0:0:0:0:
213,192,29488,128,0,30306:0:0:0:0:
469,192,29488,128,0,30306:0:0:0:0:
128,192,29760,128,0,30306:0:0:0:0:
298,192,30033,128,0,30306:0:0:0:0:
384,192,30306,1,0,0:0:0:0:
128,192,30579,1,0,0:0:0:0:
128,192,30715,1,0,0:0:0:0:
42,192,30851,1,0,0:0:0:0:
384,192,31124,1,0,0:0:0:0:
384,192,31260,1,0,0:0:0:0:
469,192,31397,1,0,0:0:0:0:
298,192,31533,1,0,0:0:0:0:
213,192,31669,128,0,31942:0:0:0:0:
384,192,31669,128,0,31942:0:0:0:0:
128,192,31942,128,0,32215:0:0:0:0:
298,192,31942,128,0,32215:0:0:0:0:
213,192,32215,128,0,32488:0:0:0:0:
384,192,32215,128,0,32488:0:0:0:0:
128,192,32488,1,0,0:0:0:0:
298,192,32488,1,0,0:0:0:0:
384,192,32760,1,0,0:0:0:0:
384,192,32897,1,0,0:0:0:0:
469,192,33033,1,0,0:0:0:0:
128,192,33306,1,0,0:0:0:0:
128,192,33442,1,0,0:0:0:0:
42,192,33579,1,0,0:0:0:0:
213,192,33715,1,0,0:0:0:0:
128,192,33851,128,0,34124:0:0:0:0:
298,192,33851,128,0,34124:0:0:0:0:
213,192,34124,128,0,34397:0:0:0:0:
384,192,34124,128,0,34397:0:0:0:0:
128,192,34397,128,0,34669:0:0:0:0:
298,192,34397,128,0,34669:0:0:0:0:
213,192,34669,128,0,35215:0:0:0:0:
384,192,34669,128,0,35215:0:0:0:0:
469,192,35215,1,0,0:0:0:0:
298,192,35215,1,0,0:0:0:0:
298,192,35351,1,0,0:0:0:0:
469,192,35351,1,0,0:0:0:0:
213,192,35624,1,0,0:0:0:0:
384,192,35624,1,0,0:0:0:0:
128,192,35760,1,0,0:0:0:0:
298,192,35760,1,0,0:0:0:0:
42,192,35897,1,0,0:0:0:0:
213,192,35897,1,0,0:0:0:0:
128,192,36033,128,0,36851:0:0:0:0:
469,192,36033,128,0,36851:0:0:0:0:
384,192,36306,1,0,0:0:0:0:
213,192,36579,1,0,0:0:0:0:
128,192,37124,1,0,0:0:0:0:
469,192,37124,1,0,0:0:0:0:
384,192,37397,128,0,38215:0:0:0:0:
42,192,37397,128,0,38215:0:0:0:0:
128,192,37669,1,0,0:0:0:0:
298,192,37942,1,0,0:0:0:0:
128,192,38488,128,0,39306:0:0:0:0:
213,192,38760,1,0,0:0:0:0:
384,192,39033,1,0,0:0:0:0:
384,192,39851,1,0,0:0:0:0:
298,192,40022,1,0,0:0:0:0:
384,192,40124,1,0,0:0:0:0:
298,192,40294,1,0,0:0:0:0:
384,192,40397,1,0,0:0:0:0:
42,192,40669,128,0,40942:0:0:0:0:
298,192,40669,128,0,40942:0:0:0:0:
213,192,40942,128,0,41215:0:0:0:0:
469,192,40942,128,0,41215:0:0:0:0:
384,192,41215,128,0,41488:0:0:0:0:
128,192,41215,128,0,41488:0:0:0:0:
42,192,41488,1,0,0:0:0:0:
298,192,41488,1,0,0:0:0:0:
128,192,42033,1,0,0:0:0:0:
213,192,42204,1,0,0:0:0:0:
128,192,42306,1,0,0:0:0:0:
213,192,42476,1,0,0:0:0:0:
384,192,42579,128,0,42851:0:0:0:0:
128,192,42579,128,0,43669:0:0:0:0:
298,192,43124,128,0,43397:0:0:0:0:
469,192,43669,128,0,44215:0:0:0:0:
213,192,43669,128,0,44215:0:0:0:0:
298,192,43942,1,0,0:0:0:0:
384,192,44215,128,0,44760:0:0:0:0:
128,192,44215,128,0,44760:0:0:0:0:
42,192,44760,128,0,45579:0:0:0:0:
298,192,44760,128,0,45579:0:0:0:0:
384,192,45033,1,0,0:0:0:0:
128,192,45306,1,0,0:0:0:0:
213,192,45851,128,0,46669:0:0:0:0:
469,192,45851,128,0,46669:0:0:0:0:
128,192,46124,1,0,0:0:0:0:
384,192,46397,1,0,0:0:0:0:
128,192,46942,128,0,47760:0:0:0:0:
384,192,47215,1,0,0:0:0:0:
42,192,47488,1,0,0:0:0:0:
213,192,47760,1,0,0:0:0:0:
213,192,48033,1,0,0:0:0:0:
128,192,48033,1,0,0:0:0:0:
213,192,48579,1,0,0:0:0:0:
128,192,48749,1,0,0:0:0:0:
213,192,48851,1,0,0:0:0:0:
128,192,49022,1,0,0:0:0:0:
469,192,49124,128,0,49397:0:0:0:0:
213,192,49124,128,0,49397:0:0:0:0:
384,192,49397,128,0,49669:0:0:0:0:
128,192,49397,128,0,49669:0:0:0:0:
42,192,49669,128,0,49942:0:0:0:0:
298,192,49669,128,0,49942:0:0:0:0:
384,192,49942,128,0,50215:0:0:0:0:
128,192,49942,128,0,50215:0:0:0:0:
298,192,50215,1,0,0:0:0:0:
42,192,50215,1,0,0:0:0:0:
298,192,50760,1,0,0:0:0:0:
384,192,50931,1,0,0:0:0:0:
298,192,51033,1,0,0:0:0:0:
384,192,51204,1,0,0:0:0:0:
298,192,51306,128,0,51579:0:0:0:0:
128,192,51306,128,0,51579:0:0:0:0:
213,192,51851,128,0,52124:0:0:0:0:
384,192,51851,128,0,52124:0:0:0:0:
128,192,52397,128,0,52806:0:0:0:0:
469,192,52397,128,0,53215:0:0:0:0:
42,192,52942,128,0,53215:0:0:0:0:
128,192,53488,1,0,0:0:0:0:
384,192,53658,1,0,0:0:0:0:
213,192,53760,1,0,0:0:0:0:
469,192,53897,128,0,54169:0:0:0:0:
298,192,53897,128,0,54169:0:0:0:0:
213,192,54169,128,0,54442:0:0:0:0:
42,192,54169,128,0,54442:0:0:0:0:
384,192,54579,1,0,0:0:0:0:
128,192,54749,1,0,0:0:0:0:
298,192,54851,1,0,0:0:0:0:
213,192,54988,128,0,55260:0:0:0:0:
42,192,54988,128,0,55260:0:0:0:0:
298,192,55260,128,0,55533:0:0:0:0:
469,192,55260,128,0,55533:0:0:0:0:
128,192,55669,1,0,0:0:0:0:
42,192,55738,1,0,0:0:0:0:
128,192,55806,1,0,0:0:0:0:
384,192,56215,1,0,0:0:0:0:
469,192,56283,1,0,0:0:0:0:
384,192,56351,1,0,0:0:0:0:
213,192,56760,1,0,0:0:0:0:
298,192,56829,1,0,0:0:0:0:
213,192,56897,1,0,0:0:0:0:
42,192,57306,1,0,0:0:0:0:
128,192,57374,1,0,0:0:0:0:
42,192,57442,1,0,0:0:0:0:
213,192,57851,1,0,0:0:0:0:
42,192,58022,1,0,0:0:0:0:
128,192,58124,1,0,0:0:0:0:
298,192,58260,128,0,58533:0:0:0:0:
128,192,58260,128,0,58533:0:0:0:0:
384,192,58533,128,0,58806:0:0:0:0:
213,192,58533,128,0,58806:0:0:0:0:
298,192,58942,1,0,0:0:0:0:
469,192,59113,1,0,0:0:0:0:
384,192,59215,1,0,0:0:0:0:
384,192,59351,128,0,59624:0:0:0:0:
213,192,59351,128,0,59624:0:0:0:0:
128,192,59624,128,0,59897:0:0:0:0:
298,192,59624,128,0,59897:0:0:0:0:
469,192,60033,128,0,60579:0:0:0:0:
213,192,60306,128,0,60851:0:0:0:0:
384,192,60579,128,0,61124:0:0:0:0:
128,192,60851,128,0,61124:0:0:0:0:
42,192,61124,128,0,61533:0:0:0:0:
298,192,61124,128,0,61533:0:0:0:0:
128,192,61397,1,0,0:0:0:0:
128,192,61533,128,0,61806:0:0:0:0:
469,192,61533,128,0,61806:0:0:0:0:
298,192,61806,1,0,0:0:0:0:
213,192,61942,1,0,0:0:0:0:
298,192,62079,1,0,0:0:0:0:
128,192,62215,128,0,62624:0:0:0:0:
384,192,62385,128,0,62624:0:0:0:0:
213,192,62488,128,0,62624:0:0:0:0:
298,192,62624,1,0,0:0:0:0:
469,192,62624,1,0,0:0:0:0:
213,192,62897,1,0,0:0:0:0:
42,192,62897,1,0,0:0:0:0:
384,192,63306,128,0,63715:0:0:0:0:
128,192,63476,128,0,63715:0:0:0:0:
298,192,63579,128,0,63715:0:0:0:0:
42,192,63715,1,0,0:0:0:0:
213,192,63715,1,0,0:0:0:0:
298,192,63988,1,0,0:0:0:0:
469,192,63988,1,0,0:0:0:0:
128,192,64397,128,0,64465:0:0:0:0:
42,192,64397,128,0,64465:0:0:0:0:
128,192,64533,1,0,0:0:0:0:
42,192,64533,1,0,0:0:0:0:
384,192,64942,128,0,65010:0:0:0:0:
469,192,64942,128,0,65010:0:0:0:0:
384,192,65079,1,0,0:0:0:0:
469,192,65079,1,0,0:0:0:0:
298,192,65488,128,0,65556:0:0:0:0:
213,192,65488,128,0,65556:0:0:0:0:
213,192,65624,1,0,0:0:0:0:
298,192,65624,1,0,0:0:0:0:
42,192,66033,128,0,66101:0:0:0:0:
128,192,66033,128,0,66101:0:0:0:0:
42,192,66170,1,0,0:0:0:0:
128,192,66170,1,0,0:0:0:0:
213,192,66579,1,0,0:0:0:0:
42,192,66749,1,0,0:0:0:0:
128,192,66851,1,0,0:0:0:0:
298,192,66988,128,0,67260:0:0:0:0:
128,192,66988,128,0,67260:0:0:0:0:
384,192,67260,128,0,67533:0:0:0:0:
213,192,67260,128,0,67533:0:0:0:0:
298,192,67670,1,0,0:0:0:0:
469,192,67840,1,0,0:0:0:0:
384,192,67942,1,0,0:0:0:0:
384,192,68079,128,0,68351:0:0:0:0:
213,192,68079,128,0,68351:0:0:0:0:
128,192,68351,128,0,68624:0:0:0:0:
298,192,68351,128,0,68624:0:0:0:0:
469,192,68760,128,0,69306:0:0:0:0:
213,192,69033,128,0,69579:0:0:0:0:
384,192,69306,128,0,69851:0:0:0:0:
128,192,69579,128,0,69851:0:0:0:0:
42,192,69851,128,0,70260:0:0:0:0:
298,192,69851,128,0,70260:0:0:0:0:
128,192,70124,1,0,0:0:0:0:
128,192,70260,128,0,70533:0:0:0:0:
469,192,70260,128,0,70533:0:0:0:0:
298,192,70533,1,0,0:0:0:0:
213,192,70670,1,0,0:0:0:0:
298,192,70806,1,0,0:0:0:0:
384,192,70942,1,0,0:0:0:0:
213,192,71215,1,0,0:0:0:0:
298,192,71488,1,0,0:0:0:0:
128,192,71760,1,0,0:0:0:0:
213,192,72033,1,0,0:0:0:0:
298,192,72306,128,0,72579:0:0:0:0:
213,192,72579,128,0,72851:0:0:0:0:
128,192,72851,128,0,73124:0:0:0:0:
384,192,72851,128,0,73124:0:0:0:0:
469,192,73124,128,0,73533:0:0:0:0:
213,192,73124,128,0,73533:0:0:0:0:
384,192,73397,1,0,0:0:0:0:
128,192,73942,128,0,74215:0:0:0:0:
384,192,73942,128,0,74215:0:0:0:0:
42,192,74215,128,0,74624:0:0:0:0:
298,192,74215,128,0,74624:0:0:0:0:
128,192,74488,1,0,0:0:0:0:
298,192,75306,1,0,0:0:0:0:
128,192,75306,1,0,0:0:0:0:
213,192,75579,1,0,0:0:0:0:
384,192,75851,1,0,0:0:0:0:
213,192,75851,1,0,0:0:0:0:
298,192,76124,1,0,0:0:0:0:
469,192,76397,1,0,0:0:0:0:
298,192,76397,1,0,0:0:0:0:
128,192,76670,128,0,76942:0:0:0:0:
213,192,76942,128,0,77215:0:0:0:0:
298,192,77215,128,0,77488:0:0:0:0:
42,192,77488,128,0,77760:0:0:0:0:
469,192,77488,128,0,77760:0:0:0:0:
128,192,77760,128,0,78170:0:0:0:0:
384,192,77760,128,0,78170:0:0:0:0:
213,192,77897,1,0,0:0:0:0:
42,192,78579,128,0,78851:0:0:0:0:
469,192,78579,128,0,78851:0:0:0:0:
128,192,78851,128,0,79260:0:0:0:0:
384,192,78851,128,0,79260:0:0:0:0:
298,192,78988,1,0,0:0:0:0:
469,192,79260,1,0,0:0:0:0:
42,192,79260,1,0,0:0:0:0:
384,192,79397,1,0,0:0:0:0:
128,192,79397,1,0,0:0:0:0:
298,192,79533,1,0,0:0:0:0:
213,192,79533,1,0,0:0:0:0:
42,192,79670,128,0,79942:0:0:0:0:
469,192,79670,128,0,79942:0:0:0:0:
128,192,79942,1,0,0:0:0:0:
213,192,80215,1,0,0:0:0:0:
128,192,80488,1,0,0:0:0:0:
42,192,80760,128,0,81033:0:0:0:0:
469,192,80760,128,0,81033:0:0:0:0:
384,192,81033,1,0,0:0:0:0:
298,192,81306,1,0,0:0:0:0:
213,192,81579,1,0,0:0:0:0:
213,192,81851,128,0,82260:0:0:0:0:
384,192,81851,128,0,82260:0:0:0:0:
298,192,82124,1,0,0:0:0:0:
298,192,82397,128,0,82670:0:0:0:0:
128,192,82397,128,0,82670:0:0:0:0:
213,192,82670,1,0,0:0:0:0:
213,192,82942,1,0,0:0:0:0:
213,192,83079,1,0,0:0:0:0:
128,192,83215,1,0,0:0:0:0:
384,192,83488,1,0,0:0:0:0:
384,192,83624,1,0,0:0:0:0:
298,192,83760,1,0,0:0:0:0:
128,192,83897,1,0,0:0:0:0:
213,192,84033,128,0,84851:0:0:0:0:
469,192,84306,128,0,84851:0:0:0:0:
298,192,84579,128,0,84851:0:0:0:0:
298,192,85124,1,0,0:0:0:0:
298,192,85260,1,0,0:0:0:0:
384,192,85397,1,0,0:0:0:0:
128,192,85670,1,0,0:0:0:0:
128,192,85806,1,0,0:0:0:0:
213,192,85942,1,0,0:0:0:0:
384,192,86147,1,0,0:0:0:0:
298,192,86215,128,0,87033:0:0:0:0:
42,192,86488,128,0,87033:0:0:0:0:
213,192,86760,128,0,87033:0:0:0:0:
469,192,87579,1,0,0:0:0:0:
384,192,87579,1,0,0:0:0:0:
298,192,87715,1,0,0:0:0:0:
213,192,87715,1,0,0:0:0:0:
128,192,87851,1,0,0:0:0:0:
42,192,87851,1,0,0:0:0:0:
128,192,88124,1,0,0:0:0:0:
384,192,88124,1,0,0:0:0:0:
128,192,88397,128,0,88670:0:0:0:0:
384,192,88397,128,0,88670:0:0:0:0:
298,192,88942,1,0,0:0:0:0:
213,192,89215,1,0,0:0:0:0:
128,192,89488,128,0,89760:0:0:0:0:
384,192,89488,128,0,89760:0:0:0:0:
213,192,90033,1,0,0:0:0:0:
298,192,90306,1,0,0:0:0:0:
213,192,90579,128,0,91397:0:0:0:0:
469,192,90579,128,0,91397:0:0:0:0:
128,192,90851,128,0,91397:0:0:0:0:
298,192,91124,128,0,91397:0:0:0:0:
384,192,91397,1,0,0:0:0:0:
128,192,91670,1,0,0:0:0:0:
128,192,91806,1,0,0:0:0:0:
42,192,91942,1,0,0:0:0:0:
384,192,92215,1,0,0:0:0:0:
384,192,92351,1,0,0:0:0:0:
469,192,92488,1,0,0:0:0:0:
213,192,92760,128,0,93033:0:0:0:0:
384,192,92760,128,0,93033:0:0:0:0:
128,192,93033,128,0,93306:0:0:0:0:
298,192,93033,128,0,93306:0:0:0:0:
213,192,93306,128,0,93579:0:0:0:0:
384,192,93306,128,0,93579:0:0:0:0:
128,192,93579,1,0,0:0:0:0:
298,192,93579,1,0,0:0:0:0:
384,192,93851,1,0,0:0:0:0:
384,192,93988,1,0,0:0:0:0:
469,192,94124,1,0,0:0:0:0:
128,192,94397,1,0,0:0:0:0:
128,192,94533,1,0,0:0:0:0:
42,192,94670,1,0,0:0:0:0:
213,192,94874,1,0,0:0:0:0:
128,192,94942,128,0,95215:0:0:0:0:
298,192,94942,128,0,95215:0:0:0:0:
213,192,95215,128,0,95488:0:0:0:0:
384,192,95215,128,0,95488:0:0:0:0:
128,192,95488,128,0,95760:0:0:0:0:
298,192,95488,128,0,95760:0:0:0:0:
213,192,95760,128,0,96306:0:0:0:0:
384,192,95760,128,0,96306:0:0:0:0:
469,192,96306,1,0,0:0:0:0:
298,192,96306,1,0,0:0:0:0:
298,192,96442,1,0,0:0:0:0:
469,192,96442,1,0,0:0:0:0:
213,192,96715,1,0,0:0:0:0:
384,192,96715,1,0,0:0:0:0:
128,192,96851,1,0,0:0:0:0:
298,192,96851,1,0,0:0:0:0:
42,192,96988,1,0,0:0:0:0:
213,192,96988,1,0,0:0:0:0:
128,192,97124,128,0,97942:0:0:0:0:
469,192,97124,128,0,97942:0:0:0:0:
384,192,97397,1,0,0:0:0:0:
213,192,97670,1,0,0:0:0:0:
128,192,98215,1,0,0:0:0:0:
469,192,98215,1,0,0:0:0:0:
384,192,98488,128,0,99306:0:0:0:0:
42,192,98488,128,0,99306:0:0:0:0:
128,192,98760,1,0,0:0:0:0:
298,192,99033,1,0,0:0:0:0:
128,192,99579,128,0,100397:0:0:0:0:
213,192,99851,1,0,0:0:0:0:
384,192,100124,1,0,0:0:0:0:
384,192,100942,1,0,0:0:0:0:
298,192,101113,1,0,0:0:0:0:
384,192,101215,1,0,0:0:0:0:
298,192,101385,1,0,0:0:0:0:
384,192,101488,1,0,0:0:0:0:
42,192,101760,128,0,102033:0:0:0:0:
298,192,101760,128,0,102033:0:0:0:0:
213,192,102033,128,0,102306:0:0:0:0:
469,192,102033,128,0,102306:0:0:0:0:
384,192,102306,128,0,102579:0:0:0:0:
128,192,102306,128,0,102579:0:0:0:0:
42,192,102579,1,0,0:0:0:0:
298,192,102579,1,0,0:0:0:0:
128,192,103124,1,0,0:0:0:0:
213,192,103295,1,0,0:0:0:0:
128,192,103397,1,0,0:0:0:0:
213,192,103567,1,0,0:0:0:0:
384,192,103670,128,0,103942:0:0:0:0:
128,192,103670,128,0,104760:0:0:0:0:
298,192,104215,128,0,104488:0:0:0:0:
469,192,104760,128,0,105306:0:0:0:0:
213,192,104760,128,0,105306:0:0:0:0:
298,192,105033,1,0,0:0:0:0:
384,192,105306,128,0,105851:0:0:0:0:
128,192,105306,128,0,105851:0:0:0:0:
42,192,105851,128,0,106670:0:0:0:0:
298,192,105851,128,0,106670:0:0:0:0:
384,192,106124,1,0,0:0:0:0:
128,192,106397,1,0,0:0:0:0:
213,192,106942,128,0,107760:0:0:0:0:
469,192,106942,128,0,107760:0:0:0:0:
128,192,107215,1,0,0:0:0:0:
384,192,107488,1,0,0:0:0:0:
128,192,108033,128,0,108851:0:0:0:0:
384,192,108306,1,0,0:0:0:0:
42,192,108579,1,0,0:0:0:0:
213,192,108851,1,0,0:0:0:0:
213,192,109124,1,0,0:0:0:0:
128,192,109124,1,0,0:0:0:0:
213,192,109670,1,0,0:0:0:0:
128,192,109840,1,0,0:0:0:0:
213,192,109942,1,0,0:0:0:0:
128,192,110113,1,0,0:0:0:0:
469,192,110215,128,0,110488:0:0:0:0:
213,192,110215,128,0,110488:0:0:0:0:
384,192,110488,128,0,110760:0:0:0:0:
128,192,110488,128,0,110760:0:0:0:0:
42,192,110760,128,0,111033:0:0:0:0:
298,192,110760,128,0,111033:0:0:0:0:
384,192,111033,128,0,111306:0:0:0:0:
128,192,111033,128,0,111306:0:0:0:0:
298,192,111306,1,0,0:0:0:0:
42,192,111306,1,0,0:0:0:0:
298,192,111851,1,0,0:0:0:0:
384,192,112022,1,0,0:0:0:0:
298,192,112124,1,0,0:0:0:0:
384,192,112295,1,0,0:0:0:0:
298,192,112397,128,0,112670:0:0:0:0:
128,192,112397,128,0,112670:0:0:0:0:
213,192,112942,128,0,113215:0:0:0:0:
384,192,112942,128,0,113215:0:0:0:0:
128,192,113488,128,0,113897:0:0:0:0:
469,192,113488,128,0,114306:0:0:0:0:
42,192,114033,128,0,114306:0:0:0:0:
128,192,114579,1,0,0:0:0:0:
384,192,114749,1,0,0:0:0:0:
213,192,114851,1,0,0:0:0:0:
469,192,114988,128,0,115260:0:0:0:0:
298,192,114988,128,0,115260:0:0:0:0:
213,192,115260,128,0,115533:0:0:0:0:
42,192,115260,128,0,115533:0:0:0:0:
384,192,115670,1,0,0:0:0:0:
128,192,115840,1,0,0:0:0:0:
298,192,115942,1,0,0:0:0:0:
213,192,116079,128,0,116351:0:0:0:0:
42,192,116079,128,0,116351:0:0:0:0:
298,192,116351,128,0,116624:0:0:0:0:
469,192,116351,128,0,116624:0:0:0:0:
128,192,116761,1,0,0:0:0:0:
42,192,116829,1,0,0:0:0:0:
128,192,116897,1,0,0:0:0:0:
384,192,117306,1,0,0:0:0:0:
469,192,117374,1,0,0:0:0:0:
384,192,117442,1,0,0:0:0:0:
213,192,117851,1,0,0:0:0:0:
298,192,117920,1,0,0:0:0:0:
213,192,117988,1,0,0:0:0:0:
42,192,118397,1,0,0:0:0:0:
128,192,118465,1,0,0:0:0:0:
42,192,118533,1,0,0:0:0:0:
213,192,118942,1,0,0:0:0:0:
42,192,119113,1,0,0:0:0:0:
128,192,119215,1,0,0:0:0:0:
298,192,119351,128,0,119624:0:0:0:0:
128,192,119351,128,0,119624:0:0:0:0:
384,192,119624,128,0,119897:0:0:0:0:
213,192,119624,128,0,119897:0:0:0:0:
298,192,120033,1,0,0:0:0:0:
469,192,120204,1,0,0:0:0:0:
384,192,120306,1,0,0:0:0:0:
384,192,120442,128,0,120715:0:0:0:0:
213,192,120442,128,0,120715:0:0:0:0:
128,192,120715,128,0,120988:0:0:0:0:
298,192,120715,128,0,120988:0:0:0:0:
469,192,121124,128,0,121670:0:0:0:0:
213,192,121397,128,0,121942:0:0:0:0:
384,192,121670,128,0,122215:0:0:0:0:
128,192,121942,128,0,122215:0:0:0:0:
42,192,122215,128,0,122624:0:0:0:0:
298,192,122215,128,0,122624:0:0:0:0:
128,192,122488,1,0,0:0:0:0:
128,192,122624,128,0,122897:0:0:0:0:
469,192,122624,128,0,122897:0:0:0:0:
298,192,122897,1,0,0:0:0:0:
213,192,123033,1,0,0:0:0:0:
298,192,123170,1,0,0:0:0:0:
128,192,123306,128,0,123715:0:0:0:0:
384,192,123476,128,0,123715:0:0:0:0:
213,192,123579,128,0,123715:0:0:0:0:
298,192,123715,1,0,0:0:0:0:
469,192,123715,1,0,0:0:0:0:
213,192,123988,1,0,0:0:0:0:
42,192,123988,1,0,0:0:0:0:
384,192,124397,128,0,124806:0:0:0:0:
128,192,124567,128,0,124806:0:0:0:0:
298,192,124670,128,0,124806:0:0:0:0:
42,192,124806,1,0,0:0:0:0:
213,192,124806,1,0,0:0:0:0:
298,192,125079,1,0,0:0:0:0:
469,192,125079,1,0,0:0:0:0:
128,192,125488,128,0,125556:0:0:0:0:
42,192,125488,128,0,125556:0:0:0:0:
128,192,125624,1,0,0:0:0:0:
42,192,125624,1,0,0:0:0:0:
384,192,126033,128,0,126101:0:0:0:0:
469,192,126033,128,0,126101:0:0:0:0:
384,192,126170,1,0,0:0:0:0:
469,192,126170,1,0,0:0:0:0:
298,192,126579,128,0,126647:0:0:0:0:
213,192,126579,128,0,126647:0:0:0:0:
213,192,126715,1,0,0:0:0:0:
298,192,126715,1,0,0:0:0:0:
42,192,127124,128,0,127192:0:0:0:0:
128,192,127124,128,0,127192:0:0:0:0:
42,192,127261,1,0,0:0:0:0:
128,192,127261,1,0,0:0:0:0:
213,192,127670,1,0,0:0:0:0:
42,192,127840,1,0,0:0:0:0:
128,192,127942,1,0,0:0:0:0:
298,192,128079,128,0,128351:0:0:0:0:
128,192,128079,128,0,128351:0:0:0:0:
384,192,128351,128,0,128624:0:0:0:0:
213,192,128351,128,0,128624:0:0:0:0:
298,192,128761,1,0,0:0:0:0:
469,192,128931,1,0,0:0:0:0:
384,192,129033,1,0,0:0:0:0:
384,192,129170,128,0,129442:0:0:0:0:
213,192,129170,128,0,129442:0:0:0:0:
128,192,129442,128,0,129715:0:0:0:0:
298,192,129442,128,0,129715:0:0:0:0:
469,192,129851,128,0,130397:0:0:0:0:
213,192,130124,128,0,130670:0:0:0:0:
384,192,130397,128,0,130942:0:0:0:0:
128,192,130670,128,0,130942:0:0:0:0:
42,192,130942,128,0,131351:0:0:0:0:
298,192,130942,128,0,131351:0:0:0:0:
128,192,131215,1,0,0:0:0:0:
128,192,131351,128,0,131624:0:0:0:0:
469,192,131351,128,0,131624:0:0:0:0:
298,192,131624,1,0,0:0:0:0:
213,192,131761,1,0,0:0:0:0:
298,192,131897,1,0,0:0:0:0:
128,192,132033,1,0,0:0:0:0:
213,192,132204,1,0,0:0:0:0:
298,192,132306,1,0,0:0:0:0:
298,192,132442,128,0,132715:0:0:0:0:
469,192,132442,128,0,132715:0:0:0:0:
213,192,132715,128,0,132988:0:0:0:0:
384,192,132715,128,0,132988:0:0:0:0:
298,192,133124,1,0,0:0:0:0:
128,192,133295,1,0,0:0:0:0:
213,192,133397,1,0,0:0:0:0:
213,192,133533,128,0,133806:0:0:0:0:
42,192,133533,128,0,133806:0:0:0:0:
128,192,133806,128,0,134079:0:0:0:0:
298,192,133806,128,0,134079:0:0:0:0:
42,192,134215,1,0,0:0:0:0:
384,192,134215,1,0,0:0:0:0:
128,192,134283,1,0,0:0:0:0:
469,192,134283,1,0,0:0:0:0:
42,192,134351,1,0,0:0:0:0:
384,192,134351,1,0,0:0:0:0:
213,192,134761,1,0,0:0:0:0:
469,192,134761,1,0,0:0:0:0:
128,192,134829,1,0,0:0:0:0:
384,192,134829,1,0,0:0:0:0:
213,192,134897,1,0,0:0:0:0:
469,192,134897,1,0,0:0:0:0:
469,192,135306,1,0,0:0:0:0:
42,192,135306,1,0,0:0:0:0:
128,192,135374,1,0,0:0:0:0:
384,192,135374,1,0,0:0:0:0:
42,192,135442,1,0,0:0:0:0:
469,192,135442,1,0,0:0:0:0:
298,192,135851,1,0,0:0:0:0:
213,192,135851,1,0,0:0:0:0:
128,192,135920,1,0,0:0:0:0:
384,192,135920,1,0,0:0:0:0:
298,192,135988,1,0,0:0:0:0:
213,192,135988,1,0,0:0:0:0:
128,192,136397,1,0,0:0:0:0:
384,192,136567,1,0,0:0:0:0:
213,192,136806,1,0,0:0:0:0:
469,192,136806,1,0,0:0:0:0:
469,192,137079,128,0,137351:0:0:0:0:
213,192,137079,128,0,137351:0:0:0:0:
128,192,137488,1,0,0:0:0:0:
384,192,137658,1,0,0:0:0:0:
384,192,137897,1,0,0:0:0:0:
128,192,137897,1,0,0:0:0:0:
384,192,138170,128,0,138442:0:0:0:0:
128,192,138170,128,0,138442:0:0:0:0:
469,192,138579,128,0,139670:0:0:0:0:
128,192,138851,128,0,139670:0:0:0:0:
298,192,139124,128,0,139670:0:0:0:0:
213,192,139397,128,0,139670:0:0:0:0:
42,192,139670,128,0,140079:0:0:0:0:
384,192,139670,128,0,140079:0:0:0:0:
128,192,140079,128,0,140488:0:0:0:0:
469,192,140079,128,0,140488:0:0:0:0:
128,192,140761,1,0,0:0:0:0:
213,192,140931,1,0,0:0:0:0:
298,192,141033,1,0,0:0:0:0:
213,192,141170,1,0,0:0:0:0:
128,192,141170,1,0,0:0:0:0:
469,192,141170,1,0,0:0:0:0:
298,192,141442,1,0,0:0:0:0:
384,192,141442,1,0,0:0:0:0:
42,192,141442,1,0,0:0:0:0:
384,192,141851,1,0,0:0:0:0:
128,192,142022,1,0,0:0:0:0:
213,192,142124,1,0,0:0:0:0:
42,192,142261,1,0,0:0:0:0:
298,192,142261,1,0,0:0:0:0:
384,192,142261,1,0,0:0:0:0:
128,192,142533,1,0,0:0:0:0:
469,192,142533,1,0,0:0:0:0:
213,192,142533,1,0,0:0:0:0:
213,192,142942,1,0,0:0:0:0:
469,192,142942,1,0,0:0:0:0:
128,192,143011,1,0,0:0:0:0:
384,192,143011,1,0,0:0:0:0:
42,192,143079,1,0,0:0:0:0:
298,192,143079,1,0,0:0:0:0:
42,192,143488,1,0,0:0:0:0:
298,192,143488,1,0,0:0:0:0:
128,192,143556,1,0,0:0:0:0:
384,192,143556,1,0,0:0:0:0:
213,192,143624,1,0,0:0:0:0:
469,192,143624,1,0,0:0:0:0:
213,192,144033,1,0,0:0:0:0:
469,192,144033,1,0,0:0:0:0:
298,192,144101,1,0,0:0:0:0:
42,192,144101,1,0,0:0:0:0:
384,192,144170,1,0,0:0:0:0:
128,192,144170,1,0,0:0:0:0:
298,192,144579,1,0,0:0:0:0:
42,192,144579,1,0,0:0:0:0:
213,192,144647,1,0,0:0:0:0:
469,192,144647,1,0,0:0:0:0:
128,192,144715,1,0,0:0:0:0:
384,192,144715,1,0,0:0:0:0:
298,192,145124,1,0,0:0:0:0:
42,192,145295,1,0,0:0:0:0:
384,192,145533,128,0,145806:0:0:0:0:
128,192,145533,128,0,145806:0:0:0:0:
298,192,145806,128,0,146079:0:0:0:0:
42,192,145806,128,0,146079:0:0:0:0:
128,192,146215,1,0,0:0:0:0:
384,192,146386,1,0,0:0:0:0:
42,192,146624,128,0,146897:0:0:0:0:
469,192,146624,128,0,146897:0:0:0:0:
384,192,146897,128,0,147170:0:0:0:0:
128,192,146897,128,0,147170:0:0:0:0:
469,192,147306,128,0,148397:0:0:0:0:
384,192,147579,128,0,148397:0:0:0:0:
213,192,147851,128,0,148397:0:0:0:0:
128,192,148124,128,0,148397:0:0:0:0:
298,192,148397,128,0,148806:0:0:0:0:
42,192,148397,128,0,148806:0:0:0:0:
128,192,148806,128,0,149215:0:0:0:0:
469,192,148806,128,0,149215:0:0:0:0:
298,192,149215,1,0,0:0:0:0:
384,192,149488,1,0,0:0:0:0:
213,192,149726,1,0,0:0:0:0:
298,192,149897,1,0,0:0:0:0:
42,192,150306,1,0,0:0:0:0:
128,192,150579,1,0,0:0:0:0:
298,192,150817,1,0,0:0:0:0:
213,192,150988,1,0,0:0:0:0:
