osu file format v14

[General]
AudioFilename: audio.mp3
AudioLeadIn: 0
PreviewTime: 54126
Countdown: 0
SampleSet: Soft
StackLeniency: 0.3
Mode: 0
LetterboxInBreaks: 0
WidescreenStoryboard: 1

[Editor]
DistanceSpacing: 1
BeatDivisor: 6
GridSize: 32
TimelineZoom: 3.579998

[Metadata]
Title:PIT-A-PAT
TitleUnicode:PIT-A-PAT
Artist:TWICE
ArtistUnicode:트와이스
Creator:Stixy
Version:suyuko's Expert
Source:
Tags:kpop korean k-pop pop short ver version cut edit jyp entertainment sana jihyo dahyun nayeon jeongyeon chaeyoung momo mina tzuyu 나연 정연 모모 사나 지효 미나 다현 채영 쯔위 twicecoaster: twicecoaster lane1 one pit a pat rosiie nofc kujinn reform enerugi a_r_m_i_n armin kvuhlrrie suyuko
BeatmapID:2298455
BeatmapSetID:1099733

[Difficulty]
HPDrainRate:5
CircleSize:4
OverallDifficulty:8.4
ApproachRate:9.2
SliderMultiplier:1.7
SliderTickRate:1

[Events]
//Background and Video events
0,0,"bg.jpg",0,0
//Break Periods
//Storyboard Layer 0 (Background)
//Storyboard Layer 1 (Fail)
//Storyboard Layer 2 (Pass)
//Storyboard Layer 3 (Foreground)
//Storyboard Layer 4 (Overlay)
//Storyboard Sound Samples

[TimingPoints]
615,337.078651685393,4,2,1,60,1,0
11401,-100,4,2,1,70,0,0
12665,-100,4,2,1,5,0,0
12749,-100,4,2,1,70,0,0
13761,-100,4,2,1,70,0,0
15362,-100,4,2,1,5,0,0
15446,-100,4,2,1,70,0,0
16457,-100,4,2,1,70,0,0
19154,-100,4,2,1,70,0,0
22188,-100,4,2,1,70,0,0
23789,-100,4,2,1,5,0,0
23873,-100,4,2,1,70,0,0
27497,-100,4,2,1,5,0,0
27581,-100,4,2,1,70,0,0
29519,-100,4,2,1,5,0,0
29603,-100,4,2,1,70,0,0
30530,-100,4,2,1,5,0,0
30614,-100,4,2,1,70,0,0
32216,-100,4,2,1,5,0,0
32300,-100,4,2,1,70,0,0
32974,-133.333333333333,4,2,2,50,0,0
36598,-133.333333333333,4,2,2,5,0,0
36682,-133.333333333333,4,2,2,50,0,0
37946,-133.333333333333,4,2,2,5,0,0
38030,-133.333333333333,4,2,2,50,0,0
39294,-133.333333333333,4,2,2,5,0,0
39378,-133.333333333333,4,2,2,50,0,0
41991,-133.333333333333,4,2,2,5,0,0
42075,-133.333333333333,4,2,2,50,0,0
43761,-99.9999999999999,4,2,1,60,0,0
46710,-100,4,2,1,5,0,0
46794,-100,4,2,1,60,0,0
49154,-99.9999999999999,4,2,2,60,0,0
49533,-99.9999999999999,4,2,1,60,0,0
49575,-99.9999999999999,4,2,2,60,0,0
50039,-99.9999999999999,4,2,1,60,0,0
50081,-99.9999999999999,4,2,2,60,0,0
50544,-99.9999999999999,4,2,1,60,0,0
50586,-99.9999999999999,4,2,2,60,0,0
51050,-99.9999999999999,4,2,1,60,0,0
51092,-99.9999999999999,4,2,2,60,0,0
51556,-99.9999999999999,4,2,1,60,0,0
51598,-99.9999999999999,4,2,2,60,0,0
51850,-99.9999999999999,4,2,1,60,0,0
53199,-99.9999999999999,4,2,1,40,0,0
53873,-166.666666666667,4,2,1,60,0,0
54547,-83.3333333333333,4,2,1,80,0,1
54800,-83.3333333333333,4,2,1,5,0,1
54884,-83.3333333333333,4,2,1,80,0,1
56148,-83.3333333333333,4,2,1,5,0,1
56232,-83.3333333333333,4,2,1,80,0,1
58002,-83.3333333333333,4,2,1,5,0,1
58086,-83.3333333333333,4,2,1,80,0,1
60193,-83.3333333333333,4,2,1,5,0,1
60277,-83.3333333333333,4,2,1,80,0,1
61541,-83.3333333333333,4,2,1,5,0,1
61625,-83.3333333333333,4,2,1,80,0,1
62216,-83.3333333333333,4,2,1,5,0,1
62300,-83.3333333333333,4,2,1,80,0,1
62890,-83.3333333333333,4,2,1,5,0,1
62974,-83.3333333333333,4,2,1,80,0,1
63395,-83.3333333333333,4,2,1,5,0,1
63479,-83.3333333333333,4,2,1,80,0,1
65586,-83.3333333333333,4,2,1,5,0,1
65670,-83.3333333333333,4,2,1,80,0,1
66935,-83.3333333333333,4,2,1,5,0,1
67019,-83.3333333333333,4,2,1,80,0,1
68789,-83.3333333333333,4,2,1,5,0,1
68873,-83.3333333333333,4,2,1,80,0,1
70980,-83.3333333333333,4,2,1,5,0,1
71064,-83.3333333333333,4,2,1,80,0,1
71485,-83.3333333333333,4,2,1,5,0,1
71569,-83.3333333333333,4,2,1,80,0,1
73676,-83.3333333333333,4,2,1,5,0,1
73760,-83.3333333333333,4,2,1,80,0,1
74182,-83.3333333333333,4,2,1,5,0,1
74266,-83.3333333333333,4,2,1,80,0,1
76120,-111.111111111111,4,2,1,60,0,0
77721,-111.111111111111,4,2,1,5,0,0
77806,-111.111111111111,4,2,1,60,0,0
84968,-111.111111111111,4,2,1,5,0,0
85053,-111.111111111111,4,2,1,60,0,0

[Colours]
Combo1 : 255,183,111
Combo2 : 138,138,255
Combo3 : 255,43,149
Combo4 : 255,125,125

[HitObjects]
512,368,11401,6,0,P|457:355|421:351,1,85,4|2,1:2|0:2,0:0:0:0:
282,286,11738,2,0,P|324:280|365:269,1,85,10|2,0:2|1:2,0:0:0:0:
444,236,12075,1,2,0:2:0:0:
414,157,12244,1,2,1:2:0:0:
325,52,12412,6,0,B|263:42|263:42|249:47|249:47|192:37,1,127.5,10|0,0:2|0:0,0:0:0:0:
191,20,12749,1,2,1:2:0:0:
110,0,12918,1,2,0:2:0:0:
36,109,13086,1,10,0:2:0:0:
113,83,13255,1,2,0:2:0:0:
19,25,13423,2,0,P|32:87|38:122,1,85,2|0,0:2|0:0,0:0:0:0:
53,240,13761,1,8,0:2:0:0:
53,240,14098,6,0,P|90:275|137:274,1,85,0|2,1:2|0:2,0:0:0:0:
258,188,14435,2,0,P|216:195|188:226,1,85,10|2,0:2|1:2,0:0:0:0:
215,308,14772,1,2,0:2:0:0:
188,226,14940,1,2,1:2:0:0:
161,365,15109,6,0,B|205:388|205:388|298:368,1,127.5,10|0,0:2|0:0,0:0:0:0:
290,359,15446,1,2,1:2:0:0:
357,309,15614,1,2,0:2:0:0:
497,376,15783,1,10,0:2:0:0:
437,315,15952,1,2,0:2:0:0:
448,226,16120,2,0,L|458:136,1,85,2|0,0:2|0:0,0:0:0:0:
472,24,16457,1,10,0:2:0:0:
472,24,16794,6,0,P|418:15|375:7,1,85,2|2,1:2|0:2,0:0:0:0:
279,89,17131,1,10,0:2:0:0:
301,0,17300,1,2,1:2:0:0:
457,108,17468,2,0,P|403:99|360:91,1,85,2|2,0:2|1:2,0:0:0:0:
195,74,17806,2,0,P|165:125|174:171,1,85,10|2,0:2|0:2,0:0:0:0:
247,295,18143,5,2,1:2:0:0:
291,225,18311,1,2,0:2:0:0:
162,286,18480,1,10,0:2:0:0:
205,364,18648,1,2,0:2:0:0:
247,295,18817,2,0,P|195:288|153:286,1,85,2|0,0:2|0:0,0:0:0:0:
34,342,19154,1,10,0:2:0:0:
18,259,19322,1,0,0:0:0:0:
70,95,19491,6,0,P|120:83|159:74,1,85,2|2,1:2|0:2,0:0:0:0:
330,19,19828,2,0,P|288:9|247:0,1,85,10|2,0:2|1:2,0:0:0:0:
226,85,20165,1,2,0:2:0:0:
307,102,20334,1,2,1:2:0:0:
419,0,20502,1,10,0:2:0:0:
405,78,20671,1,2,0:2:0:0:
494,151,20839,6,0,P|503:103|511:61,1,85,2|2,1:2|0:2,0:0:0:0:
393,246,21176,2,0,P|384:198|376:156,2,85,10|2|2,0:2|0:2|0:2,0:0:0:0:
438,319,21682,1,0,0:0:0:0:
300,370,21850,1,8,0:2:0:0:
318,287,22019,1,0,1:2:0:0:
213,208,22188,6,0,P|223:257|232:300,1,85,4|2,1:2|0:2,0:0:0:0:
103,378,22525,2,0,P|50:362|25:328,1,85,10|2,0:2|1:2,0:0:0:0:
107,215,22862,2,0,P|118:264|98:307,1,85,2|0,0:2|1:2,0:0:0:0:
45,159,23199,1,10,0:2:0:0:
45,159,23536,6,0,B|36:114|36:114|41:99|41:99|24:15,1,127.5,2|0,1:2|0:0,0:0:0:0:
42,19,23873,1,10,0:2:0:0:
138,78,24041,1,0,0:0:0:0:
212,34,24210,2,0,P|259:23|302:10,1,85,2|0,0:2|0:0,0:0:0:0:
471,68,24547,1,8,0:2:0:0:
471,68,24884,6,0,P|424:57|381:44,1,85,0|2,1:2|0:2,0:0:0:0:
282,160,25221,1,10,0:2:0:0:
312,83,25390,1,2,1:2:0:0:
356,213,25558,2,0,P|396:201|438:191,1,85,2|0,0:2|1:2,0:0:0:0:
506,312,25895,1,10,0:2:0:0:
506,312,26232,5,2,1:2:0:0:
432,369,26401,1,2,0:2:0:0:
300,281,26570,1,10,0:2:0:0:
350,360,26738,1,2,0:2:0:0:
405,292,26907,1,2,0:2:0:0:
331,376,27075,1,0,0:0:0:0:
216,297,27244,2,0,P|147:307|71:315,1,127.5,10|0,0:2|0:0,0:0:0:0:
75,328,27581,5,2,1:2:0:0:
38,256,27749,1,0,0:0:0:0:
116,186,27918,1,8,0:2:0:0:
134,115,28086,1,2,1:2:0:0:
111,25,28255,2,0,P|161:37|214:46,1,85,2|0,0:2|1:2,0:0:0:0:
9,101,28592,1,8,0:2:0:0:
9,101,28929,6,0,P|25:52|36:12,1,85,2|2,1:2|0:2,0:0:0:0:
134,115,29266,2,0,B|194:116|184:178|269:172,1,127.5,10|0,0:2|0:0,0:0:0:0:
262,162,29603,1,2,0:2:0:0:
279,245,29772,1,0,0:0:0:0:
216,353,29940,1,10,0:2:0:0:
192,275,30109,1,0,0:0:0:0:
301,345,30277,6,0,B|355:333|355:333|366:338|366:338|436:323,1,127.5,2|0,1:2|0:0,0:0:0:0:
448,338,30614,1,8,0:2:0:0:
501,269,30783,1,2,1:2:0:0:
449,205,30952,2,0,P|406:214|361:225,1,85,2|0,0:2|1:2,0:0:0:0:
262,162,31289,1,8,0:2:0:0:
262,162,31626,6,0,P|270:203|279:245,1,85,2|2,1:2|0:2,0:0:0:0:
245,79,31963,2,0,B|304:45|310:101|382:79,1,127.5,10|0,0:2|0:0,0:0:0:0:
369,70,32300,2,0,P|365:42|360:22,2,28.3333333333333,10|8|8,0:0|0:0|0:0,0:0:0:0:
512,11,32637,2,0,P|509:24|508:39,3,28.3333333333333,8|8|8|8,0:0|0:0|0:0|0:0,0:0:0:0:
512,11,32974,6,0,P|466:2|434:-2,1,63.7500024318696,6|0,1:2|1:2,0:0:0:0:
439,76,33311,2,0,P|470:80|501:87,1,63.7500024318696,10|0,0:2|0:0,0:0:0:0:
484,160,33648,2,0,P|452:153|421:148,1,63.7500024318696,10|0,0:2|0:0,0:0:0:0:
345,178,33985,1,10,1:2:0:0:
335,198,34070,1,2,0:2:0:0:
332,220,34154,1,2,0:2:0:0:
338,241,34238,1,2,0:2:0:0:
348,262,34322,6,0,B|407:247|408:302|475:286,1,127.500004863739,10|8,0:2|1:2,0:0:0:0:
468,287,34997,1,10,0:2:0:0:
488,361,35165,1,2,0:2:0:0:
412,380,35334,2,0,P|404:382|397:384,6,15.9375006079674,10|0|8|0|10|0|8,0:2|0:0|0:2|0:0|0:2|0:0|0:2,0:0:0:0:
359,364,35671,6,0,L|287:347,1,63.7500024318696,10|8,0:2|0:2,0:0:0:0:
206,322,36008,1,10,0:2:0:0:
206,322,36345,6,0,B|169:329|169:329|158:327|158:327|93:336,1,95.6250036478044,14|0,1:2|0:0,0:0:0:0:
103,325,36682,1,10,1:2:0:0:
99,316,36766,1,2,0:2:0:0:
92,305,36850,1,2,0:2:0:0:
86,294,36935,1,2,0:2:0:0:
81,281,37019,6,0,B|64:245|64:245|92:143,1,127.500004863739,10|8,0:2|0:2,0:0:0:0:
117,81,37525,1,2,0:2:0:0:
117,81,37693,2,0,P|151:76|185:20,1,95.6250036478044,10|0,1:2|0:0,0:0:0:0:
200,24,38030,2,0,L|248:33,2,42.5000016212464,10|8|8,1:2|1:2|1:2,0:0:0:0:
261,107,38367,6,0,B|319:93|319:93|329:98|329:98|401:81,1,127.500004863739,14|10,1:2|0:2,0:0:0:0:
384,84,39041,2,0,B|414:125|414:125|398:174,1,95.6250036478044,10|0,0:2|0:0,0:0:0:0:
411,182,39379,1,10,1:2:0:0:
422,192,39463,1,2,0:2:0:0:
435,200,39547,1,2,0:2:0:0:
447,209,39631,1,2,0:2:0:0:
462,217,39716,6,0,P|475:303|486:359,1,127.500004863739,10|2,0:2|1:2,0:0:0:0:
482,342,40390,1,10,0:2:0:0:
406,362,40558,1,0,1:2:0:0:
348,302,40727,2,0,P|350:294|352:286,6,15.9375006079674,8|0|8|0|8|0|8,0:2|0:0|0:2|0:0|0:2|0:0|0:2,0:0:0:0:
369,258,41064,6,0,P|321:242|289:232,1,63.7500024318696,14|0,1:2|0:0,0:0:0:0:
230,172,41401,2,0,P|260:162|290:152,1,63.7500024318696,10|0,0:2|0:0,0:0:0:0:
373,90,41738,2,0,P|342:80|277:58,1,95.6250036478044,10|0,0:2|0:0,0:0:0:0:
280,45,42075,1,10,1:2:0:0:
209,66,42244,1,2,0:2:0:0:
101,6,42412,6,0,P|63:30|46:107,1,127.500004863739,10|10,0:2|0:2,0:0:0:0:
45,106,43086,2,0,L|48:131,3,21.2500008106232,10|0|0|0,0:2|0:0|0:0|0:0,0:0:0:0:
143,207,43423,2,0,L|146:182,3,21.2500008106232,10|0|0|2,0:2|0:0|0:0|0:2,0:0:0:0:
19,308,43761,5,6,1:2:0:0:
78,257,43929,1,0,1:2:0:0:
168,383,44098,1,10,0:2:0:0:
96,345,44266,1,2,0:2:0:0:
166,298,44435,1,2,0:2:0:0:
284,341,44603,1,8,0:2:0:0:
336,279,44772,1,2,0:2:0:0:
354,274,44856,1,2,0:2:0:0:
371,271,44940,1,2,0:2:0:0:
388,268,45025,1,2,0:2:0:0:
410,263,45109,6,0,P|419:211|426:173,1,85,2|2,0:2|0:2,0:0:0:0:
309,97,45446,2,0,P|316:138|323:180,1,85,2|0,1:2|0:0,0:0:0:0:
453,58,45783,1,2,0:2:0:0:
453,58,46120,1,2,1:2:0:0:
376,20,46289,1,2,0:2:0:0:
217,111,46457,6,0,B|168:122|168:122|159:117|159:117|89:132,1,127.5,2|0,0:2|0:0,0:0:0:0:
82,145,46794,1,10,0:2:0:0:
37,213,46963,1,2,0:2:0:0:
98,272,47131,1,2,0:2:0:0:
11,384,47300,1,8,0:2:0:0:
97,358,47468,1,2,1:2:0:0:
114,373,47553,1,2,0:2:0:0:
131,376,47637,1,2,0:2:0:0:
151,370,47721,1,2,0:2:0:0:
169,353,47806,6,0,P|178:313|186:264,1,85,2|2,0:2|0:2,0:0:0:0:
268,194,48143,2,0,P|274:236|286:285,1,85,2|2,0:2|0:2,0:0:0:0:
311,361,48480,1,2,0:2:0:0:
311,361,48817,2,0,P|282:367|248:378,2,56.6666666666667,0|0|0,1:2|1:2|1:2,0:0:0:0:
398,365,49154,5,10,0:2:0:0:
406,340,49322,1,8,0:2:0:0:
352,268,49491,5,10,0:2:0:0:
339,232,49659,1,8,0:2:0:0:
436,198,49828,5,10,0:2:0:0:
462,135,49997,1,8,0:2:0:0:
372,18,50165,5,10,0:2:0:0:
293,41,50334,1,10,0:2:0:0:
248,139,50502,5,10,0:2:0:0:
146,109,50671,1,8,0:2:0:0:
0,0,50839,5,10,0:2:0:0:
65,100,51008,1,10,0:2:0:0:
0,311,51176,5,8,0:2:0:0:
97,184,51345,1,10,0:2:0:0:
302,357,51513,5,8,0:2:0:0:
112,378,51682,1,8,0:2:0:0:
242,249,51850,1,8,0:2:0:0:
267,245,51935,1,2,0:2:0:0:
292,242,52019,1,10,0:2:0:0:
317,239,52103,1,2,0:2:0:0:
341,235,52188,2,0,P|370:228|388:225,3,42.5,8|2|10|2,0:2|0:2|0:2|0:2,0:0:0:0:
419,220,52525,1,8,0:2:0:0:
420,190,52609,1,2,0:2:0:0:
402,166,52693,1,10,0:2:0:0:
373,156,52777,1,2,0:2:0:0:
345,154,52862,2,0,P|339:121|337:104,3,42.5,8|2|10|2,0:2|0:2|0:2|0:2,0:0:0:0:
342,85,53199,6,0,P|364:91|375:91,12,28.3333333333333,8|8|8|8|8|8|8|8|8|8|8|8|0,0:0|0:0|0:0|0:0|0:0|0:0|0:0|0:0|0:0|0:0|0:0|0:0|0:0,0:0:0:0:
0,33,54154,6,0,P|34:24|60:15,1,50.9999984436036,2|2,0:2|0:2,0:0:0:0:
275,110,54547,6,0,B|204:93|204:93|192:98|192:98|127:79,1,152.999995330811,6|0,1:2|0:0,0:0:0:0:
111,91,54884,1,10,0:2:0:0:
75,172,55053,1,2,1:2:0:0:
230,301,55221,2,0,P|216:251|203:202,1,101.999996887207,2|0,0:2|1:2,0:0:0:0:
37,278,55558,1,10,0:2:0:0:
133,303,55727,1,2,0:2:0:0:
337,251,55895,6,0,B|409:273|376:326|473:334,1,152.999995330811,2|0,1:2|0:0,0:0:0:0:
475,344,56232,2,0,P|484:310|504:235,1,101.999996887207,10|0,0:2|0:0,0:0:0:0:
433,182,56570,1,2,0:2:0:0:
408,103,56738,1,2,0:2:0:0:
512,0,56907,1,10,0:2:0:0:
408,103,57075,6,0,P|339:122|300:134,1,101.999996887207,2|0,0:2|1:2,0:0:0:0:
235,184,57412,1,2,0:2:0:0:
258,19,57581,1,8,0:2:0:0:
180,2,57749,2,0,B|116:-11|124:61|27:56,1,152.999995330811,0|0,1:2|0:0,0:0:0:0:
18,48,58086,1,2,1:2:0:0:
68,208,58255,1,8,0:2:0:0:
68,208,58592,5,0,1:2:0:0:
147,152,58761,1,0,0:0:0:0:
237,294,58929,1,8,0:2:0:0:
157,253,59098,1,2,0:0:0:0:
157,253,59182,1,2,0:0:0:0:
157,253,59266,1,2,0:0:0:0:
64,384,59435,1,2,0:2:0:0:
217,308,59603,1,10,0:2:0:0:
290,357,59772,1,2,0:2:0:0:
504,275,59940,6,0,B|443:260|443:260|430:267|430:267|353:246,1,152.999995330811,6|0,1:2|0:0,0:0:0:0:
347,229,60277,1,10,0:2:0:0:
423,179,60446,1,0,1:2:0:0:
510,370,60614,2,0,P|453:353|397:340,1,101.999996887207,2|0,0:2|1:2,0:0:0:0:
218,317,60952,1,10,0:2:0:0:
218,317,61289,6,0,P|210:376|252:317,1,152.999995330811,2|0,1:2|0:0,0:0:0:0:
235,347,61626,2,0,P|222:276|212:240,1,101.999996887207,10|0,0:2|0:0,0:0:0:0:
96,104,61963,2,0,P|152:122|236:56,1,152.999995330811,2|0,0:2|0:0,0:0:0:0:
231,49,62300,1,10,0:2:0:0:
306,8,62468,1,2,0:2:0:0:
503,114,62637,6,0,B|444:102|444:102|433:106|433:106|345:89,1,152.999995330811,2|0,1:2|0:0,0:0:0:0:
329,103,62974,1,10,0:2:0:0:
440,267,63143,2,0,B|483:248|483:248|510:121,1,152.999995330811,0|0,1:2|0:0,0:0:0:0:
503,114,63480,1,2,1:2:0:0:
350,297,63648,1,8,0:2:0:0:
350,297,63985,5,0,1:2:0:0:
375,216,64154,1,2,0:2:0:0:
473,366,64322,1,10,0:2:0:0:
329,286,64491,1,0,0:0:0:0:
167,384,64659,1,0,0:0:0:0:
247,283,64828,1,2,0:0:0:0:
247,283,64912,1,2,0:0:0:0:
247,283,64997,1,10,0:2:0:0:
178,172,65165,1,2,0:2:0:0:
7,285,65334,6,0,P|74:271|179:254,1,152.999995330811,6|0,1:2|0:0,0:0:0:0:
176,248,65671,1,10,0:2:0:0:
169,369,65839,1,2,1:2:0:0:
0,210,66008,2,0,P|62:196|136:185,1,101.999996887207,2|0,0:2|1:2,0:0:0:0:
315,219,66345,1,10,0:2:0:0:
293,121,66513,1,2,0:2:0:0:
174,17,66682,6,0,B|114:3|120:65|17:36,1,152.999995330811,2|0,1:2|0:0,0:0:0:0:
0,14,67019,2,0,P|14:76|24:139,1,101.999996887207,10|0,0:2|0:0,0:0:0:0:
114,142,67356,1,2,0:2:0:0:
194,100,67525,1,2,0:2:0:0:
396,187,67693,1,10,0:2:0:0:
481,146,67862,6,0,P|437:103|384:103,1,101.999996887207,2|0,0:2|1:2,0:0:0:0:
315,135,68199,1,2,0:2:0:0:
482,261,68367,1,8,0:2:0:0:
418,317,68536,2,0,B|346:338|344:265|257:286,1,152.999995330811,0|0,1:2|0:0,0:0:0:0:
250,272,68873,1,2,1:2:0:0:
92,368,69041,1,8,0:2:0:0:
92,368,69379,5,0,1:2:0:0:
142,276,69547,1,0,0:0:0:0:
0,158,69716,1,8,0:2:0:0:
37,268,69884,1,2,0:0:0:0:
37,268,69968,1,2,0:0:0:0:
37,268,70053,1,2,0:0:0:0:
124,174,70221,1,2,0:2:0:0:
0,17,70390,1,10,0:2:0:0:
99,74,70558,1,2,0:2:0:0:
232,8,70727,6,0,B|222:72|222:72|228:83|228:83|215:171,1,152.999995330811,6|0,1:2|0:0,0:0:0:0:
230,184,71064,1,10,0:2:0:0:
194,346,71232,2,0,B|270:369|282:297|369:317,1,152.999995330811,0|0,1:2|0:0,0:0:0:0:
364,327,71570,1,0,1:2:0:0:
501,216,71738,1,10,0:2:0:0:
501,216,72075,6,0,P|430:197|388:188,1,101.999996887207,2|0,1:2|0:0,0:0:0:0:
512,47,72412,2,0,P|463:33|413:23,1,101.999996887207,10|0,0:2|0:0,0:0:0:0:
316,12,72749,1,2,0:2:0:0:
357,91,72918,1,0,0:0:0:0:
295,247,73086,1,10,0:2:0:0:
394,187,73255,1,2,0:2:0:0:
503,354,73423,6,0,P|433:383|370:328,1,152.999995330811,2|0,1:2|0:0,0:0:0:0:
356,323,73761,1,10,0:2:0:0:
235,384,73929,2,0,P|154:365|57:352,1,152.999995330811,0|0,1:2|0:0,0:0:0:0:
57,363,74266,1,2,1:2:0:0:
103,179,74435,1,8,0:2:0:0:
103,179,74772,5,0,1:2:0:0:
57,363,74940,1,2,0:2:0:0:
18,86,75109,5,10,0:2:0:0:
210,148,75277,1,0,0:0:0:0:
362,18,75446,5,8,0:2:0:0:
362,18,75530,1,0,1:2:0:0:
362,18,75614,1,0,1:2:0:0:
507,240,75783,5,10,0:2:0:0:
461,10,75952,1,2,0:2:0:0:
269,216,76120,6,0,B|331:202|331:202|342:208|342:208|423:190,1,152.999995330811,6|10,1:2|0:2,0:0:0:0:
494,317,76626,2,0,B|435:295|435:295|335:320,1,152.999995330811,0|0,1:2|1:2,0:0:0:0:
231,356,77131,1,10,0:2:0:0:
231,356,77468,6,0,B|168:373|171:312|98:321,1,114.749996498108,0|0,1:2|0:0,0:0:0:0:
102,334,77806,1,8,0:2:0:0:
56,202,77974,1,0,0:0:0:0:
56,202,78480,2,0,L|48:155,2,38.2499988327027,10|2|2,0:2|0:0|0:0,0:0:0:0:
16,16,78817,6,0,B|89:-3|81:71|174:55,1,152.999995330811,2|8,1:2|0:2,0:0:0:0:
289,6,79322,2,0,B|251:40|251:40|282:166,1,152.999995330811,0|0,1:2|1:2,0:0:0:0:
318,255,79828,1,8,0:2:0:0:
318,255,80165,2,0,P|268:269|236:282,1,76.4999976654053,2|2,1:2|0:0,0:0:0:0:
355,178,80502,2,0,P|383:185|396:189,3,38.2499988327027,10|2|2|2,0:2|0:0|0:0|0:0,0:0:0:0:
447,248,80839,6,0,P|473:208|469:158,1,76.4999976654053,2|0,0:0|0:0,0:0:0:0:
420,23,81176,1,10,0:2:0:0:
420,23,81513,6,0,B|343:8|343:8|329:17|329:17|248:4,1,152.999995330811,0|8,1:2|0:2,0:0:0:0:
149,86,82019,2,0,P|223:98|308:114,1,152.999995330811,0|0,1:2|1:2,0:0:0:0:
112,10,82525,1,8,0:2:0:0:
112,10,82862,6,0,P|64:45|80:151,2,152.999995330811,0|8|0,1:2|0:2|0:0,0:0:0:0:
113,201,83704,1,0,0:0:0:0:
74,285,83873,2,0,L|82:332,2,38.2499988327027,10|2|2,0:2|0:0|0:0,0:0:0:0:
141,381,84210,6,0,B|203:363|172:308|278:305,1,152.999995330811,2|8,1:2|0:2,0:0:0:0:
449,371,84716,2,0,P|402:342|387:256,1,114.749996498108,0|0,1:2|0:0,0:0:0:0:
397,267,85053,1,0,1:2:0:0:
286,379,85221,1,8,0:2:0:0:
