osu file format v14

[General]
AudioFilename: audio.mp3
AudioLeadIn: 0
PreviewTime: 54126
Countdown: 0
SampleSet: Soft
StackLeniency: 0.6
Mode: 0
LetterboxInBreaks: 0
WidescreenStoryboard: 1

[Editor]
DistanceSpacing: 1.2
BeatDivisor: 4
GridSize: 4
TimelineZoom: 3.679997

[Metadata]
Title:PIT-A-PAT
TitleUnicode:PIT-A-PAT
Artist:TWICE
ArtistUnicode:트와이스
Creator:Stixy
Version:kvuhlrrie's Hard
Source:
Tags:kpop korean k-pop pop short ver version cut edit jyp entertainment sana jihyo dahyun nayeon jeongyeon chaeyoung momo mina tzuyu 나연 정연 모모 사나 지효 미나 다현 채영 쯔위 twicecoaster: twicecoaster lane1 one pit a pat rosiie nofc kujinn reform enerugi a_r_m_i_n armin kvuhlrrie suyuko
BeatmapID:2306088
BeatmapSetID:1099733

[Difficulty]
HPDrainRate:4
CircleSize:3.5
OverallDifficulty:7
ApproachRate:8
SliderMultiplier:1.52
SliderTickRate:1

[Events]
//Background and Video events
0,0,"bg.jpg",0,0
//Break Periods
//Storyboard Layer 0 (Background)
//Storyboard Layer 1 (Fail)
//Storyboard Layer 2 (Pass)
//Storyboard Layer 3 (Foreground)
//Storyboard Layer 4 (Overlay)
//Storyboard Sound Samples

[TimingPoints]
615,337.078651685393,4,2,1,60,1,0
11401,-102.040816326531,4,2,1,70,0,0
13676,-102.040816326531,4,2,1,70,0,0
13761,-102.040816326531,4,2,1,70,0,0
16373,-102.040816326531,4,2,1,70,0,0
16457,-102.040816326531,4,2,1,70,0,0
19070,-102.040816326531,4,2,1,70,0,0
19154,-102.040816326531,4,2,1,70,0,0
22188,-102.040816326531,4,2,1,70,0,0
23452,-102.040816326531,4,2,1,70,0,0
23536,-102.040816326531,4,2,1,70,0,0
26148,-102.040816326531,4,2,1,70,0,0
26232,-102.040816326531,4,2,1,70,0,0
32974,-113.636363636364,4,2,2,50,0,0
33901,-113.636363636364,4,2,2,50,0,0
33985,-113.636363636364,4,2,2,50,0,0
36598,-113.636363636364,4,2,2,50,0,0
36682,-113.636363636364,4,2,2,50,0,0
40643,-113.636363636364,4,2,2,50,0,0
40727,-113.636363636364,4,2,2,50,0,0
43761,-113.636363636364,4,2,1,60,0,0
48732,-113.636363636364,4,2,1,60,0,0
48817,-113.636363636364,4,2,1,60,0,0
49154,-105.263157894737,4,2,2,60,0,0
49533,-105.263157894737,4,2,1,60,0,0
49575,-105.263157894737,4,2,2,60,0,0
50039,-105.263157894737,4,2,1,60,0,0
50081,-105.263157894737,4,2,2,60,0,0
50544,-105.263157894737,4,2,1,60,0,0
50586,-105.263157894737,4,2,2,60,0,0
51050,-105.263157894737,4,2,1,60,0,0
51092,-105.263157894737,4,2,2,60,0,0
51556,-105.263157894737,4,2,1,60,0,0
51598,-105.263157894737,4,2,2,60,0,0
51850,-105.263157894737,4,2,1,60,0,0
53199,-105.263157894737,4,2,1,40,0,0
53873,-105.263157894737,4,2,1,60,0,0
54547,-88.4955752212389,4,2,1,80,0,1
60193,-88.4955752212389,4,2,1,80,0,1
70980,-88.4955752212389,4,2,1,80,0,1
71064,-88.4955752212389,4,2,1,80,0,1
76120,-102.040816326531,4,2,1,60,0,0
76457,-102.040816326531,4,2,1,60,0,0

[Colours]
Combo1 : 255,183,111
Combo2 : 138,138,255
Combo3 : 255,43,149
Combo4 : 255,125,125

[HitObjects]
3,286,11401,5,4,1:2:0:0:
71,219,11570,1,2,0:2:0:0:
71,219,11738,2,0,P|123:240|160:231,1,74.4799993181152,10|2,0:2|1:2,0:0:0:0:
207,179,12075,2,0,P|249:165|292:178,1,74.4799993181152,2|2,0:2|1:2,0:0:0:0:
337,237,12412,2,0,P|386:246|417:235,1,74.4799993181152,10|2,0:2|0:2,0:0:0:0:
471,149,12749,5,2,1:2:0:0:
471,149,12918,1,2,0:2:0:0:
389,107,13086,2,0,P|348:138|309:146,1,74.4799993181152,10|2,0:2|0:2,0:0:0:0:
285,64,13423,2,0,L|286:230,1,148.95999863623,2|8,0:2|0:2,0:0:0:0:
81,34,14098,5,0,1:2:0:0:
29,106,14266,1,2,0:2:0:0:
29,106,14435,2,0,L|35:193,1,74.4799993181152,10|2,0:2|1:2,0:0:0:0:
122,193,14772,2,0,L|125:290,1,74.4799993181152,2|2,0:2|1:2,0:0:0:0:
39,295,15109,2,0,L|57:381,1,74.4799993181152,10|2,0:2|0:2,0:0:0:0:
156,365,15446,5,2,1:2:0:0:
156,365,15614,1,2,0:2:0:0:
220,303,15783,2,0,P|259:316|307:286,1,74.4799993181152,10|2,0:2|0:2,0:0:0:0:
340,232,16120,2,0,P|374:218|422:224,1,74.4799993181152,2|0,0:2|0:0,0:0:0:0:
475,279,16457,1,10,0:2:0:0:
486,100,16794,5,2,1:2:0:0:
423,35,16963,1,2,0:2:0:0:
423,35,17131,2,0,P|355:8|328:18,1,74.4799993181152,10|2,0:2|1:2,0:0:0:0:
311,84,17468,2,0,P|243:111|216:101,1,74.4799993181152,2|2,0:2|1:2,0:0:0:0:
192,37,17806,2,0,P|124:10|97:20,1,74.4799993181152,10|2,0:2|0:2,0:0:0:0:
65,82,18143,5,2,1:2:0:0:
65,82,18311,1,2,0:2:0:0:
25,162,18480,2,0,L|42:248,1,74.4799993181152,10|2,0:2|0:2,0:0:0:0:
128,207,18817,2,0,L|124:302,1,74.4799993181152,2|0,0:2|0:0,0:0:0:0:
180,351,19154,2,0,P|226:338|270:349,1,74.4799993181152,10|0,0:2|0:0,0:0:0:0:
330,298,19491,5,2,1:2:0:0:
406,344,19659,1,2,0:2:0:0:
406,344,19828,2,0,P|417:307|408:255,1,74.4799993181152,10|2,0:2|1:2,0:0:0:0:
346,212,20165,2,0,P|333:171|336:132,1,74.4799993181152,2|2,0:2|1:2,0:0:0:0:
414,100,20502,2,0,P|421:51|411:12,1,74.4799993181152,10|2,0:2|0:2,0:0:0:0:
320,52,20839,6,0,L|238:51,2,74.4799993181152,2|2|10,1:2|0:2|0:2,0:0:0:0:
414,100,21345,1,2,0:2:0:0:
473,166,21513,2,0,L|465:262,1,74.4799993181152,2|0,0:2|0:0,0:0:0:0:
415,313,21850,2,0,P|364:273|334:270,1,74.4799993181152,8|0,0:2|1:2,0:0:0:0:
378,171,22188,5,4,1:2:0:0:
308,124,22356,1,2,0:2:0:0:
308,124,22525,2,0,P|274:166|239:182,1,74.4799993181152,10|2,0:2|1:2,0:0:0:0:
229,264,22862,2,0,P|194:234|149:227,1,74.4799993181152,2|0,0:2|1:2,0:0:0:0:
98,284,23199,1,10,0:2:0:0:
98,284,23536,6,0,P|41:241|67:155,1,148.95999863623,2|10,1:2|0:2,0:0:0:0:
125,122,24041,1,0,0:0:0:0:
125,122,24210,2,0,L|129:205,1,74.4799993181152,2|0,0:2|0:0,0:0:0:0:
205,242,24547,1,8,0:2:0:0:
205,45,24884,5,0,1:2:0:0:
268,107,25053,1,2,0:2:0:0:
268,107,25221,2,0,L|348:95,1,74.4799993181152,10|2,0:2|1:2,0:0:0:0:
395,167,25558,2,0,L|311:182,1,74.4799993181152,2|0,0:2|1:2,0:0:0:0:
255,243,25895,1,10,0:2:0:0:
255,243,26232,6,0,L|257:343,2,74.4799993181152,2|2|10,1:2|0:2|0:2,0:0:0:0:
219,160,26738,1,2,0:2:0:0:
171,235,26907,2,0,P|133:250|87:234,1,74.4799993181152,2|0,0:2|0:0,0:0:0:0:
47,171,27244,1,10,0:2:0:0:
163,35,27581,6,0,B|199:61|199:61|324:46,1,148.95999863623,2|8,1:2|0:2,0:0:0:0:
366,118,28086,1,2,1:2:0:0:
437,63,28255,2,0,P|482:123|467:205,1,148.95999863623,2|8,0:2|0:2,0:0:0:0:
416,261,28761,1,2,0:2:0:0:
416,261,28929,6,0,P|373:237|331:242,1,74.4799993181152,2|2,1:2|0:2,0:0:0:0:
290,304,29266,2,0,P|249:325|206:315,1,74.4799993181152,10|0,0:2|0:0,0:0:0:0:
170,249,29603,2,0,P|126:233|92:245,1,74.4799993181152,2|0,0:2|0:0,0:0:0:0:
32,181,29940,2,0,P|65:145|76:105,1,74.4799993181152,10|0,0:2|0:0,0:0:0:0:
37,39,30277,6,0,P|89:94|179:84,1,148.95999863623,2|8,1:2|0:2,0:0:0:0:
230,42,30783,1,2,1:2:0:0:
295,102,30952,2,0,L|244:263,1,148.95999863623,2|8,0:2|0:2,0:0:0:0:
160,242,31457,1,2,0:2:0:0:
160,242,31626,6,0,L|187:329,1,74.4799993181152,2|2,1:2|0:2,0:0:0:0:
266,341,31963,1,10,0:2:0:0:
406,230,32300,1,8,0:0:0:0:
376,53,32637,1,8,0:0:0:0:
245,146,32974,5,6,1:2:0:0:
245,146,33143,1,0,1:2:0:0:
188,89,33311,2,0,L|211:238,1,133.760004082031,10|10,0:2|0:2,0:0:0:0:
307,95,33985,2,0,L|332:116,3,33.4400010205078,8|2|2|2,1:2|0:2|0:2|0:2,0:0:0:0:
372,116,34322,6,0,L|452:222,1,133.760004082031,10|8,0:2|1:2,0:0:0:0:
426,63,34997,2,0,P|389:42|346:48,1,66.8800020410157,10|2,0:2|0:2,0:0:0:0:
293,77,35334,2,0,P|261:102|221:102,1,66.8800020410157,8|8,0:2|0:2,0:0:0:0:
177,58,35671,5,10,0:2:0:0:
177,58,35839,1,8,0:2:0:0:
105,93,36008,2,0,L|110:249,1,133.760004082031,10|14,0:2|1:2,0:0:0:0:
223,339,36682,2,0,L|226:291,3,33.4400010205078,10|2|2|2,1:2|0:2|0:2|0:2,0:0:0:0:
257,281,37019,2,0,L|259:133,1,133.760004082031,10|8,0:2|0:2,0:0:0:0:
338,136,37525,2,0,L|337:211,1,66.8800020410157,2|10,0:2|1:2,0:0:0:0:
373,359,38030,2,0,L|440:346,2,44.5866680273438,10|8|8,1:2|1:2|1:2,0:0:0:0:
331,322,38367,6,0,P|282:300|206:326,1,133.760004082031,14|10,1:2|0:2,0:0:0:0:
67,250,39041,2,0,P|129:255|170:217,1,100.320003061524,10|0,0:2|0:0,0:0:0:0:
185,203,39379,2,0,L|224:166,3,33.4400010205078,10|2|2|2,1:2|0:2|0:2|0:2,0:0:0:0:
245,197,39716,2,0,P|313:195|365:123,2,133.760004082031,10|10|10,0:2|0:2|0:2,0:0:0:0:
276,123,40558,1,0,1:2:0:0:
206,83,40727,2,0,L|202:29,3,33.4400010205078,8|8|8|8,0:2|0:2|0:2|0:2,0:0:0:0:
186,13,41064,6,0,L|132:73,1,66.8800020410157,14|0,1:2|0:0,0:0:0:0:
67,95,41401,2,0,L|50:173,1,66.8800020410157,10|0,0:2|0:0,0:0:0:0:
25,236,41738,2,0,L|49:312,1,66.8800020410157,10|0,0:2|0:0,0:0:0:0:
110,346,42075,1,10,1:2:0:0:
110,346,42244,1,2,0:2:0:0:
171,295,42412,2,0,P|201:267|291:290,1,133.760004082031,10|10,0:2|0:2,0:0:0:0:
420,370,43086,1,10,0:2:0:0:
482,222,43423,1,10,0:2:0:0:
482,222,43592,1,2,0:2:0:0:
395,257,43761,6,0,P|354:226|331:121,1,133.760004082031,6|10,1:2|0:2,0:0:0:0:
340,66,44266,1,2,0:2:0:0:
266,99,44435,2,0,L|145:92,1,100.320003061524,2|0,0:2|0:0,0:0:0:0:
130,73,44772,2,0,L|133:124,3,33.4400010205078,2|2|2|2,0:2|0:2|0:2|0:2,0:0:0:0:
99,130,45109,6,0,L|111:206,1,66.8800020410157,2|2,0:2|0:2,0:0:0:0:
180,234,45446,2,0,B|259:205|249:262|339:211,2,133.760004082031,2|2|2,1:2|0:2|1:2,0:0:0:0:
113,279,46289,1,2,0:2:0:0:
40,245,46457,6,0,L|18:96,1,133.760004082031,2|10,0:2|0:2,0:0:0:0:
58,41,46963,1,2,0:2:0:0:
118,93,47131,2,0,P|151:62|221:75,1,100.320003061524,2|0,0:2|0:0,0:0:0:0:
232,91,47468,2,0,P|271:97|291:98,3,33.4400010205078,2|2|2|2,1:2|0:2|0:2|0:2,0:0:0:0:
293,125,47806,6,0,L|369:131,1,66.8800020410157,2|2,0:2|0:2,0:0:0:0:
313,204,48143,2,0,L|235:199,1,66.8800020410157,2|2,0:2|0:2,0:0:0:0:
207,277,48480,2,0,L|297:282,1,66.8800020410157,2|0,0:2|0:0,0:0:0:0:
308,360,48817,2,0,L|241:357,2,44.5866680273438,0|0|0,1:2|1:2|1:2,0:0:0:0:
363,351,49154,6,0,P|389:319|393:278,1,72.1999980720521,10|8,0:2|0:2,0:0:0:0:
498,258,49491,2,0,P|461:213|452:173,1,72.1999980720521,10|8,0:0|0:0,0:0:0:0:
365,195,49828,2,0,P|394:135|394:106,1,72.1999980720521,10|8,0:0|0:0,0:0:0:0:
328,53,50165,2,0,L|281:52,3,36.099999036026,10|2|10|2,0:2|0:2|0:2|0:2,0:0:0:0:
253,24,50502,6,0,L|154:22,1,72.1999980720521,10|8,0:2|0:2,0:0:0:0:
197,119,50839,1,10,0:2:0:0:
197,119,51008,2,0,L|97:116,1,72.1999980720521,10|8,0:2|0:2,0:0:0:0:
133,214,51345,1,10,0:2:0:0:
133,214,51513,2,0,L|34:210,1,72.1999980720521,8|8,0:2|0:2,0:0:0:0:
35,301,51850,6,0,L|101:303,3,36.099999036026,8|2|10|2,0:2|0:2|0:2|0:2,0:0:0:0:
109,330,52188,2,0,L|175:332,3,36.099999036026,8|2|10|2,0:2|0:2|0:2|0:2,0:0:0:0:
183,302,52525,2,0,L|249:304,3,36.099999036026,8|2|10|2,0:2|0:2|0:2|0:2,0:0:0:0:
254,335,52863,2,0,L|290:337,3,36.099999036026,8|2|10|2,0:2|0:2|0:2|0:2,0:0:0:0:
256,192,53199,12,0,54210,0:0:0:0:
68,89,54547,6,0,L|88:266,1,171.76000052417,6|10,1:2|0:2,0:0:0:0:
179,306,55053,1,2,1:2:0:0:
255,237,55221,2,0,P|294:212|343:227,1,85.880000262085,2|0,0:2|1:2,0:0:0:0:
414,284,55558,1,10,0:2:0:0:
414,284,55727,1,2,0:2:0:0:
488,209,55895,6,0,P|496:135|454:90,1,128.820000393127,2|0,1:2|0:0,0:0:0:0:
412,101,56232,2,0,P|379:131|339:132,1,85.880000262085,10|0,0:2|0:0,0:0:0:0:
245,88,56570,2,0,L|264:182,1,85.880000262085,2|2,0:2|0:2,0:0:0:0:
354,218,56907,1,10,0:2:0:0:
284,349,57075,6,0,P|205:305|103:338,1,171.76000052417,2|2,0:2|0:2,0:0:0:0:
29,291,57581,2,0,B|5:252|5:252|28:100,1,171.76000052417,8|0,0:2|0:0,0:0:0:0:
123,154,58086,1,2,1:2:0:0:
217,111,58255,2,0,L|216:21,1,85.880000262085,8|2,0:2|0:2,0:0:0:0:
327,133,58592,6,0,P|349:175|338:223,1,85.880000262085,0|0,1:2|0:0,0:0:0:0:
342,303,58929,2,0,P|295:289|254:306,1,85.880000262085,8|0,0:2|0:0,0:0:0:0:
220,375,59266,2,0,P|163:377|123:340,1,85.880000262085,0|2,0:0|0:2,0:0:0:0:
82,284,59603,1,10,0:2:0:0:
82,284,59772,1,2,0:2:0:0:
200,220,59940,6,0,P|287:232|341:170,1,171.76000052417,6|10,1:2|0:2,0:0:0:0:
238,84,60446,1,0,1:2:0:0:
143,75,60614,2,0,P|108:115|116:161,1,85.880000262085,2|0,0:2|1:2,0:0:0:0:
132,251,60952,1,10,0:2:0:0:
132,251,61289,6,0,P|44:244|13:145,2,171.76000052417,2|10|2,1:2|0:2|0:2,0:0:0:0:
186,338,62131,1,0,0:0:0:0:
244,252,62300,1,10,0:2:0:0:
301,337,62468,2,0,P|346:356|388:344,1,85.880000262085,2|2,0:2|1:2,0:0:0:0:
366,245,62806,1,2,0:2:0:0:
458,277,62974,2,0,L|464:172,1,85.880000262085,10|0,0:2|1:2,0:0:0:0:
421,96,63311,2,0,P|362:131|323:121,1,85.880000262085,0|2,0:0|1:2,0:0:0:0:
277,54,63648,1,8,0:2:0:0:
213,135,63817,6,0,L|219:233,1,85.880000262085,2|0,0:2|1:2,0:0:0:0:
320,209,64154,1,2,0:2:0:0:
320,209,64322,2,0,L|315:301,1,85.880000262085,10|0,0:2|0:0,0:0:0:0:
240,366,64659,2,0,P|197:333|148:332,1,85.880000262085
75,377,64997,1,10,0:2:0:0:
75,377,65165,1,2,0:2:0:0:
25,267,65334,6,0,L|16:69,1,171.76000052417,6|10,1:2|0:2,0:0:0:0:
93,26,65839,1,2,1:2:0:0:
157,100,66008,2,0,P|221:117|258:92,1,85.880000262085,2|0,0:2|1:2,0:0:0:0:
303,32,66345,1,10,0:2:0:0:
303,32,66513,1,2,0:2:0:0:
385,94,66682,6,0,L|392:236,1,128.820000393127,2|0,1:2|0:0,0:0:0:0:
365,267,67019,2,0,P|328:245|286:249,1,85.880000262085,10|0,0:2|0:0,0:0:0:0:
207,310,67356,2,0,P|160:327|113:297,1,85.880000262085,2|2,0:2|0:2,0:0:0:0:
138,211,67693,1,10,0:2:0:0:
1,233,67862,6,0,P|-24:140|18:49,1,171.76000052417,2|2,0:2|0:2,0:0:0:0:
114,20,68367,2,0,B|214:14|171:83|295:58,1,171.76000052417,8|0,0:2|0:0,0:0:0:0:
337,1,68873,1,2,1:2:0:0:
422,58,69041,2,0,P|421:103|380:150,1,85.880000262085,8|2,0:2|0:2,0:0:0:0:
296,133,69379,6,0,L|327:233,1,85.880000262085,0|0,1:2|0:0,0:0:0:0:
423,217,69716,2,0,L|391:326,1,85.880000262085,8|0,0:2|0:0,0:0:0:0:
299,293,70053,1,0,0:0:0:0:
299,293,70221,1,2,0:2:0:0:
226,367,70390,2,0,L|127:356,1,85.880000262085,10|2,0:2|0:2,0:0:0:0:
48,298,70727,6,0,P|87:237|74:118,1,171.76000052417,6|10,1:2|0:2,0:0:0:0:
140,54,71232,1,0,1:2:0:0:
224,113,71401,2,0,P|211:148|226:209,1,85.880000262085,2|0,0:2|1:2,0:0:0:0:
320,204,71738,2,0,P|330:141|316:104,1,85.880000262085,10|0,0:2|0:0,0:0:0:0:
267,34,72075,6,0,B|367:3|345:73|446:26,2,171.76000052417,2|10|2,1:2|0:2|0:2,0:0:0:0:
231,131,72918,1,0,0:0:0:0:
306,201,73086,2,0,P|367:213|403:191,1,85.880000262085,10|2,0:2|0:2,0:0:0:0:
431,111,73423,6,0,L|421:290,1,171.76000052417,2|10,1:2|0:2,0:0:0:0:
356,358,73929,2,0,P|268:313|180:356,1,171.76000052417,0|2,1:2|1:2,0:0:0:0:
212,230,74435,1,8,0:2:0:0:
37,120,74772,6,0,P|86:136|124:121,1,85.880000262085,0|2,1:2|0:2,0:0:0:0:
175,40,75109,2,0,P|219:19|266:33,1,85.880000262085,10|0,0:2|0:0,0:0:0:0:
318,106,75446,1,8,0:2:0:0:
318,106,75530,1,0,1:2:0:0:
318,106,75614,1,0,1:2:0:0:
394,175,75783,2,0,P|424:131|420:76,1,85.880000262085,10|2,0:2|0:2,0:0:0:0:
466,19,76120,6,0,L|476:187,1,148.95999863623,6|10,1:2|0:2,0:0:0:0:
474,257,76626,2,0,P|416:302|342:265,1,148.95999863623,0|0,1:2|1:2,0:0:0:0:
311,357,77131,1,10,0:2:0:0:
183,231,77468,6,0,L|189:384,1,148.95999863623,0|8,1:2|0:2,0:0:0:0:
107,343,77974,1,0,0:0:0:0:
40,83,78480,2,0,L|31:20,2,37.2399996590576,10|2|2,0:2|0:0|0:0,0:0:0:0:
101,147,78817,6,0,P|140:125|235:157,1,148.95999863623,2|8,1:2|0:2,0:0:0:0:
319,177,79322,2,0,P|270:150|184:222,1,148.95999863623,0|0,1:2|1:2,0:0:0:0:
264,242,79828,1,8,0:2:0:0:
426,315,80165,5,2,1:2:0:0:
426,315,80334,1,2,0:0:0:0:
479,243,80502,2,0,L|500:293,2,37.2399996590576,10|2|2,0:2|0:0|0:0,0:0:0:0:
391,223,80839,2,0,P|382:177|399:137,1,74.4799993181152,2|0,0:0|0:0,0:0:0:0:
470,112,81176,2,0,P|471:65|457:35,1,74.4799993181152,10|0,0:2|0:0,0:0:0:0:
374,15,81513,6,0,P|312:59|217:42,1,148.95999863623,0|8,1:2|0:2,0:0:0:0:
204,136,82019,2,0,P|264:110|347:150,1,148.95999863623,0|0,1:2|1:2,0:0:0:0:
267,194,82525,1,8,0:2:0:0:
152,331,82862,5,0,1:2:0:0:
14,216,83199,2,0,P|-5:141|45:77,1,148.95999863623,8|0,0:2|0:0,0:0:0:0:
82,158,83704,1,0,0:0:0:0:
163,119,83873,2,0,L|164:181,2,37.2399996590576,10|2|2,0:2|0:0|0:0,0:0:0:0:
200,195,84210,6,0,P|246:167|334:207,1,148.95999863623,2|8,1:2|0:2,0:0:0:0:
400,252,84716,2,0,P|343:189|349:111,1,148.95999863623,0|0,1:2|1:2,0:0:0:0:
402,63,85221,1,8,0:2:0:0:
