osu file format v14

[General]
AudioFilename: audio.mp3
AudioLeadIn: 0
PreviewTime: 54126
Countdown: 0
SampleSet: Soft
StackLeniency: 0.3
Mode: 0
LetterboxInBreaks: 0
WidescreenStoryboard: 1

[Editor]
Bookmarks: 11401,22188,32974,43761
DistanceSpacing: 1.4
BeatDivisor: 8
GridSize: 16
TimelineZoom: 3.079998

[Metadata]
Title:PIT-A-PAT
TitleUnicode:PIT-A-PAT
Artist:TWICE
ArtistUnicode:트와이스
Creator:Stixy
Version:Rosiie's Extra
Source:
Tags:kpop korean k-pop pop short ver version cut edit jyp entertainment sana jihyo dahyun nayeon jeongyeon chaeyoung momo mina tzuyu 나연 정연 모모 사나 지효 미나 다현 채영 쯔위 twicecoaster: twicecoaster lane1 one pit a pat rosiie nofc kujinn reform enerugi a_r_m_i_n armin kvuhlrrie suyuko
BeatmapID:2298120
BeatmapSetID:1099733

[Difficulty]
HPDrainRate:5.2
CircleSize:3.6
OverallDifficulty:8.4
ApproachRate:9.2
SliderMultiplier:2
SliderTickRate:1

[Events]
//Background and Video events
0,0,"bg.jpg",0,0
//Break Periods
//Storyboard Layer 0 (Background)
//Storyboard Layer 1 (Fail)
//Storyboard Layer 2 (Pass)
//Storyboard Layer 3 (Foreground)
//Storyboard Layer 4 (Overlay)
//Storyboard Sound Samples

[TimingPoints]
615,337.078651685393,4,2,1,60,1,0
11401,-125,4,2,1,70,0,0
13676,-125,4,2,1,5,0,0
13761,-125,4,2,1,70,0,0
27497,-125,4,2,1,5,0,0
27581,-125,4,2,1,70,0,0
32974,-142.857142857143,4,2,2,50,0,0
33901,-142.857142857143,4,2,2,5,0,0
33985,-142.857142857143,4,2,2,50,0,0
43761,-117.647058823529,4,2,1,60,0,0
49154,-117.647058823529,4,2,2,60,0,0
49533,-117.647058823529,4,2,1,60,0,0
49575,-117.647058823529,4,2,2,60,0,0
50039,-117.647058823529,4,2,1,60,0,0
50081,-117.647058823529,4,2,2,60,0,0
50544,-117.647058823529,4,2,1,60,0,0
50586,-117.647058823529,4,2,2,60,0,0
51050,-117.647058823529,4,2,1,60,0,0
51092,-117.647058823529,4,2,2,60,0,0
51556,-117.647058823529,4,2,1,60,0,0
51598,-117.647058823529,4,2,2,60,0,0
51850,-117.647058823529,4,2,1,60,0,0
53199,-117.647058823529,4,2,1,40,0,0
53873,-117.647058823529,4,2,1,60,0,0
54547,-100,4,2,1,80,0,1
76120,-111.111111111111,4,2,1,60,0,0

[Colours]
Combo1 : 255,183,111
Combo2 : 138,138,255
Combo3 : 255,43,149
Combo4 : 255,125,125

[HitObjects]
100,114,11401,5,4,1:2:0:0:
29,273,11570,1,2,0:2:0:0:
182,219,11738,1,10,0:2:0:0:
4,120,11907,1,2,1:2:0:0:
210,56,12075,2,0,P|199:86|188:141,1,80,2|2,0:2|1:2,0:0:0:0:
344,235,12412,2,0,P|336:195|322:158,1,80,10|2,0:2|0:2,0:0:0:0:
263,319,12749,5,2,1:2:0:0:
420,200,12918,1,2,0:2:0:0:
242,171,13086,1,10,0:2:0:0:
371,321,13255,1,2,0:2:0:0:
512,166,13423,2,0,P|495:223|484:282,1,120,2|0,0:2|0:0,0:0:0:0:
484,327,13761,1,8,0:2:0:0:
246,93,14098,5,0,1:2:0:0:
146,219,14266,1,2,0:2:0:0:
78,100,14435,1,10,0:2:0:0:
248,203,14603,1,2,1:2:0:0:
61,283,14772,2,0,P|50:244|36:207,1,80,2|2,0:2|1:2,0:0:0:0:
211,332,15109,2,0,P|177:353|138:354,1,80,10|2,0:2|0:2,0:0:0:0:
362,227,15446,5,2,1:2:0:0:
431,378,15614,1,2,0:2:0:0:
277,276,15783,1,10,0:2:0:0:
444,205,15952,1,2,0:2:0:0:
254,109,16120,2,0,P|263:147|270:187,1,80,2|0,0:2|0:0,0:0:0:0:
444,205,16457,2,0,P|451:165|460:126,1,80,10|0,0:2|0:0,0:0:0:0:
337,34,16794,5,2,1:2:0:0:
270,187,16963,1,2,0:2:0:0:
181,61,17131,1,10,0:2:0:0:
356,134,17300,1,2,1:2:0:0:
194,241,17468,2,0,P|185:202|173:163,1,80,2|2,0:2|1:2,0:0:0:0:
376,56,17806,2,0,P|364:94|355:133,1,80,10|2,0:2|0:2,0:0:0:0:
411,303,18143,5,2,1:2:0:0:
306,193,18311,1,2,0:2:0:0:
241,327,18480,1,10,0:2:0:0:
398,219,18648,1,2,0:2:0:0:
225,149,18817,2,0,P|186:138|148:150,1,80,2|0,0:2|0:0,0:0:0:0:
44,299,19154,2,0,P|36:259|25:221,1,80,10|0,0:2|0:0,0:0:0:0:
135,62,19491,5,2,1:2:0:0:
224,228,19659,1,2,0:2:0:0:
312,80,19828,1,10,0:2:0:0:
148,150,19997,1,2,1:2:0:0:
308,267,20165,2,0,P|351:258|388:251,1,80,2|2,0:2|1:2,0:0:0:0:
312,80,20502,2,0,P|272:71|233:64,1,80,10|2,0:2|0:2,0:0:0:0:
106,3,20839,5,2,1:2:0:0:
172,161,21008,1,2,0:2:0:0:
19,94,21176,1,10,0:2:0:0:
217,24,21345,1,2,0:2:0:0:
78,182,21513,2,0,P|68:228|60:276,1,80,2|0,0:2|0:0,0:0:0:0:
280,187,21850,2,0,P|272:147|264:108,1,80,8|0,0:2|1:2,0:0:0:0:
226,321,22188,5,4,1:2:0:0:
364,213,22356,1,2,0:2:0:0:
196,166,22525,1,10,0:2:0:0:
330,339,22693,1,2,1:2:0:0:
410,133,22862,2,0,P|453:122|508:118,1,80,2|0,0:2|1:2,0:0:0:0:
280,263,23199,2,0,P|237:252|182:248,1,80,10|0,0:2|0:0,0:0:0:0:
128,46,23536,6,0,P|112:86|104:132,1,80,2|0,1:2|0:0,0:0:0:0:
329,191,23873,2,0,P|320:151|305:114,1,80,10|0,0:2|0:0,0:0:0:0:
228,320,24210,1,2,0:2:0:0:
403,247,24379,1,0,0:0:0:0:
230,141,24547,2,0,B|268:125|305:114,1,80,8|0,0:2|0:0,0:0:0:0:
473,48,24884,5,0,1:2:0:0:
348,185,25053,1,2,0:2:0:0:
258,19,25221,2,0,P|312:23|351:31,1,80,10|2,0:2|1:2,0:0:0:0:
151,87,25558,2,0,P|133:51|136:12,1,80,2|0,0:2|1:2,0:0:0:0:
295,108,25895,2,0,P|280:145|268:183,1,80,10|0,0:2|0:0,0:0:0:0:
183,329,26232,5,2,1:2:0:0:
334,245,26401,1,2,0:2:0:0:
186,174,26570,1,10,0:2:0:0:
280,329,26738,1,2,0:2:0:0:
383,153,26907,2,0,P|421:142|460:149,1,80,2|0,0:2|0:0,0:0:0:0:
280,238,27244,2,0,P|271:186|244:100,1,120,10|0,0:2|0:0,0:0:0:0:
217,83,27581,6,0,P|180:69|135:83,1,80,2|0,1:2|0:0,0:0:0:0:
1,177,27918,1,8,0:2:0:0:
70,40,28086,1,2,1:2:0:0:
170,159,28255,2,0,P|156:207|148:254,1,80,2|0,0:2|1:2,0:0:0:0:
248,46,28592,1,8,0:2:0:0:
334,171,28761,1,2,0:2:0:0:
428,37,28929,6,0,P|468:24|508:36,1,80,2|2,1:2|0:2,0:0:0:0:
334,171,29266,2,0,P|325:118|312:74,1,80,10|0,0:2|0:0,0:0:0:0:
492,176,29603,1,2,0:2:0:0:
423,289,29772,1,0,0:0:0:0:
334,171,29940,2,0,P|295:160|258:171,1,80,10|0,0:2|0:0,0:0:0:0:
166,313,30277,6,0,P|157:273|147:235,1,80,2|0,1:2|0:0,0:0:0:0:
78,107,30614,1,8,0:2:0:0:
19,212,30783,1,2,1:2:0:0:
172,120,30952,2,0,P|213:106|259:124,1,80,2|0,0:2|1:2,0:0:0:0:
401,192,31289,1,8,0:2:0:0:
326,38,31457,1,2,0:2:0:0:
245,205,31626,5,2,1:2:0:0:
444,96,31794,1,2,0:2:0:0:
237,13,31963,2,0,P|192:7|137:5,1,80,10|0,0:2|0:0,0:0:0:0:
38,121,32300,2,0,L|32:96,2,26.6666666666667,10|8|8,0:0|0:0|0:0,0:0:0:0:
166,173,32637,2,0,L|173:148,3,26.6666666666667,8|8|8|8,0:0|0:0|0:0|0:0,0:0:0:0:
324,89,32974,6,0,P|309:130|289:233,1,139.999995727539,6|10,1:2|0:2,0:0:0:0:
166,173,33648,2,0,P|181:214|195:284,1,104.999996795654,10|0,0:2|0:0,0:0:0:0:
144,358,33985,1,10,1:2:0:0:
144,358,34070,1,2,0:2:0:0:
144,358,34154,1,2,0:2:0:0:
144,358,34238,1,2,0:2:0:0:
144,358,34322,6,0,P|96:371|13:332,1,139.999995727539,10|8,0:2|1:2,0:0:0:0:
36,149,34997,2,0,P|50:190|55:225,1,69.9999978637696,10|2,0:2|0:2,0:0:0:0:
166,253,35334,2,0,L|173:227,7,17.4999994659424,10|0|8|0|10|0|8|0,0:2|0:0|0:2|0:0|0:2|0:0|0:2|0:0,0:0:0:0:
207,189,35671,6,0,P|244:184|289:175,1,69.9999978637696,10|8,0:2|0:2,0:0:0:0:
366,73,36008,2,0,P|329:68|284:59,1,69.9999978637696,10|0,0:2|0:0,0:0:0:0:
425,228,36345,2,0,P|439:199|456:162,1,69.9999978637696,14|0,1:2|0:0,0:0:0:0:
331,310,36682,1,10,1:2:0:0:
331,310,36766,1,2,0:2:0:0:
331,310,36850,1,2,0:2:0:0:
331,310,36935,1,2,0:2:0:0:
331,309,37019,6,0,P|266:331|211:292,1,139.999995727539,10|8,0:2|0:2,0:0:0:0:
151,190,37525,1,2,0:2:0:0:
262,114,37693,2,0,P|274:148|280:182,1,69.9999978637696,10|0,1:2|0:0,0:0:0:0:
173,67,38030,1,10,1:2:0:0:
249,15,38143,2,0,L|257:53,2,23.3333326212565,8|2|8,1:2|1:2|1:2,0:0:0:0:
380,132,38367,6,0,P|391:80|426:-9,1,139.999995727539,14|10,1:2|0:2,0:0:0:0:
508,205,39041,2,0,P|502:170|495:136,1,69.9999978637696,10|0,0:2|0:0,0:0:0:0:
411,263,39379,1,10,1:2:0:0:
411,263,39463,1,2,0:2:0:0:
411,263,39547,1,2,0:2:0:0:
411,263,39631,1,2,0:2:0:0:
411,262,39716,6,0,P|349:292|282:277,1,139.999995727539,10|2,0:2|1:2,0:0:0:0:
199,170,40390,1,10,0:2:0:0:
292,103,40558,1,0,1:2:0:0:
179,40,40727,2,0,L|186:65,7,17.4999994659424,8|0|8|0|8|0|8|0,0:2|0:0|0:2|0:0|0:2|0:0|0:2|0:0,0:0:0:0:
140,97,41064,6,0,P|103:93|58:83,1,69.9999978637696,14|0,1:2|0:0,0:0:0:0:
5,201,41401,2,0,P|39:198|74:191,1,69.9999978637696,10|0,0:2|0:0,0:0:0:0:
147,306,41738,2,0,P|112:303|77:296,1,69.9999978637696,10|0,0:2|0:0,0:0:0:0:
198,217,42075,1,10,1:2:0:0:
261,340,42244,1,2,0:2:0:0:
366,215,42412,6,0,P|412:192|501:212,1,139.999995727539,10|10,0:2|0:2,0:0:0:0:
441,295,43086,2,0,L|436:318,3,23.3333326212565,10|0|0|0,0:2|0:0|0:0|0:0,0:0:0:0:
281,225,43423,2,0,L|286:248,3,23.3333326212565,10|0|0|2,0:2|0:0|0:0|0:2,0:0:0:0:
446,90,43761,6,0,P|429:127|409:188,1,85.0000016212464,6|0,1:2|1:2,0:0:0:0:
334,24,44098,1,10,0:2:0:0:
272,139,44266,1,2,0:2:0:0:
167,20,44435,2,0,P|125:10|85:21,1,85.0000016212464,2|8,0:2|0:2,0:0:0:0:
29,134,44772,1,2,0:2:0:0:
29,134,44856,1,2,0:2:0:0:
29,134,44940,1,2,0:2:0:0:
29,134,45025,1,2,0:2:0:0:
29,134,45109,6,0,B|43:171|51:215,1,85.0000016212464,2|2,0:2|0:2,0:0:0:0:
201,193,45446,2,0,B|187:230|178:274,1,85.0000016212464,2|0,1:2|0:0,0:0:0:0:
10,330,45783,2,0,P|51:323|91:307,1,85.0000016212464,2|0,0:2|0:0,0:0:0:0:
201,193,46120,1,2,1:2:0:0:
274,312,46289,1,2,0:2:0:0:
375,176,46457,6,0,P|418:163|461:154,1,85.0000016212464,2|0,0:2|0:0,0:0:0:0:
368,274,46794,1,10,0:2:0:0:
288,138,46963,1,2,0:2:0:0:
183,279,47131,2,0,P|140:266|97:257,1,85.0000016212464,2|8,0:2|0:2,0:0:0:0:
169,96,47468,1,2,1:2:0:0:
169,96,47553,1,2,0:2:0:0:
169,96,47637,1,2,0:2:0:0:
169,96,47721,1,2,0:2:0:0:
169,96,47806,6,0,P|202:64|251:62,1,85.0000016212464,2|2,0:2|0:2,0:0:0:0:
382,135,48143,2,0,P|403:89|411:55,1,85.0000016212464,2|2,0:2|0:2,0:0:0:0:
231,166,48480,2,0,P|241:207|259:245,1,85.0000016212464,2|0,0:2|0:0,0:0:0:0:
376,334,48817,2,0,P|386:296|403:259,2,56.6666677474976,0|0|0,1:2|1:2|1:2,0:0:0:0:
184,277,49154,5,10,0:2:0:0:
374,176,49322,1,8,0:2:0:0:
173,70,49491,1,10,0:2:0:0:
289,273,49659,1,8,0:2:0:0:
377,67,49828,1,10,0:2:0:0:
165,165,49997,1,8,0:2:0:0:
432,284,50165,1,10,0:2:0:0:
432,284,50249,1,2,0:2:0:0:
432,284,50334,2,0,P|437:261|446:232,1,42.5000008106232,10|2,0:2|0:2,0:0:0:0:
271,75,50502,5,10,0:2:0:0:
161,295,50671,1,8,0:2:0:0:
367,177,50839,1,10,0:2:0:0:
121,82,51008,1,10,0:2:0:0:
273,319,51176,1,8,0:2:0:0:
384,77,51345,1,10,0:2:0:0:
78,212,51513,1,8,0:2:0:0:
375,317,51682,1,8,0:2:0:0:
271,75,51850,5,10,0:2:0:0:
271,75,51935,1,2,0:2:0:0:
271,75,52019,2,0,P|261:99|256:133,1,42.5000008106232,10|2,0:2|0:2,0:0:0:0:
78,212,52188,1,10,0:2:0:0:
78,212,52273,1,2,0:2:0:0:
78,212,52357,2,0,P|74:192|69:171,1,42.5000008106232,10|2,0:2|0:2,0:0:0:0:
322,224,52525,1,10,0:2:0:0:
322,224,52610,1,2,0:2:0:0:
322,224,52694,2,0,P|312:248|307:282,1,42.5000008106232,10|2,0:2|0:2,0:0:0:0:
129,361,52863,1,8,0:2:0:0:
129,361,52946,1,2,0:2:0:0:
129,361,53030,2,0,P|124:340|119:319,1,42.5000008106232,10|2,0:2|0:2,0:0:0:0:
249,142,53199,6,0,L|257:114,12,28.3333338737488,8|8|8|8|8|8|8|8|8|8|8|8|0,0:0|0:0|0:0|0:0|0:0|0:0|0:0|0:0|0:0|0:0|0:0|0:0|0:0,0:0:0:0:
429,331,54154,2,0,P|443:289|467:250,1,85.0000016212464,2|2,0:0|0:0,0:0:0:0:
325,77,54547,6,0,P|343:124|352:173,1,100,6|0,1:2|0:0,0:0:0:0:
280,275,54884,1,10,0:2:0:0:
435,171,55053,1,2,1:2:0:0:
250,44,55221,2,0,P|201:30|146:49,1,100,2|0,0:2|1:2,0:0:0:0:
62,239,55558,1,10,0:2:0:0:
218,139,55727,1,2,0:2:0:0:
23,37,55895,6,0,P|41:88|52:138,1,100,2|0,1:2|0:0,0:0:0:0:
224,301,56232,2,0,P|235:252|252:205,1,100,10|0,0:2|0:0,0:0:0:0:
373,81,56570,1,2,0:2:0:0:
444,240,56738,1,2,0:2:0:0:
271,159,56907,1,10,0:2:0:0:
491,68,57075,6,0,P|472:111|463:168,1,100,2|0,0:2|1:2,0:0:0:0:
354,4,57412,1,2,0:2:0:0:
271,159,57581,2,0,P|290:202|299:259,1,100,8|0,0:2|1:2,0:0:0:0:
382,102,57918,1,0,0:0:0:0:
186,236,58086,1,2,1:2:0:0:
260,61,58255,1,8,0:2:0:0:
406,211,58423,1,2,0:2:0:0:
171,118,58592,5,0,1:2:0:0:
290,309,58761,1,0,0:0:0:0:
360,102,58929,1,8,0:2:0:0:
154,228,59098,1,0,0:0:0:0:
386,317,59266,1,0,0:0:0:0:
259,115,59435,1,2,0:2:0:0:
152,338,59603,1,10,0:2:0:0:
375,209,59772,1,2,0:2:0:0:
96,98,59940,6,0,P|113:144|122:193,1,100,6|0,1:2|0:2,0:0:0:0:
375,115,60277,2,0,P|383:65|401:18,1,100,10|0,0:2|1:2,0:0:0:0:
242,256,60614,1,2,0:2:0:0:
375,115,60783,1,0,1:2:0:0:
189,62,60952,2,0,P|143:54|94:76,1,100,10|0,0:2|0:0,0:0:0:0:
376,241,61289,6,0,P|358:287|350:336,1,100,2|0,1:2|0:0,0:0:0:0:
120,170,61626,2,0,P|112:120|94:74,1,100,10|0,0:2|0:0,0:0:0:0:
193,341,61963,2,0,P|144:349|101:326,1,100,2|0,0:2|0:0,0:0:0:0:
277,133,62300,1,10,0:2:0:0:
380,322,62468,1,2,0:2:0:0:
146,204,62637,5,2,1:2:0:0:
375,122,62806,1,2,0:2:0:0:
197,18,62974,2,0,P|182:65|171:114,1,100,10|0,0:2|1:2,0:0:0:0:
238,276,63311,1,0,0:0:0:0:
40,133,63480,2,0,P|55:180|66:229,1,100,2|8,1:2|0:2,0:0:0:0:
149,350,63817,1,2,0:2:0:0:
290,135,63985,5,0,1:2:0:0:
393,332,64154,1,2,0:2:0:0:
171,209,64322,1,10,0:2:0:0:
417,140,64491,1,0,0:0:0:0:
287,349,64659,1,0,0:0:0:0:
196,108,64828,1,0,0:0:0:0:
377,308,64997,1,10,0:2:0:0:
490,75,65165,1,2,0:2:0:0:
233,266,65334,6,0,P|179:286|125:269,1,100,6|0,1:2|0:0,0:0:0:0:
287,73,65671,1,10,0:2:0:0:
377,217,65839,1,2,1:2:0:0:
144,87,66008,2,0,P|161:139|169:187,1,100,2|0,0:2|1:2,0:0:0:0:
320,302,66345,1,10,0:2:0:0:
168,183,66513,1,2,0:2:0:0:
383,78,66682,6,0,P|434:65|487:57,1,100,2|0,1:2|0:0,0:0:0:0:
417,322,67019,2,0,P|366:309|313:301,1,100,10|0,0:2|0:0,0:0:0:0:
123,171,67356,1,2,0:2:0:0:
210,340,67525,1,2,0:2:0:0:
311,188,67693,1,10,0:2:0:0:
95,337,67862,6,0,P|83:280|61:223,1,100,2|0,0:2|1:2,0:0:0:0:
209,141,68199,1,2,0:2:0:0:
360,356,68367,2,0,P|369:306|385:259,1,100,8|0,0:2|1:2,0:0:0:0:
321,91,68704,1,0,0:0:0:0:
219,242,68873,1,2,1:2:0:0:
408,126,69041,1,8,0:2:0:0:
207,42,69210,1,2,0:2:0:0:
311,224,69379,5,0,1:2:0:0:
414,31,69547,1,0,0:0:0:0:
189,134,69716,1,8,0:2:0:0:
414,237,69884,1,0,0:0:0:0:
197,325,70053,1,0,0:0:0:0:
301,129,70221,1,2,0:2:0:0:
408,322,70390,1,10,0:2:0:0:
164,216,70558,1,2,0:2:0:0:
400,58,70727,6,0,P|412:106|420:155,1,100,6|0,1:2|0:2,0:0:0:0:
130,315,71064,2,0,P|137:265|150:217,1,100,10|0,0:2|1:2,0:0:0:0:
245,55,71401,2,0,P|196:44|149:59,1,100,2|0,0:2|1:2,0:0:0:0:
338,256,71738,2,0,P|386:263|427:237,1,100,10|0,0:2|0:0,0:0:0:0:
177,184,72075,6,0,P|192:231|200:280,1,100,2|0,1:2|0:0,0:0:0:0:
437,153,72412,2,0,P|444:103|461:56,1,100,10|0,0:2|0:0,0:0:0:0:
369,332,72749,1,2,0:2:0:0:
253,142,72918,1,0,0:0:0:0:
139,336,73086,1,10,0:2:0:0:
330,205,73255,1,2,0:2:0:0:
90,91,73423,5,2,1:2:0:0:
320,7,73592,2,0,P|305:57|291:123,1,100,2|10,0:2|0:2,0:0:0:0:
106,206,73929,2,0,P|94:157|80:109,1,100,0|0,1:2|0:0,0:0:0:0:
221,327,74266,1,2,1:2:0:0:
341,173,74435,2,0,P|387:156|436:165,1,100,8|2,0:2|0:2,0:0:0:0:
343,319,74772,5,0,1:2:0:0:
236,124,74940,1,2,0:2:0:0:
120,321,75109,1,10,0:2:0:0:
341,173,75277,1,0,0:0:0:0:
106,106,75446,1,8,0:2:0:0:
106,106,75530,1,0,1:2:0:0:
106,106,75614,1,0,1:2:0:0:
228,289,75783,1,10,0:2:0:0:
337,84,75952,1,2,0:2:0:0:
53,236,76120,6,0,P|42:192|29:149,1,89.9999972534181,6|2,1:2|0:2,0:0:0:0:
109,13,76457,1,10,0:2:0:0:
221,184,76626,2,0,P|231:130|266:5,1,179.999994506836,0|0,1:2|1:2,0:0:0:0:
426,93,77131,2,0,P|378:112|325:106,1,89.9999972534181,10|0,0:2|0:0,0:0:0:0:
427,228,77468,6,0,P|475:247|528:241,1,89.9999972534181,0|0,1:2|0:0,0:0:0:0:
340,110,77806,1,8,0:2:0:0:
233,259,77974,2,0,P|210:171|181:86,1,179.999994506836
361,22,78480,2,0,P|347:64|339:109,1,89.9999972534181,10|2,0:2|0:0,0:0:0:0:
426,246,78817,6,0,P|386:265|341:263,1,89.9999972534181,2|2,1:2|0:0,0:0:0:0:
245,180,79154,1,8,0:2:0:0:
119,315,79322,2,0,P|109:226|80:141,1,179.999994506836,0|0,1:2|1:2,0:0:0:0:
204,41,79828,2,0,P|187:84|178:142,1,89.9999972534181,8|0,0:2|0:0,0:0:0:0:
289,211,80165,5,2,1:2:0:0:
378,104,80334,1,2,0:0:0:0:
467,218,80502,2,0,L|451:267,3,44.999998626709,10|2|2|2,0:2|0:0|0:0|0:0,0:0:0:0:
378,104,80839,2,0,P|390:61|409:17,1,89.9999972534181,2|0,0:0|0:0,0:0:0:0:
289,211,81176,2,0,P|277:168|258:124,1,89.9999972534181,10|0,0:2|0:0,0:0:0:0:
331,330,81513,6,0,P|284:339|233:314,1,89.9999972534181,0|0,1:2|0:0,0:0:0:0:
184,226,81850,1,8,0:2:0:0:
85,325,82019,2,0,P|47:247|77:165,1,179.999994506836,0|0,1:2|1:2,0:0:0:0:
180,67,82525,2,0,P|201:106|215:149,1,89.9999972534181,8|0,0:2|0:0,0:0:0:0:
357,242,82862,6,0,P|372:197|377:137,1,89.9999972534181,0|0,1:2|0:0,0:0:0:0:
191,259,83199,2,0,P|196:303|211:346,1,89.9999972534181,8|0,0:2|0:0,0:0:0:0:
266,157,83704,1,0,0:0:0:0:
162,58,83873,2,0,P|120:43|76:51,1,89.9999972534181,10|2,0:2|0:0,0:0:0:0:
23,217,84210,6,0,P|71:197|128:180,1,89.9999972534181,2|2,1:2|0:0,0:0:0:0:
216,274,84547,1,8,0:2:0:0:
363,142,84716,2,0,P|341:190|319:346,1,179.999994506836,0|0,1:2|1:2,0:0:0:0:
183,157,85221,1,8,0:2:0:0:
