osu file format v14

[General]
AudioFilename: audio.mp3
AudioLeadIn: 0
PreviewTime: 54126
Countdown: 0
SampleSet: Soft
StackLeniency: 0.4
Mode: 0
LetterboxInBreaks: 0
WidescreenStoryboard: 1

[Editor]
Bookmarks: 12412,23873,60614
DistanceSpacing: 1
BeatDivisor: 6
GridSize: 16
TimelineZoom: 4.779996

[Metadata]
Title:PIT-A-PAT
TitleUnicode:PIT-A-PAT
Artist:TWICE
ArtistUnicode:트와이스
Creator:Stixy
Version:Love
Source:
Tags:kpop korean k-pop pop short ver version cut edit jyp entertainment sana jihyo dahyun nayeon jeongyeon chaeyoung momo mina tzuyu 나연 정연 모모 사나 지효 미나 다현 채영 쯔위 twicecoaster: twicecoaster lane1 one pit a pat rosiie nofc kujinn reform enerugi a_r_m_i_n armin kvuhlrrie suyuko
BeatmapID:2533348
BeatmapSetID:1099733

[Difficulty]
HPDrainRate:5.6
CircleSize:3.8
OverallDifficulty:9
ApproachRate:9.3
SliderMultiplier:1.8
SliderTickRate:1

[Events]
//Background and Video events
0,0,"bg.jpg",0,0
//Break Periods
//Storyboard Layer 0 (Background)
//Storyboard Layer 1 (Fail)
//Storyboard Layer 2 (Pass)
//Storyboard Layer 3 (Foreground)
//Storyboard Layer 4 (Overlay)
//Storyboard Sound Samples

[TimingPoints]
615,337.078651685393,4,2,1,60,1,0
10727,-142.857142857143,4,2,1,60,0,0
11317,-142.857142857143,4,2,1,5,0,0
11401,-111.111111111111,4,2,1,70,0,0
16710,-111.111111111111,4,2,1,5,0,0
16794,-111.111111111111,4,2,1,70,0,0
22188,-100,4,2,1,70,0,0
23452,-100,4,2,1,70,0,0
23536,-100,4,2,1,70,0,0
27497,-100,4,2,1,70,0,0
27581,-100,4,2,1,70,0,0
32974,-125,4,2,2,50,0,0
43761,-111.111111111111,4,2,1,60,0,0
49154,-99.9999999999999,4,2,2,60,0,0
49533,-99.9999999999999,4,2,1,60,0,0
49575,-99.9999999999999,4,2,2,60,0,0
50039,-99.9999999999999,4,2,1,60,0,0
50081,-99.9999999999999,4,2,2,60,0,0
50544,-99.9999999999999,4,2,1,60,0,0
50586,-99.9999999999999,4,2,2,60,0,0
51050,-99.9999999999999,4,2,1,60,0,0
51092,-99.9999999999999,4,2,2,60,0,0
51556,-99.9999999999999,4,2,1,60,0,0
51598,-99.9999999999999,4,2,2,60,0,0
51850,-99.9999999999999,4,2,1,60,0,0
53199,-99.9999999999999,4,2,1,40,0,0
53873,-200,4,2,1,60,0,0
54463,-200,4,2,1,5,0,0
54547,-83.3333333333333,4,2,1,80,0,1
60193,-83.3333333333333,4,2,1,80,0,1
60277,-83.3333333333333,4,2,1,80,0,1
72328,-83.3333333333333,4,2,1,80,0,1
72412,-83.3333333333333,4,2,1,80,0,1
76120,-111.111111111111,4,2,1,60,0,0
78732,-111.111111111111,4,2,1,5,0,0
78817,-111.111111111111,4,2,1,60,0,0

[Colours]
Combo1 : 255,183,111
Combo2 : 138,138,255
Combo3 : 255,43,149
Combo4 : 255,125,125

[HitObjects]
23,246,10727,6,0,B|143:221|115:318|230:280,1,220.499993270874
297,202,11401,6,0,L|279:105,1,80.9999975280763,4|2,1:2|0:2,0:0:0:0:
230,279,11738,2,0,L|215:358,1,80.9999975280763,10|2,0:2|1:2,0:0:0:0:
379,257,12075,1,2,0:2:0:0:
179,195,12244,1,2,1:2:0:0:
327,341,12412,2,0,P|366:358|414:351,1,80.9999975280763,10|2,0:2|0:2,0:0:0:0:
367,136,12749,5,2,1:2:0:0:
230,279,12918,1,2,0:2:0:0:
389,111,13086,1,10,0:2:0:0:
478,280,13255,1,2,0:2:0:0:
279,166,13423,2,0,P|274:126|289:88,2,80.9999975280763,2|0|8,0:2|0:0|0:2,0:0:0:0:
279,166,14098,6,0,L|300:260,1,80.9999975280763,0|2,1:2|0:2,0:0:0:0:
187,114,14435,2,0,L|205:35,1,80.9999975280763,10|2,0:2|1:2,0:0:0:0:
279,166,14772,1,2,0:2:0:0:
86,149,14940,1,2,1:2:0:0:
295,56,15109,1,10,0:2:0:0:
179,218,15277,1,2,0:2:0:0:
204,35,15446,5,2,1:2:0:0:
341,235,15614,1,2,0:2:0:0:
187,10,15783,1,10,0:2:0:0:
65,178,15952,1,2,0:2:0:0:
294,55,16120,2,0,P|310:92|311:133,1,80.9999975280763,2|0,0:2|0:0,0:0:0:0:
184,326,16457,2,0,B|154:256|154:256|185:208,1,121.499996292114,10|0,0:2|0:0,0:0:0:0:
263,264,16794,6,0,L|362:247,1,80.9999975280763,2|2,1:2|0:2,0:0:0:0:
498,196,17131,2,0,L|398:179,1,80.9999975280763,10|2,0:2|1:2,0:0:0:0:
372,21,17468,1,2,0:2:0:0:
242,162,17637,1,2,1:2:0:0:
455,76,17806,2,0,P|471:39|469:0,1,80.9999975280763,10|2,0:2|0:2,0:0:0:0:
310,94,18143,5,2,1:2:0:0:
418,182,18311,1,2,0:2:0:0:
372,21,18480,1,10,0:2:0:0:
242,162,18648,1,2,0:2:0:0:
391,275,18817,2,0,P|434:275|477:257,1,80.9999975280763,2|0,0:2|0:0,0:0:0:0:
310,94,19154,1,10,0:2:0:0:
174,234,19322,1,0,0:0:0:0:
418,180,19491,6,0,L|401:100,1,80.9999975280763,2|2,1:2|0:2,0:0:0:0:
148,130,19828,1,10,0:2:0:0:
331,4,19997,1,2,1:2:0:0:
120,148,20165,1,2,0:2:0:0:
310,94,20334,1,2,1:2:0:0:
44,81,20502,1,10,0:2:0:0:
238,36,20671,1,2,0:2:0:0:
72,233,20839,5,2,1:2:0:0:
133,26,21008,1,2,0:2:0:0:
193,264,21176,1,10,0:2:0:0:
44,81,21345,1,2,0:2:0:0:
18,324,21513,2,0,P|67:339|107:333,1,80.9999975280763,2|0,0:2|0:0,0:0:0:0:
227,131,21850,1,8,0:2:0:0:
72,233,22019,1,0,1:2:0:0:
299,308,22188,6,0,L|285:220,1,90,4|2,1:2|0:2,0:0:0:0:
224,375,22525,1,10,0:2:0:0:
389,265,22693,1,2,1:2:0:0:
205,157,22862,2,0,P|184:202|188:246,1,90,2|0,0:2|1:2,0:0:0:0:
298,115,23199,2,0,P|268:74|228:55,1,90,10|0,0:2|0:0,0:0:0:0:
284,219,23536,6,0,L|389:200,1,90,2|0,1:2|0:0,0:0:0:0:
461,368,23873,2,0,L|355:349,1,90,10|0,0:2|0:0,0:0:0:0:
473,185,24210,1,2,0:2:0:0:
512,302,24379,1,0,0:0:0:0:
381,151,24547,1,8,0:2:0:0:
381,151,24884,6,0,L|395:63,1,90,0|2,1:2|0:2,0:0:0:0:
324,233,25221,1,10,0:2:0:0:
473,185,25390,1,2,1:2:0:0:
283,146,25558,2,0,L|160:166,1,90,2|0,0:2|1:2,0:0:0:0:
325,329,25895,2,0,L|447:349,1,90,10|0,0:2|0:0,0:0:0:0:
283,146,26232,5,2,1:2:0:0:
229,337,26401,1,2,0:2:0:0:
291,115,26570,1,10,0:2:0:0:
427,265,26738,1,2,0:2:0:0:
203,203,26907,2,0,P|187:161|191:116,1,90,2|0,0:2|0:0,0:0:0:0:
132,291,27244,2,0,P|103:325|63:343,1,90,10|0,0:2|0:0,0:0:0:0:
283,146,27581,6,0,B|350:132|350:132|395:145|395:145|474:129,1,180,2|8,1:2|0:2,0:0:0:0:
311,38,28086,1,2,1:2:0:0:
224,230,28255,2,0,P|266:248|311:244,1,90,2|0,0:2|1:2,0:0:0:0:
209,50,28592,1,8,0:2:0:0:
113,243,28761,1,2,0:2:0:0:
317,36,28929,5,2,1:2:0:0:
94,64,29098,1,2,0:2:0:0:
285,147,29266,2,0,L|373:128,1,90,10|0,0:2|0:0,0:0:0:0:
209,50,29603,2,0,L|180:135,1,90,2|0,0:2|0:0,0:0:0:0:
48,328,29940,1,10,0:2:0:0:
68,137,30109,1,0,0:0:0:0:
154,343,30277,6,0,B|254:320|235:395|326:368,1,180,2|8,1:2|0:2,0:0:0:0:
407,175,30783,1,2,1:2:0:0:
499,334,30952,2,0,L|385:315,1,90,2|0,0:2|1:2,0:0:0:0:
361,89,31289,1,8,0:2:0:0:
509,193,31457,1,2,0:2:0:0:
283,149,31626,5,2,1:2:0:0:
434,29,31794,1,2,0:2:0:0:
326,236,31963,2,0,L|237:250,1,90,10|0,0:2|0:0,0:0:0:0:
353,55,32300,2,0,L|366:100,2,30,10|8|8,0:0|0:0|0:0,0:0:0:0:
166,32,32637,1,8,0:0:0:0:
159,55,32693,2,0,L|146:100,2,30,8|8|8,0:0|0:0|0:0,0:0:0:0:
75,147,32974,6,0,P|72:184|92:227,1,72,6|0,1:2|1:2,0:0:0:0:
228,311,33311,2,0,P|197:289|150:285,1,72,10|0,0:2|0:0,0:0:0:0:
9,361,33648,2,0,P|42:345|69:306,1,72,10|0,0:2|0:0,0:0:0:0:
174,173,33985,1,10,1:2:0:0:
200,177,34069,1,2,0:2:0:0:
227,181,34153,1,2,0:2:0:0:
253,186,34237,1,2,0:2:0:0:
282,190,34322,6,0,L|251:27,1,144,10|8,0:2|1:2,0:0:0:0:
255,48,34997,2,0,P|288:36|324:35,1,72,10|2,0:2|0:2,0:0:0:0:
420,76,35334,2,0,L|424:97,1,18,8|0,0:2|0:0,0:0:0:0:
440,76,35418,2,0,L|444:97,1,18,8|0,0:2|0:0,0:0:0:0:
461,76,35502,2,0,L|465:97,1,18,8|0,0:2|0:0,0:0:0:0:
482,76,35586,2,0,L|486:97,1,18,8|0,0:2|0:0,0:0:0:0:
502,75,35671,6,0,L|487:148,1,72,10|8,0:2|0:2,0:0:0:0:
397,259,36008,2,0,L|383:188,1,72,10|0,0:2|0:0,0:0:0:0:
412,352,36345,2,0,P|376:352|343:337,1,72,14|0,1:2|0:0,0:0:0:0:
246,158,36682,1,10,1:2:0:0:
268,172,36766,1,2,0:2:0:0:
286,192,36850,1,2,0:2:0:0:
298,216,36934,1,2,0:2:0:0:
300,244,37019,6,0,B|251:236|251:236|203:248|203:248|159:239,1,144,10|8,0:2|0:2,0:0:0:0:
69,187,37525,1,2,0:2:0:0:
66,284,37693,2,0,L|81:370,1,72,10|0,1:2|0:0,0:0:0:0:
158,169,38030,5,10,1:2:0:0:
174,139,38143,6,0,L|165:96,2,24,8|10|8,1:2|1:2|1:2,0:0:0:0:
170,75,38367,6,0,B|259:58|259:58|312:89,1,144,14|10,1:2|0:2,0:0:0:0:
305,84,39041,2,0,L|292:154,1,72,10|0,0:2|0:0,0:0:0:0:
418,243,39379,1,10,1:2:0:0:
413,216,39463,1,2,0:2:0:0:
408,189,39547,1,2,0:2:0:0:
403,163,39631,1,2,0:2:0:0:
392,134,39716,6,0,P|426:124|462:128,1,72,10|0,0:2|0:0,0:0:0:0:
318,240,40053,2,0,P|284:247|247:234,1,72,2|0,1:2|0:0,0:0:0:0:
182,55,40390,2,0,P|202:84|212:118,1,72,10|0,0:2|1:2,0:0:0:0:
135,164,40727,2,0,L|116:160,1,18,8|0,0:2|0:0,0:0:0:0:
131,182,40811,2,0,L|112:178,1,18,8|0,0:2|0:0,0:0:0:0:
127,200,40895,2,0,L|108:196,1,18,8|0,0:2|0:0,0:0:0:0:
123,217,40979,2,0,L|104:213,1,18,8|0,0:2|0:0,0:0:0:0:
119,235,41064,6,0,L|47:245,1,72,14|0,1:2|0:0,0:0:0:0:
198,298,41401,2,0,L|270:308,1,72,10|0,0:2|0:0,0:0:0:0:
103,332,41738,2,0,L|31:342,1,72,10|0,0:2|0:0,0:0:0:0:
218,208,42075,1,10,1:2:0:0:
119,235,42244,1,2,0:2:0:0:
316,225,42412,6,0,P|316:189|304:155,1,72,10|0,0:2|0:0,0:0:0:0:
201,299,42749,2,0,P|200:334|212:368,1,72,10|0,0:2|0:0,0:0:0:0:
222,210,43086,2,0,L|214:187,3,24,10|0|0|0,0:2|0:0|0:0|0:0,0:0:0:0:
367,304,43423,2,0,L|359:326,3,24,10|0|0|2,0:2|0:0|0:0|0:2,0:0:0:0:
365,154,43761,6,0,P|404:152|450:179,1,80.9999975280763,6|0,1:2|1:2,0:0:0:0:
285,223,44098,1,10,0:2:0:0:
270,128,44266,1,2,0:2:0:0:
380,248,44435,2,0,L|354:340,1,80.9999975280763,2|8,0:2|0:2,0:0:0:0:
180,174,44772,1,2,0:2:0:0:
170,145,44856,1,2,0:2:0:0:
171,115,44940,1,2,0:2:0:0:
181,86,45024,1,2,0:2:0:0:
201,62,45109,6,0,L|303:79,1,80.9999975280763,2|2,0:2|0:2,0:0:0:0:
107,26,45446,2,0,L|4:43,1,80.9999975280763,2|0,1:2|0:0,0:0:0:0:
102,200,45783,2,0,P|122:165|122:125,1,80.9999975280763,2|0,0:2|0:0,0:0:0:0:
14,248,46120,1,2,1:2:0:0:
168,275,46289,1,2,0:2:0:0:
0,168,46457,6,0,L|18:267,1,80.9999975280763,2|0,0:2|0:0,0:0:0:0:
213,183,46794,1,10,0:2:0:0:
126,360,46963,1,2,0:2:0:0:
102,200,47131,2,0,L|116:120,1,80.9999975280763,2|8,0:2|0:2,0:0:0:0:
315,256,47468,1,2,1:2:0:0:
325,284,47552,1,2,0:2:0:0:
327,314,47636,1,2,0:2:0:0:
320,343,47720,1,2,0:2:0:0:
304,369,47806,6,0,L|224:354,1,80.9999975280763,2|2,0:2|0:2,0:0:0:0:
396,204,48143,1,2,0:2:0:0:
458,344,48311,1,2,0:2:0:0:
315,256,48480,2,0,P|300:212|308:166,1,80.9999975280763,2|0,0:2|0:0,0:0:0:0:
496,115,48817,2,0,L|485:168,2,53.9999983520508,0|0|0,1:2|1:2|1:2,0:0:0:0:
237,100,49154,5,10,0:2:0:0:
436,33,49322,1,8,0:2:0:0:
208,108,49491,1,10,0:2:0:0:
448,271,49659,1,8,0:2:0:0:
331,0,49828,1,10,0:2:0:0:
229,273,49997,1,8,0:2:0:0:
490,114,50165,1,10,0:2:0:0:
458,103,50249,1,2,0:2:0:0:
424,103,50333,1,10,0:2:0:0:
393,115,50417,1,2,0:2:0:0:
368,137,50502,6,0,L|384:240,1,90,10|8,0:2|0:2,0:0:0:0:
153,90,50839,1,10,0:2:0:0:
358,34,51008,1,10,0:2:0:0:
101,188,51176,1,8,0:2:0:0:
383,16,51345,1,10,0:2:0:0:
330,321,51513,1,8,0:2:0:0:
205,0,51682,1,8,0:2:0:0:
430,329,51850,6,0,L|415:393,1,45,8|2,0:2|0:2,0:0:0:0:
253,259,52019,2,0,L|242:215,1,45,10|2,0:2|0:2,0:0:0:0:
502,264,52188,2,0,L|517:328,1,45,8|2,0:2|0:2,0:0:0:0:
329,186,52356,2,0,L|340:142,1,45,10|2,0:2|0:2,0:0:0:0:
253,259,52525,5,8,0:2:0:0:
220,248,52609,1,2,0:2:0:0:
187,248,52693,1,10,0:2:0:0:
156,259,52777,1,2,0:2:0:0:
130,279,52862,1,8,0:2:0:0:
103,301,52947,1,2,0:2:0:0:
71,311,53031,1,10,0:2:0:0:
38,312,53115,1,2,0:2:0:0:
7,300,53199,6,0,L|0:250,11,30,8|8|8|8|8|8|8|8|8|8|8|8,0:0|0:0|0:0|0:0|0:0|0:0|0:0|0:0|0:0|0:0|0:0|0:0,0:0:0:0:
70,202,53873,2,0,P|60:133|131:64,1,157.5
204,122,54547,6,0,L|318:102,1,107.999996704102,6|0,1:2|0:0,0:0:0:0:
449,295,54884,1,10,0:2:0:0:
477,54,55053,1,2,1:2:0:0:
338,266,55221,2,0,L|359:373,1,107.999996704102,2|0,0:2|1:2,0:0:0:0:
372,157,55558,1,10,0:2:0:0:
232,269,55727,1,2,0:2:0:0:
449,294,55895,6,0,L|473:183,1,107.999996704102,2|0,1:2|0:0,0:0:0:0:
252,67,56232,2,0,L|274:172,1,107.999996704102,10|0,0:2|0:0,0:0:0:0:
334,16,56570,1,2,0:2:0:0:
141,70,56738,1,2,0:2:0:0:
364,8,56907,1,10,0:2:0:0:
103,168,57075,1,2,0:2:0:0:
425,195,57244,6,0,P|444:145|437:92,1,107.999996704102,0|2,1:2|0:2,0:0:0:0:
311,278,57581,1,8,0:2:0:0:
297,77,57749,2,0,L|335:201,1,107.999996704102,0|0,1:2|0:0,0:0:0:0:
253,359,58086,1,2,1:2:0:0:
425,195,58255,1,8,0:2:0:0:
512,379,58423,1,2,0:2:0:0:
254,184,58592,5,0,1:2:0:0:
465,292,58761,1,0,0:0:0:0:
164,228,58929,1,8,0:2:0:0:
344,132,59098,1,0,0:0:0:0:
162,332,59266,1,0,0:0:0:0:
253,79,59435,5,2,0:2:0:0:
362,317,59603,1,10,0:2:0:0:
240,51,59772,1,2,0:2:0:0:
162,332,59940,6,0,P|208:358|262:358,1,107.999996704102,6|0,1:2|0:2,0:0:0:0:
71,284,60277,2,0,P|35:324|23:376,1,107.999996704102,10|0,0:2|1:2,0:0:0:0:
164,134,60614,1,2,0:2:0:0:
162,332,60783,1,0,1:2:0:0:
57,117,60952,2,0,L|40:4,1,107.999996704102,10|0,0:2|0:0,0:0:0:0:
305,240,61289,6,0,P|251:243|204:218,1,107.999996704102,2|0,1:2|0:0,0:0:0:0:
411,250,61626,2,0,P|440:294|442:347,1,107.999996704102,10|0,0:2|0:0,0:0:0:0:
367,156,61963,2,0,L|386:35,1,107.999996704102,2|0,0:2|0:0,0:0:0:0:
283,261,62300,1,10,0:2:0:0:
470,163,62468,1,2,0:2:0:0:
263,140,62637,6,0,L|155:162,1,107.999996704102,2|2,1:2|0:2,0:0:0:0:
411,250,62974,1,10,0:2:0:0:
339,57,63143,2,0,L|233:35,1,107.999996704102,0|0,1:2|0:0,0:0:0:0:
283,261,63480,1,2,1:2:0:0:
447,64,63648,1,8,0:2:0:0:
454,348,63817,6,0,P|397:356|347:337,1,107.999996704102,2|0,0:2|1:2,0:0:0:0:
219,187,64154,1,2,0:2:0:0:
428,143,64322,2,0,L|406:268,1,107.999996704102,10|0,0:2|0:0,0:0:0:0:
280,37,64659,1,0,0:0:0:0:
508,81,64828,1,0,0:0:0:0:
237,170,64997,1,10,0:2:0:0:
424,40,65165,1,2,0:2:0:0:
211,187,65334,6,0,L|93:166,1,107.999996704102,6|0,1:2|0:0,0:0:0:0:
280,37,65671,1,10,0:2:0:0:
222,281,65839,1,2,1:2:0:0:
19,85,66008,2,0,L|125:66,1,107.999996704102,2|0,0:2|1:2,0:0:0:0:
350,224,66345,1,10,0:2:0:0:
265,9,66513,1,2,0:2:0:0:
131,247,66682,6,0,P|128:318|153:355,1,107.999996704102,2|0,1:2|0:0,0:0:0:0:
350,224,67019,2,0,P|357:171|335:123,1,107.999996704102,10|0,0:2|0:0,0:0:0:0:
309,329,67356,1,2,0:2:0:0:
454,253,67525,1,2,0:2:0:0:
251,189,67693,1,10,0:2:0:0:
493,267,67862,1,2,0:2:0:0:
351,16,68030,6,0,L|333:129,1,107.999996704102,0|2,1:2|0:2,0:0:0:0:
298,320,68367,1,8,0:2:0:0:
140,104,68536,2,0,L|247:93,1,107.999996704102,0|0,1:2|0:0,0:0:0:0:
15,214,68873,1,2,1:2:0:0:
111,10,69041,1,8,0:2:0:0:
183,265,69210,1,2,0:2:0:0:
13,39,69379,5,0,1:2:0:0:
247,93,69547,1,0,0:0:0:0:
27,235,69716,1,8,0:2:0:0:
271,78,69884,1,0,0:0:0:0:
14,135,70053,1,0,0:0:0:0:
204,12,70221,5,2,0:2:0:0:
286,256,70390,1,10,0:2:0:0:
108,44,70558,1,2,0:2:0:0:
107,345,70727,6,0,L|232:326,1,107.999996704102,6|0,1:2|0:2,0:0:0:0:
360,107,71064,2,0,L|235:88,1,107.999996704102,10|0,0:2|1:2,0:0:0:0:
481,198,71401,1,2,0:2:0:0:
418,25,71570,1,0,1:2:0:0:
310,193,71738,2,0,L|331:313,1,107.999996704102,10|0,0:2|0:0,0:0:0:0:
149,130,72075,6,0,P|148:65|185:17,1,107.999996704102,2|0,1:2|0:0,0:0:0:0:
121,232,72412,2,0,P|65:264|5:256,1,107.999996704102,10|0,0:2|0:0,0:0:0:0:
249,101,72749,2,0,L|367:120,1,107.999996704102,2|0,0:2|0:0,0:0:0:0:
48,159,73086,1,10,0:2:0:0:
238,2,73255,1,2,0:2:0:0:
209,276,73423,6,0,L|193:382,1,107.999996704102,2|2,1:2|0:2,0:0:0:0:
312,151,73761,1,10,0:2:0:0:
408,313,73929,2,0,L|301:329,1,107.999996704102,0|0,1:2|0:0,0:0:0:0:
393,89,74266,1,2,1:2:0:0:
497,360,74435,2,0,L|512:253,1,107.999996704102,8|2,0:2|0:2,0:0:0:0:
303,54,74772,5,0,1:2:0:0:
209,276,74940,1,2,0:2:0:0:
317,24,75109,1,10,0:2:0:0:
408,313,75277,1,0,0:0:0:0:
193,106,75446,2,0,L|207:40,2,53.9999983520508,8|0|0,0:2|1:2|1:2,0:0:0:0:
100,251,75783,2,0,L|125:367,1,107.999996704102,10|2,0:2|0:2,0:0:0:0:
322,199,76120,6,0,B|298:150|298:150|338:33,1,161.999995056153,6|10,1:2|0:2,0:0:0:0:
405,254,76626,2,0,P|338:297|262:278,1,161.999995056153,0|0,1:2|1:2,0:0:0:0:
408,148,77131,1,10,0:2:0:0:
79,95,77468,6,0,B|174:72|174:72|227:107,1,161.999995056153,0|8,1:2|0:2,0:0:0:0:
41,198,77974,1,0,0:0:0:0:
80,179,78480,2,0,P|68:238|63:313,1,121.499996292114,10|0,0:2|0:0,0:0:0:0:
4,359,78817,6,0,B|70:341|70:341|101:357|101:357|181:336,1,161.999995056153,2|8,1:2|0:2,0:0:0:0:
304,146,79322,2,0,P|235:184|217:261,1,161.999995056153,0|0,1:2|1:2,0:0:0:0:
396,187,79828,1,8,0:2:0:0:
396,187,80165,6,0,L|418:109,1,80.9999975280763,2|2,1:2|0:0,0:0:0:0:
316,243,80502,2,0,L|327:281,3,40.4999987640381,10|2|2|2,0:2|0:0|0:0|0:0,0:0:0:0:
304,146,80839,2,0,L|323:76,2,53.9999983520508,2|2|2,0:0|0:2|0:2,0:0:0:0:
223,204,81176,1,10,0:2:0:0:
223,204,81513,6,0,B|138:200|173:271|75:247,1,161.999995056153,0|8,1:2|0:2,0:0:0:0:
30,39,82019,2,0,P|100:82|80:172,1,161.999995056153,0|0,1:2|1:2,0:0:0:0:
50,339,82525,1,8,0:2:0:0:
50,339,82862,6,0,B|98:361|98:361|210:313,1,161.999995056153,0|8,1:2|0:2,0:0:0:0:
236,338,83704,1,0,0:0:0:0:
322,191,83873,2,0,L|305:306,1,80.9999975280763,10|2,0:2|0:0,0:0:0:0:
234,139,84210,6,0,P|280:98|385:117,1,161.999995056153,2|8,1:2|0:2,0:0:0:0:
228,236,84716,2,0,L|67:206,1,161.999995056153,0|0,1:2|1:2,0:0:0:0:
231,31,85221,1,8,0:2:0:0:
