osu file format v14

[General]
AudioFilename: audio.mp3
AudioLeadIn: 0
PreviewTime: 55307
Countdown: 0
SampleSet: Soft
StackLeniency: 0.7
Mode: 0
LetterboxInBreaks: 0
WidescreenStoryboard: 0

[Editor]
DistanceSpacing: 1.2
BeatDivisor: 4
GridSize: 4
TimelineZoom: 1.5

[Metadata]
Title:PAGE TWO
TitleUnicode:PAGE TWO
Artist:TWICE
ArtistUnicode:트와이스
Creator:[Kim Dahyun]
Version:NEXT PAGE
Source:
Tags:cheer up Precious Love 소중한 사랑 Sojunghan Sarang touchdown 툭하면 톡 Tukhamyeon Tok woohoo my headphones on 써 i'm im gonna be a star
BeatmapID:2006549
BeatmapSetID:958332

[Difficulty]
HPDrainRate:6
CircleSize:4
OverallDifficulty:9.2
ApproachRate:9.4
SliderMultiplier:1.4
SliderTickRate:1

[Events]
//Background and Video events
0,0,"cheerup.png",0,0
//Break Periods
2,78137,93902
2,129138,141521
2,212256,220033
2,238438,240760
2,242665,244033
2,282074,297624
2,324619,331390
2,407145,410720
2,511755,520217
2,586461,588019
2,663955,678019
//Storyboard Layer 0 (Background)
//Storyboard Layer 1 (Fail)
//Storyboard Layer 2 (Pass)
//Storyboard Layer 3 (Foreground)
//Storyboard Sound Samples

[TimingPoints]
249.862068965517,346.820809248555,4,2,1,100,1,0
9960,-100,4,2,2,100,0,0
11348,-100,4,2,1,100,0,0
16203,-100,4,2,2,100,0,0
16897,-100,4,2,1,100,0,0
21059,-100,4,2,2,100,0,0
22446,-100,4,2,1,100,0,0
27301,-100,4,2,2,100,0,0
27995,-100,4,2,1,100,0,0
32157,-100,4,2,2,100,0,0
33544,-100,4,2,1,100,0,0
37706,-100,4,2,2,100,0,0
39093,-100,4,2,1,100,0,0
43255,-100,4,2,2,100,0,0
44642,-100,4,2,1,100,0,0
48804,-100,4,2,2,100,0,0
50192,-100,4,2,1,100,0,0
52966,-100,4,2,2,100,0,0
55394,-400,4,2,2,100,0,0
55741,-80,4,2,2,100,0,1
77417,-80,4,2,2,100,0,0
83224,476.190476190476,4,2,1,100,1,0
97509,-100,4,2,1,5,0,0
97985,-100,4,2,1,100,0,0
125128,-133.333333333333,4,2,1,100,0,0
142271,-80,4,2,3,100,0,0
144176,-66.6666666666667,4,2,3,100,0,1
197509,-66.6666666666667,4,2,3,100,0,0
201795,-66.6666666666667,4,2,1,5,0,0
202238,545.454545454546,4,2,1,100,1,0
203329,545.454545454546,4,2,4,100,1,0
211374,-50,4,2,4,100,0,0
211783,-25,4,2,4,100,0,0
220783,-66.6666666666667,4,2,4,100,0,0
229510,-66.6666666666667,4,2,1,100,0,0
229647,-66.6666666666667,4,2,4,100,0,0
238238,-66.6666666666667,4,2,1,100,0,0
255692,-66.6666666666667,4,2,4,100,0,0
263738,-50,4,2,4,100,0,0
264147,-25,4,2,4,100,0,0
264419,-50,4,2,1,100,0,1
272874,-25,4,2,1,100,0,1
273147,-50,4,2,1,100,0,1
281601,-25,4,2,1,100,0,1
281874,-133.333333333333,4,2,1,100,0,0
300692,-133.333333333333,4,2,1,5,0,0
300829,-133.333333333333,4,2,1,100,0,0
301510,-50,4,2,1,100,0,1
309965,-25,4,2,1,100,0,1
310238,-50,4,2,1,100,0,1
316783,-100,4,2,1,100,0,1
318283,-50,4,2,1,100,0,1
318692,-25,4,2,1,100,0,1
318965,-25,4,2,2,100,0,0
320056,-25,4,2,1,80,0,0
321147,-25,4,2,1,60,0,0
322238,-25,4,2,1,40,0,0
323329,-25,4,2,1,20,0,0
324419,-25,4,2,1,5,0,0
325907,389.61038961039,4,2,3,100,1,0
332140,-133.333333333333,4,2,4,100,0,0
344608,-100,4,2,4,100,0,0
369543,-400,4,2,4,100,0,0
369932,-80,4,2,4,100,0,1
382010,-400,4,2,4,100,0,0
382400,-80,4,2,4,100,0,1
394478,-400,4,2,4,100,0,0
394868,-80,4,2,4,100,0,1
406945,-80,4,2,4,100,0,0
408743,340.909090909091,4,2,1,100,1,0
452379,-80,4,2,1,100,0,1
496015,-133.333333333333,4,2,1,100,0,0
499791,588.235294117647,4,2,1,100,1,0
501849,-100,4,2,4,5,0,0
502143,-100,4,2,4,100,0,0
539055,-100,4,2,3,100,0,0
539791,-80,4,2,3,100,0,0
553908,-80,4,2,4,100,0,0
558320,-66.6666666666667,4,2,3,5,0,0
558614,-66.6666666666667,4,2,3,100,0,1
568026,-57.1428571428571,4,2,3,100,0,1
577438,-100,4,2,4,100,0,0
588755,468.75,4,2,3,100,1,0
596255,-66.6666666666667,4,2,3,100,0,1
611255,-80,4,2,3,100,0,0
678755,-100,4,2,3,100,0,0
684380,-66.6666666666667,4,2,3,100,0,0
686255,-400,4,2,3,100,0,0
688130,-50,4,2,3,100,0,1
703130,-80,4,2,3,100,0,0
725630,-80,4,2,2,100,0,0
726567,-80,4,2,3,75,0,0
727505,-80,4,2,3,50,0,0
728442,-80,4,2,3,25,0,0
729380,-80,4,2,3,5,0,0

[HitObjects]
256,192,5798,12,0,9614,0:0:0:0:
188,96,9960,5,8,0:0:0:0:
272,195,10134,1,8,0:0:0:0:
129,179,10307,1,2,0:0:0:0:
210,321,10481,5,8,0:0:0:0:
106,199,10654,1,8,0:0:0:0:
302,216,10827,1,2,0:0:0:0:
67,286,11001,5,8,0:0:0:0:
272,107,11174,1,8,0:0:0:0:
67,84,11348,6,0,P|59:128|64:163,1,70,6|0,0:0|0:0,0:0:0:0:
209,32,11694,2,0,P|211:66|203:100,1,70,0|0,0:0|0:0,0:0:0:0:
182,229,12041,2,0,P|222:251|325:205,1,140,8|0,0:0|0:0,0:0:0:0:
376,143,12619,1,0,0:0:0:0:
376,143,12735,6,0,L|367:291,1,140,2|0,0:0|0:0,0:0:0:0:
245,333,13313,1,0,0:0:0:0:
245,333,13429,1,8,0:0:0:0:
132,258,13660,2,0,P|98:220|2:203,1,140,0|0,0:0|0:0,0:0:0:0:
22,156,14122,6,0,P|54:165|129:143,1,105,2|0,0:0|0:0,0:0:0:0:
154,128,14469,2,0,P|198:116|248:127,1,93.3333333333333,0|0,0:0|0:0,0:0:0:0:
277,151,14816,1,8,0:0:0:0:
277,151,15163,1,0,0:0:0:0:
432,166,15394,1,0,0:0:0:0:
432,166,15509,6,0,P|421:118|406:96,1,70,2|0,0:0|0:0,0:0:0:0:
277,151,15856,1,2,0:0:0:0:
353,224,16030,1,2,0:0:0:0:
180,232,16203,5,8,0:0:0:0:
246,348,16377,1,2,0:0:0:0:
246,348,16463,1,2,0:0:0:0:
246,348,16550,1,8,0:0:0:0:
59,224,16723,1,8,0:0:0:0:
160,99,16897,6,0,L|176:212,1,93.3333333333333,2|0,0:0|0:0,0:0:0:0:
180,232,17244,1,0,0:0:0:0:
260,38,17590,1,8,0:0:0:0:
321,271,17937,2,0,L|306:167,1,93.3333333333333,0|0,0:0|0:0,0:0:0:0:
372,144,18284,6,0,L|387:246,1,93.3333333333333,2|0,0:0|0:0,0:0:0:0:
392,277,18631,1,0,0:0:0:0:
472,83,18978,2,0,P|439:48|330:33,1,140,8|0,0:0|0:0,0:0:0:0:
81,245,19671,6,0,L|189:264,1,93.3333333333333,2|0,0:0|0:0,0:0:0:0:
226,298,20018,2,0,L|122:315,1,93.3333333333333,0|0,0:0|0:0,0:0:0:0:
99,345,20365,1,8,0:0:0:0:
99,345,20712,1,0,0:0:0:0:
152,268,20885,1,0,0:0:0:0:
229,348,21059,5,8,0:0:0:0:
240,212,21232,1,8,0:0:0:0:
345,317,21405,1,2,0:0:0:0:
312,151,21579,5,8,0:0:0:0:
437,264,21752,1,8,0:0:0:0:
376,87,21926,1,2,0:0:0:0:
341,237,22099,5,8,0:0:0:0:
474,128,22272,1,8,0:0:0:0:
138,53,22446,6,0,P|137:93|163:157,1,93.3333333333333,2|0,0:0|0:0,0:0:0:0:
181,177,22793,1,0,0:0:0:0:
181,177,23140,2,0,P|182:217|158:281,1,93.3333333333333,8|0,0:0|0:0,0:0:0:0:
138,301,23487,1,0,0:0:0:0:
138,301,23833,6,0,L|230:345,1,93.3333333333333,2|0,0:0|0:0,0:0:0:0:
236,382,24180,2,0,L|332:336,1,93.3333333333333,0|0,0:0|0:0,0:0:0:0:
347,302,24527,2,0,P|401:304|394:216,1,140,8|0,0:0|0:0,0:0:0:0:
311,101,25105,1,0,0:0:0:0:
311,101,25220,6,0,P|312:147|288:208,1,93.3333333333333,2|0,0:0|0:0,0:0:0:0:
239,217,25567,2,0,P|240:171|216:108,1,93.3333333333333,0|0,0:0|0:0,0:0:0:0:
180,99,25914,2,0,P|153:150|104:87,1,140,8|0,0:0|0:0,0:0:0:0:
127,294,26608,5,2,0:0:0:0:
294,222,26781,1,0,0:0:0:0:
110,213,26955,5,2,0:0:0:0:
299,315,27128,1,2,0:0:0:0:
141,137,27301,6,0,P|180:109|193:85,1,70,8|2,0:0|0:0,0:0:0:0:
200,63,27562,1,2,0:0:0:0:
199,63,27648,1,8,0:0:0:0:
203,226,27822,1,8,0:0:0:0:
409,84,27995,6,0,P|422:124|412:242,2,140,2|0|8,0:0|0:0|0:0,0:0:0:0:
271,123,28920,1,0,0:0:0:0:
271,123,29035,1,0,0:0:0:0:
308,260,29267,1,0,0:0:0:0:
308,260,29382,6,0,P|263:291|204:280,1,93.3333333333333,2|0,0:0|0:0,0:0:0:0:
169,282,29729,2,0,P|167:236|135:197,1,93.3333333333333,0|0,0:0|0:0,0:0:0:0:
95,179,30076,2,0,P|49:180|8:214,1,93.3333333333333,8|0,0:0|0:0,0:0:0:0:
3,244,30423,1,0,0:0:0:0:
3,244,30770,6,0,L|51:349,1,93.3333333333333,2|0,0:0|0:0,0:0:0:0:
66,367,31116,1,0,0:0:0:0:
194,357,31348,1,0,0:0:0:0:
194,357,31463,2,0,P|178:297|176:256,1,93.3333333333333,8|0,0:0|0:0,0:0:0:0:
193,234,31810,2,0,P|189:187|177:141,1,93.3333333333333,0|0,0:0|0:0,0:0:0:0:
163,113,32157,5,8,0:0:0:0:
307,172,32330,1,8,0:0:0:0:
229,61,32504,1,2,0:0:0:0:
403,154,32677,5,8,0:0:0:0:
312,40,32851,1,8,0:0:0:0:
455,87,33024,1,2,0:0:0:0:
221,199,33197,5,8,0:0:0:0:
407,14,33371,1,8,0:0:0:0:
66,57,33544,6,0,P|41:100|86:197,1,140,6|0,0:0|0:0,0:0:0:0:
135,381,34064,2,0,P|160:338|115:241,1,140,8|0,0:0|0:0,0:0:0:0:
31,255,34585,1,8,0:0:0:0:
175,158,34758,1,0,0:0:0:0:
10,102,34931,6,0,P|73:95|110:74,1,93.3333333333333,2|0,0:0|0:0,0:0:0:0:
138,54,35278,1,0,0:0:0:0:
90,174,35452,1,8,0:0:0:0:
268,291,35625,2,0,P|272:236|267:206,1,70,2|0,0:0|0:0,0:0:0:0:
193,110,35972,2,0,P|189:165|194:195,1,70,8|0,0:0|0:0,0:0:0:0:
192,338,36319,6,0,P|138:348|92:266,1,140,6|0,0:0|0:0,0:0:0:0:
93,115,36839,2,0,P|99:159|95:194,1,70,8|2,0:0|0:0,0:0:0:0:
13,262,37186,1,0,0:0:0:0:
5,142,37359,1,8,0:0:0:0:
137,212,37533,1,0,0:0:0:0:
23,354,37706,5,2,0:0:0:0:
58,199,37879,1,8,0:0:0:0:
202,344,38053,1,8,0:0:0:0:
88,293,38226,1,8,0:0:0:0:
251,167,38400,6,0,P|259:209|259:257,1,70,2|8,0:0|0:0,0:0:0:0:
133,126,38746,2,0,P|125:84|125:36,1,70,8|0,0:0|0:0,0:0:0:0:
404,46,39093,6,0,L|396:215,1,140,6|0,0:0|0:0,0:0:0:0:
300,367,39614,2,0,L|292:198,1,140,8|0,0:0|0:0,0:0:0:0:
205,130,40134,1,8,0:0:0:0:
129,230,40307,1,0,0:0:0:0:
40,152,40481,6,0,P|70:113|63:54,1,93.3333333333333,2|0,0:0|0:0,0:0:0:0:
57,37,40827,1,0,0:0:0:0:
205,130,41001,1,8,0:0:0:0:
37,256,41174,2,0,P|32:304|39:347,1,70,2|0,0:0|0:0,0:0:0:0:
183,384,41521,2,0,P|188:336|181:293,1,70,8|0,0:0|0:0,0:0:0:0:
205,130,41868,6,0,P|201:188|286:195,1,140,6|0,0:0|0:0,0:0:0:0:
345,91,42388,2,0,P|323:47|300:21,1,70,8|2,0:0|0:0,0:0:0:0:
125,47,42735,1,0,0:0:0:0:
218,127,42908,1,8,0:0:0:0:
70,141,43082,1,0,0:0:0:0:
265,263,43255,5,2,0:0:0:0:
134,221,43429,1,8,0:0:0:0:
307,166,43602,5,8,0:0:0:0:
177,283,43775,1,8,0:0:0:0:
385,345,43949,6,0,P|383:303|372:265,1,70,2|8,0:0|0:0,0:0:0:0:
298,97,44296,2,0,P|300:139|311:177,1,70,8|0,0:0|0:0,0:0:0:0:
234,324,44642,6,0,P|191:356|113:296,1,140,6|0,0:0|0:0,0:0:0:0:
118,165,45163,1,8,0:0:0:0:
285,181,45336,2,0,P|290:222|277:264,1,70,2|0,0:0|0:0,0:0:0:0:
208,100,45683,2,0,P|203:59|216:17,1,70,8|0,0:0|0:0,0:0:0:0:
429,229,46030,5,2,0:0:0:0:
285,181,46203,1,0,0:0:0:0:
430,126,46377,1,0,0:0:0:0:
327,261,46550,1,8,0:0:0:0:
482,350,46723,2,0,P|479:294|466:266,1,70,2|0,0:0|0:0,0:0:0:0:
327,261,47070,2,0,P|330:317|343:345,1,70,8|0,0:0|0:0,0:0:0:0:
160,368,47417,5,6,0:0:0:0:
205,253,47590,1,0,0:0:0:0:
254,357,47764,1,0,0:0:0:0:
123,256,47937,1,8,0:0:0:0:
220,187,48111,2,0,P|220:222|202:255,1,70,2|0,0:0|0:0,0:0:0:0:
124,120,48457,2,0,P|124:85|142:52,1,70,8|0,0:0|0:0,0:0:0:0:
372,76,48804,6,0,P|353:111|319:124,1,70,2|8,0:0|0:0,0:0:0:0:
293,128,49064,1,8,0:0:0:0:
293,128,49151,1,8,0:0:0:0:
388,189,49325,1,8,0:0:0:0:
251,217,49498,5,2,0:0:0:0:
419,299,49671,1,8,0:0:0:0:
226,364,49845,1,8,0:0:0:0:
226,364,50192,5,12,0:0:0:0:
179,247,50365,1,8,0:0:0:0:
150,359,50538,5,8,0:0:0:0:
128,202,50712,1,8,0:0:0:0:
76,345,50885,5,8,0:0:0:0:
78,153,51059,1,8,0:0:0:0:
13,332,51232,2,0,P|8:294|13:251,1,70,8|8,0:0|0:0,0:0:0:0:
208,108,51579,5,8,0:0:0:0:
78,153,51752,1,8,0:0:0:0:
265,234,51926,5,8,0:0:0:0:
129,207,52099,1,8,0:0:0:0:
348,104,52272,6,0,P|356:140|351:177,1,70,8|8,0:0|0:0,0:0:0:0:
269,302,52619,2,0,P|261:266|266:229,1,70,8|8,0:0|0:0,0:0:0:0:
368,311,52966,5,2,0:0:0:0:
175,152,53140,1,2,0:0:0:0:
375,80,53313,5,2,0:0:0:0:
216,273,53487,1,2,0:0:0:0:
144,73,53660,5,2,0:0:0:0:
337,232,53834,1,2,0:0:0:0:
137,304,54007,5,2,0:0:0:0:
296,111,54181,1,2,0:0:0:0:
368,311,54353,5,2,0:0:0:0:
175,152,54527,2,0,L|165:172,4,17.5,8|0|0|0|0,0:0|0:0|0:0|0:0|0:0,0:0:0:0:
396,235,54874,1,2,0:0:0:0:
296,111,55047,5,8,0:0:0:0:
223,309,55220,1,2,0:0:0:0:
135,101,55394,2,0,L|131:73,1,26.25,8|0,0:0|0:0,0:0:0:0:
130,60,55741,5,6,0:0:0:0:
258,111,55914,1,0,0:0:0:0:
79,218,56088,1,8,0:0:0:0:
299,301,56261,2,0,P|351:303|426:208,1,175,0|2,0:0|0:0,0:0:0:0:
375,31,56782,2,0,P|364:79|376:130,1,87.5,8|0,0:0|0:0,0:0:0:0:
490,201,57128,5,2,0:0:0:0:
289,219,57302,1,0,0:0:0:0:
481,300,57475,1,8,0:0:0:0:
280,216,57649,2,0,P|279:173|293:129,1,87.5,0|0,0:0|0:0,0:0:0:0:
370,344,57995,5,2,0:0:0:0:
411,182,58169,1,8,0:0:0:0:
365,361,58342,1,2,0:0:0:0:
190,77,58516,5,2,0:0:0:0:
231,239,58689,2,0,P|235:291|222:331,1,87.5,0|8,0:0|0:0,0:0:0:0:
327,131,59036,2,0,P|322:78|335:38,1,87.5,0|0,0:0|0:0,0:0:0:0:
457,216,59383,2,0,P|461:268|448:308,1,87.5,2|8,0:0|0:0,0:0:0:0:
313,372,59730,1,0,0:0:0:0:
199,139,59903,5,2,0:0:0:0:
141,285,60076,1,2,0:0:0:0:
141,285,60163,1,2,0:0:0:0:
141,285,60250,1,8,0:0:0:0:
205,129,60423,1,2,0:0:0:0:
255,241,60597,1,0,0:0:0:0:
370,83,60770,5,2,0:0:0:0:
111,187,60943,1,8,0:0:0:0:
467,283,61117,1,2,0:0:0:0:
113,374,61290,6,0,P|86:340|75:290,1,87.5,6|0,0:0|0:0,0:0:0:0:
120,92,61637,1,8,0:0:0:0:
250,206,61810,1,0,0:0:0:0:
250,227,61896,1,0,0:0:0:0:
251,248,61984,2,0,L|252:295,1,43.75,0|0,0:0|0:0,0:0:0:0:
383,152,62157,2,0,L|382:108,1,43.75,2|0,0:0|0:0,0:0:0:0:
222,23,62331,2,0,L|223:113,1,87.5,8|0,0:0|0:0,0:0:0:0:
362,284,62677,5,2,0:0:0:0:
283,188,62851,1,0,0:0:0:0:
264,376,63024,1,8,0:0:0:0:
130,103,63198,2,0,P|163:154|142:278,1,175,0|2,0:0|0:0,0:0:0:0:
33,355,63718,1,8,0:0:0:0:
20,191,63891,1,2,0:0:0:0:
254,210,64065,5,2,0:0:0:0:
206,348,64238,1,8,0:0:0:0:
184,347,64324,1,8,0:0:0:0:
162,347,64411,1,8,0:0:0:0:
117,64,64585,2,0,P|173:79|194:108,1,87.5,2|0,0:0|0:0,0:0:0:0:
25,272,64932,2,0,P|9:216|24:183,1,87.5,2|8,0:0|0:0,0:0:0:0:
232,208,65279,1,2,0:0:0:0:
232,208,65625,6,0,P|241:222|252:233,4,21.875,8|0|0|0|2,0:0|0:0|0:0|0:0|0:0,0:0:0:0:
111,351,65972,1,0,0:0:0:0:
148,130,66145,5,8,0:0:0:0:
353,341,66319,1,2,0:0:0:0:
420,71,66492,5,8,0:0:0:0:
145,288,66666,1,2,0:0:0:0:
75,29,66839,5,6,0:0:0:0:
246,110,67013,1,0,0:0:0:0:
35,144,67186,1,8,0:0:0:0:
259,7,67360,2,0,P|318:38|333:163,1,175,0|2,0:0|0:0,0:0:0:0:
275,250,67880,2,0,P|260:298|273:344,1,87.5,8|0,0:0|0:0,0:0:0:0:
465,345,68227,6,0,L|467:208,1,131.25,2|0,0:0|0:0,0:0:0:0:
466,191,68573,1,8,0:0:0:0:
315,60,68747,2,0,P|300:113|309:155,1,87.5,0|0,0:0|0:0,0:0:0:0:
377,280,69094,5,2,0:0:0:0:
172,255,69267,1,8,0:0:0:0:
386,283,69440,1,2,0:0:0:0:
222,26,69614,5,2,0:0:0:0:
304,144,69787,2,0,P|306:193|294:236,1,87.5,0|8,0:0|0:0,0:0:0:0:
141,152,70134,2,0,P|139:103|151:60,1,87.5,0|0,0:0|0:0,0:0:0:0:
234,279,70481,2,0,P|236:328|224:371,1,87.5,2|8,0:0|0:0,0:0:0:0:
54,287,70828,1,0,0:0:0:0:
292,157,71001,5,2,0:0:0:0:
138,109,71175,1,2,0:0:0:0:
139,130,71261,1,2,0:0:0:0:
141,152,71348,1,8,0:0:0:0:
315,258,71521,1,2,0:0:0:0:
186,319,71695,1,0,0:0:0:0:
469,338,71868,5,2,0:0:0:0:
197,207,72042,1,8,0:0:0:0:
477,106,72215,1,2,0:0:0:0:
111,33,72388,6,0,P|91:72|89:117,1,87.5,6|0,0:0|0:0,0:0:0:0:
197,221,72735,1,8,0:0:0:0:
310,108,72909,1,0,0:0:0:0:
309,86,72995,1,0,0:0:0:0:
308,64,73082,2,0,L|306:5,1,43.75,0|0,0:0|0:0,0:0:0:0:
443,53,73256,2,0,L|444:96,1,43.75,2|0,0:0|0:0,0:0:0:0:
205,156,73429,2,0,L|201:38,1,87.5,8|0,0:0|0:0,0:0:0:0:
377,208,73776,6,0,P|382:261|378:304,1,87.5,2|0,0:0|0:0,0:0:0:0:
370,319,74036,1,0,0:0:0:0:
370,319,74123,1,8,0:0:0:0:
197,164,74296,2,0,P|214:252|193:347,1,175,0|2,0:0|0:0,0:0:0:0:
69,150,74816,2,0,P|60:104|68:59,1,87.5,8|2,0:0|0:0,0:0:0:0:
357,68,75163,5,2,0:0:0:0:
376,204,75336,1,8,0:0:0:0:
357,215,75422,1,8,0:0:0:0:
339,227,75509,1,8,0:0:0:0:
235,132,75683,1,2,0:0:0:0:
235,132,76030,5,2,0:0:0:0:
434,117,76203,1,8,0:0:0:0:
347,296,76377,1,2,0:0:0:0:
226,101,76550,5,0,0:0:0:0:
464,125,76724,2,0,L|487:108,4,21.875,8|0|0|0|2,0:0|0:0|0:0|0:0|0:0,0:0:0:0:
324,318,77071,1,2,0:0:0:0:
174,18,77244,5,8,0:0:0:0:
512,216,77417,2,0,P|483:255|495:167,1,262.5,2|0,0:0|0:0,0:0:0:0:
256,192,94652,12,0,97509,0:0:0:0:
250,123,97985,5,8,0:0:0:0:
250,123,98224,1,0,0:0:0:0:
192,251,98462,6,0,P|238:256|283:244,1,70,6|0,0:0|0:0,0:0:0:0:
381,296,98938,1,8,0:0:0:0:
398,183,99176,2,0,P|403:131|331:80,1,140,2|2,0:0|0:0,0:0:0:0:
257,154,99890,1,8,0:0:0:0:
140,52,100128,6,0,P|153:94|151:133,1,70,0|2,0:0|0:0,0:0:0:0:
131,229,100604,2,0,P|132:263|144:296,1,70,0|8,0:0|0:0,0:0:0:0:
282,328,101081,2,0,P|331:268|277:207,1,140,2|0,0:0|0:0,0:0:0:0:
221,155,101795,1,8,0:0:0:0:
195,46,102033,6,0,P|244:106|190:167,1,140,0|0,0:0|0:0,0:0:0:0:
138,242,102747,2,0,P|121:275|119:327,1,70,8|2,0:0|0:0,0:0:0:0:
270,364,103224,1,0,0:0:0:0:
309,279,103462,1,2,0:0:0:0:
263,193,103700,1,8,0:0:0:0:
330,100,103938,6,0,L|349:194,1,70,0|2,0:0|0:0,0:0:0:0:
217,109,104414,2,0,L|236:15,1,70,0|8,0:0|0:0,0:0:0:0:
263,193,104890,2,0,L|282:287,1,70,2|0,0:0|0:0,0:0:0:0:
150,202,105366,1,0,0:0:0:0:
158,114,105604,1,12,0:0:0:0:
144,292,105843,6,0,P|166:322|207:348,1,70,0|2,0:0|0:0,0:0:0:0:
317,228,106319,2,0,P|295:258|254:284,1,70,0|8,0:0|0:0,0:0:0:0:
44,163,106795,2,0,P|66:193|107:219,1,70,2|0,0:0|0:0,0:0:0:0:
217,99,107271,2,0,P|195:129|154:155,1,70,2|8,0:0|0:0,0:0:0:0:
118,49,107747,1,0,0:0:0:0:
217,99,107985,6,0,P|221:147|298:200,1,140,2|8,0:0|0:0,0:0:0:0:
397,172,108700,2,0,P|430:204|435:245,1,70,2|0,0:0|0:0,0:0:0:0:
389,343,109176,1,0,0:0:0:0:
308,309,109414,1,8,0:0:0:0:
237,366,109652,6,0,P|197:354|161:321,1,70,0|2,0:0|0:0,0:0:0:0:
128,237,110128,1,0,0:0:0:0:
196,174,110366,1,8,0:0:0:0:
138,105,110604,2,0,P|109:85|75:76,1,70,2|0,0:0|0:0,0:0:0:0:
13,146,111081,1,2,0:0:0:0:
30,233,111319,1,8,0:0:0:0:
111,185,111557,6,0,P|123:233|226:253,1,140,0|0,0:0|0:0,0:0:0:0:
292,228,112271,1,8,0:0:0:0:
421,298,112509,2,0,P|427:249|418:223,1,70,2|0,0:0|0:0,0:0:0:0:
361,139,112985,1,2,0:0:0:0:
361,139,113104,1,2,0:0:0:0:
361,139,113223,1,8,0:0:0:0:
292,228,113462,1,2,0:0:0:0:
159,72,113700,6,0,L|177:201,1,105,6|0,0:0|0:0,0:0:0:0:
181,223,114176,1,8,0:0:0:0:
89,191,114414,1,2,0:0:0:0:
171,351,114652,1,0,0:0:0:0:
249,261,114890,1,2,0:0:0:0:
123,285,115128,1,8,0:0:0:0:
319,325,115366,6,0,P|366:281|352:197,1,140,0|0,0:0|0:0,0:0:0:0:
291,148,116081,1,8,0:0:0:0:
209,191,116319,2,0,P|188:155|184:125,1,70,2|0,0:0|0:0,0:0:0:0:
199,43,116795,1,0,0:0:0:0:
112,91,117033,1,8,0:0:0:0:
28,57,117271,1,0,0:0:0:0:
28,171,117509,6,0,P|42:205|72:227,1,70,2|0,0:0|0:0,0:0:0:0:
154,268,117985,2,0,P|180:289|193:322,1,70,8|2,0:0|0:0,0:0:0:0:
284,255,118462,1,0,0:0:0:0:
351,349,118700,1,2,0:0:0:0:
359,231,118938,1,8,0:0:0:0:
198,227,119176,6,0,P|214:276|284:225,1,140,0|0,0:0|0:0,0:0:0:0:
280,150,119890,1,8,0:0:0:0:
165,60,120128,2,0,P|162:102|179:148,1,70,2|0,0:0|0:0,0:0:0:0:
280,150,120604,1,0,0:0:0:0:
375,82,120843,1,12,0:0:0:0:
375,82,120962,1,0,0:0:0:0:
375,82,121081,1,0,0:0:0:0:
444,183,121319,5,2,0:0:0:0:
334,259,121557,2,0,P|298:279|265:283,1,70,0|8,0:0|0:0,0:0:0:0:
108,316,122033,2,0,P|144:296|177:292,1,70,2|0,0:0|0:0,0:0:0:0:
301,178,122509,2,0,P|265:198|232:202,1,70,2|8,0:0|0:0,0:0:0:0:
119,193,122985,1,0,0:0:0:0:
132,72,123223,6,0,P|166:107|182:35,1,140,2|8,0:0|0:0,0:0:0:0:
33,39,123938,2,0,P|33:91|46:128,1,70,2|0,0:0|0:0,0:0:0:0:
77,214,124414,1,0,0:0:0:0:
215,223,124652,1,8,0:0:0:0:
81,314,124890,1,0,0:0:0:0:
272,336,125128,5,6,0:0:0:0:
272,336,125366,2,0,L|280:279,1,52.5000020027161,0|0,0:0|0:0,0:0:0:0:
413,348,125843,2,0,L|397:234,2,105.000004005432,0|0|0,0:0|0:0|0:0,0:0:0:0:
413,348,128223,5,0,0:0:0:0:
317,300,128462,1,0,0:0:0:0:
232,363,128700,1,0,0:0:0:0:
186,219,128938,5,4,0:0:0:0:
90,57,142271,6,0,L|98:140,1,58.3333333333333,6|0,0:0|0:0,0:0:0:0:
98,144,142509,1,0,0:0:0:0:
195,84,142747,6,0,L|203:167,1,58.3333333333333,6|0,0:0|0:0,0:0:0:0:
203,171,142985,1,0,0:0:0:0:
300,111,143223,6,0,L|308:194,1,58.3333333333333,6|0,0:0|0:0,0:0:0:0:
308,198,143461,1,0,0:0:0:0:
405,138,143700,6,0,L|413:221,1,58.3333333333333,6|0,0:0|0:0,0:0:0:0:
413,225,143938,1,0,0:0:0:0:
294,338,144176,6,0,P|244:351|182:320,1,105.000004005432,6|0,0:0|0:0,0:0:0:0:
30,187,144652,2,0,P|80:174|142:205,1,105.000004005432,8|0,0:0|0:0,0:0:0:0:
221,254,145049,1,2,0:0:0:0:
221,254,145128,1,2,0:0:0:0:
331,201,145366,2,0,P|324:256|356:327,2,105.000004005432,2|8|0,0:0|0:0|0:0,0:0:0:0:
227,46,146081,6,0,L|252:153,1,105.000004005432,2|0,0:0|0:0,0:0:0:0:
49,110,146557,2,0,L|24:217,1,105.000004005432,8|0,0:0|0:0,0:0:0:0:
96,303,146954,1,2,0:0:0:0:
96,303,147033,1,2,0:0:0:0:
192,216,147271,1,2,0:0:0:0:
317,330,147509,1,8,0:0:0:0:
362,128,147747,1,0,0:0:0:0:
129,59,147985,6,0,P|168:91|226:85,1,105.000004005432,2|0,0:0|0:0,0:0:0:0:
283,187,148462,2,0,P|244:219|186:213,1,105.000004005432,8|0,0:0|0:0,0:0:0:0:
109,167,148858,1,2,0:0:0:0:
109,167,148938,1,2,0:0:0:0:
136,331,149176,1,2,0:0:0:0:
341,208,149414,1,8,0:0:0:0:
292,362,149652,1,0,0:0:0:0:
223,128,149890,6,0,P|267:129|326:83,2,105.000004005432,2|0|8,0:0|0:0|0:0,0:0:0:0:
83,96,150604,1,0,0:0:0:0:
52,196,150763,1,2,0:0:0:0:
52,196,150843,1,2,0:0:0:0:
197,240,151081,1,2,0:0:0:0:
52,295,151319,1,8,0:0:0:0:
197,142,151557,1,0,0:0:0:0:
83,96,151795,5,2,0:0:0:0:
278,66,152033,2,0,P|301:105|296:184,1,105.000004005432,0|8,0:0|0:0,0:0:0:0:
224,288,152509,1,0,0:0:0:0:
318,333,152668,1,2,0:0:0:0:
318,333,152747,1,2,0:0:0:0:
410,227,152985,1,2,0:0:0:0:
482,381,153223,1,8,0:0:0:0:
464,127,153462,1,0,0:0:0:0:
311,264,153700,5,2,0:0:0:0:
276,73,153938,2,0,P|243:98|180:94,1,105.000004005432,0|8,0:0|0:0,0:0:0:0:
66,31,154414,1,0,0:0:0:0:
8,107,154573,1,2,0:0:0:0:
8,107,154652,1,2,0:0:0:0:
138,186,154890,1,2,0:0:0:0:
26,298,155128,1,8,0:0:0:0:
167,357,155366,1,0,0:0:0:0:
314,211,155604,6,0,P|246:264|338:255,1,210.000008010865,2|8,0:0|0:0,0:0:0:0:
441,220,156319,1,0,0:0:0:0:
425,132,156477,1,2,0:0:0:0:
425,132,156557,1,2,0:0:0:0:
342,294,156795,1,2,0:0:0:0:
301,71,157033,1,8,0:0:0:0:
216,210,157271,1,0,0:0:0:0:
112,44,157509,6,0,L|100:142,1,70.0000026702882,6|0,0:0|0:0,0:0:0:0:
96,155,157747,1,0,0:0:0:0:
232,99,157985,6,0,L|220:197,1,70.0000026702882,6|0,0:0|0:0,0:0:0:0:
216,210,158223,1,0,0:0:0:0:
352,154,158462,6,0,L|340:252,1,70.0000026702882,6|0,0:0|0:0,0:0:0:0:
336,265,158700,1,0,0:0:0:0:
472,209,158858,1,0,0:0:0:0:
472,209,158938,6,0,L|460:307,1,70.0000026702882,6|0,0:0|0:0,0:0:0:0:
456,320,159176,1,0,0:0:0:0:
195,297,159414,5,6,0:0:0:0:
323,335,159652,1,0,0:0:0:0:
336,265,159771,1,0,0:0:0:0:
300,200,159890,2,0,P|247:226|194:179,1,105.000004005432,8|0,0:0|0:0,0:0:0:0:
136,104,160366,1,2,0:0:0:0:
279,48,160604,1,2,0:0:0:0:
339,80,160723,1,0,0:0:0:0:
403,59,160843,1,8,0:0:0:0:
444,117,160962,1,0,0:0:0:0:
415,183,161081,1,0,0:0:0:0:
452,245,161200,2,0,P|427:295|358:302,1,105.000004005432,0|0,0:0|0:0,0:0:0:0:
312,311,161557,5,0,0:0:0:0:
239,288,161676,1,0,0:0:0:0:
185,334,161795,1,8,0:0:0:0:
122,293,161914,1,0,0:0:0:0:
72,352,162033,1,0,0:0:0:0:
35,286,162152,2,0,P|53:230|55:176,1,105.000004005432,0|0,0:0|0:0,0:0:0:0:
43,116,162509,1,2,0:0:0:0:
104,76,162628,1,0,0:0:0:0:
169,106,162747,2,0,P|223:116|270:79,1,105.000004005432,8|0,0:0|0:0,0:0:0:0:
397,22,163223,5,2,0:0:0:0:
445,236,163462,1,0,0:0:0:0:
372,219,163581,1,0,0:0:0:0:
323,271,163700,1,8,0:0:0:0:
258,235,163819,1,0,0:0:0:0:
200,283,163938,1,0,0:0:0:0:
152,226,164057,1,0,0:0:0:0:
176,158,164176,1,2,0:0:0:0:
114,117,164295,1,0,0:0:0:0:
50,157,164414,1,2,0:0:0:0:
12,95,164533,1,0,0:0:0:0:
51,35,164652,2,0,P|86:38|119:28,2,52.5000020027161,8|0|0,0:0|0:0|0:0,0:0:0:0:
26,289,165128,5,2,0:0:0:0:
172,324,165366,1,0,0:0:0:0:
240,301,165485,1,0,0:0:0:0:
312,328,165604,1,8,0:0:0:0:
370,286,165723,1,0,0:0:0:0:
348,221,165843,1,0,0:0:0:0:
382,160,165962,1,0,0:0:0:0:
335,104,166081,1,2,0:0:0:0:
272,144,166200,1,0,0:0:0:0:
208,109,166319,1,2,0:0:0:0:
160,166,166438,1,0,0:0:0:0:
103,120,166557,2,0,P|43:119|22:81,1,105.000004005432,8|0,0:0|0:0,0:0:0:0:
245,20,167033,5,2,0:0:0:0:
304,293,167271,1,0,0:0:0:0:
320,224,167390,1,0,0:0:0:0:
286,158,167509,2,0,P|257:150|231:149,1,52.5000020027161,8|0,0:0|0:0,0:0:0:0:
353,100,167747,2,0,P|382:92|408:91,1,52.5000020027161,0|0,0:0|0:0,0:0:0:0:
452,217,167985,1,2,0:0:0:0:
388,255,168104,1,0,0:0:0:0:
320,224,168223,1,2,0:0:0:0:
253,253,168343,2,0,P|211:263|145:235,2,105.000004005432,0|0|0,0:0|0:0|0:0,0:0:0:0:
341,159,169057,5,0,0:0:0:0:
314,96,169176,1,0,0:0:0:0:
175,39,169414,1,8,0:0:0:0:
155,105,169533,1,0,0:0:0:0:
194,168,169652,1,0,0:0:0:0:
151,224,169771,1,0,0:0:0:0:
208,274,169890,1,2,0:0:0:0:
138,312,170009,1,0,0:0:0:0:
220,345,170128,1,2,0:0:0:0:
130,365,170247,2,0,P|67:345|39:313,2,105.000004005432,0|0|0,0:0|0:0|0:0,0:0:0:0:
328,355,170962,5,0,0:0:0:0:
351,288,171081,1,0,0:0:0:0:
320,222,171200,1,0,0:0:0:0:
334,156,171319,2,0,P|328:129|332:99,3,52.5000020027161,8|0|0|0,0:0|0:0|0:0|0:0,0:0:0:0:
184,29,171914,1,0,0:0:0:0:
161,96,172033,1,2,0:0:0:0:
192,162,172152,1,0,0:0:0:0:
178,234,172271,1,8,0:0:0:0:
244,273,172390,1,0,0:0:0:0:
297,219,172509,1,0,0:0:0:0:
70,96,172747,6,0,P|112:107|153:99,1,70.0000026702882,6|0,0:0|0:0,0:0:0:0:
161,96,172985,1,0,0:0:0:0:
375,120,173223,6,0,P|333:131|292:123,1,70.0000026702882,6|0,0:0|0:0,0:0:0:0:
284,120,173461,1,0,0:0:0:0:
59,186,173700,6,0,P|101:197|142:189,1,70.0000026702882,6|0,0:0|0:0,0:0:0:0:
150,186,173938,1,0,0:0:0:0:
364,210,174176,6,0,P|322:221|281:213,1,70.0000026702882,6|0,0:0|0:0,0:0:0:0:
273,210,174414,1,0,0:0:0:0:
138,290,174652,6,0,L|151:167,1,105.000004005432,6|0,0:0|0:0,0:0:0:0:
375,314,175128,2,0,L|362:191,1,105.000004005432,8|0,0:0|0:0,0:0:0:0:
309,127,175525,1,2,0:0:0:0:
309,127,175604,1,2,0:0:0:0:
238,231,175843,1,2,0:0:0:0:
174,95,176081,1,8,0:0:0:0:
107,258,176319,1,0,0:0:0:0:
352,360,176557,6,0,P|359:299|341:237,1,105.000004005432,2|0,0:0|0:0,0:0:0:0:
306,23,177033,2,0,P|299:84|317:146,1,105.000004005432,8|0,0:0|0:0,0:0:0:0:
398,143,177430,1,2,0:0:0:0:
398,143,177509,1,2,0:0:0:0:
349,256,177747,1,2,0:0:0:0:
212,155,177985,1,8,0:0:0:0:
81,280,178223,1,0,0:0:0:0:
34,44,178462,6,0,P|118:60|149:92,1,105.000004005432,2|0,0:0|0:0,0:0:0:0:
212,155,178938,1,8,0:0:0:0:
180,300,179176,1,0,0:0:0:0:
272,345,179335,1,2,0:0:0:0:
272,345,179414,1,2,0:0:0:0:
367,217,179652,1,2,0:0:0:0:
212,155,179890,1,8,0:0:0:0:
395,77,180128,1,0,0:0:0:0:
120,40,180366,6,0,P|114:76|70:137,2,105.000004005432,2|0|8,0:0|0:0|0:0,0:0:0:0:
212,155,181081,1,0,0:0:0:0:
281,76,181239,1,2,0:0:0:0:
281,76,181319,1,2,0:0:0:0:
350,298,181557,1,2,0:0:0:0:
429,141,181795,1,8,0:0:0:0:
212,155,182033,1,0,0:0:0:0:
160,338,182271,5,2,0:0:0:0:
39,235,182509,2,0,L|75:113,1,105.000004005432,0|8,0:0|0:0,0:0:0:0:
212,155,182985,1,0,0:0:0:0:
168,72,183144,1,2,0:0:0:0:
168,72,183223,1,2,0:0:0:0:
154,256,183462,1,2,0:0:0:0:
325,120,183700,1,8,0:0:0:0:
352,324,183938,1,0,0:0:0:0:
154,256,184176,6,0,P|143:207|154:132,1,105.000004005432,2|0,0:0|0:0,0:0:0:0:
345,220,184652,2,0,P|356:269|345:344,1,105.000004005432,8|0,0:0|0:0,0:0:0:0:
260,359,185049,1,2,0:0:0:0:
260,359,185128,1,2,0:0:0:0:
215,198,185366,1,2,0:0:0:0:
136,342,185604,1,8,0:0:0:0:
99,185,185843,1,0,0:0:0:0:
282,101,186081,5,2,0:0:0:0:
121,263,186319,2,0,P|69:279|20:300,1,105.000004005432,0|8,0:0|0:0,0:0:0:0:
136,342,186795,1,0,0:0:0:0:
213,291,186954,1,2,0:0:0:0:
213,291,187033,1,2,0:0:0:0:
344,353,187271,1,2,0:0:0:0:
339,179,187509,1,8,0:0:0:0:
264,351,187747,1,0,0:0:0:0:
173,128,187985,5,2,0:0:0:0:
178,362,188223,2,0,P|136:368|83:329,1,105.000004005432,0|8,0:0|0:0,0:0:0:0:
88,183,188700,1,0,0:0:0:0:
173,128,188858,1,2,0:0:0:0:
173,128,188937,1,2,0:0:0:0:
78,294,189176,1,2,0:0:0:0:
288,154,189414,1,8,0:0:0:0:
206,339,189652,1,0,0:0:0:0:
346,271,189890,5,2,0:0:0:0:
196,59,190128,2,0,P|266:70|279:32,1,105.000004005432,0|8,0:0|0:0,0:0:0:0:
201,284,190604,1,0,0:0:0:0:
137,211,190763,1,2,0:0:0:0:
137,211,190843,1,2,0:0:0:0:
117,354,191081,1,2,0:0:0:0:
235,190,191319,1,8,0:0:0:0:
58,292,191557,1,0,0:0:0:0:
269,347,191795,5,2,0:0:0:0:
137,211,192033,2,0,P|88:149|96:98,1,105.000004005432,0|8,0:0|0:0,0:0:0:0:
169,28,192509,1,0,0:0:0:0:
261,76,192668,1,2,0:0:0:0:
261,76,192747,1,2,0:0:0:0:
397,23,192985,1,2,0:0:0:0:
243,176,193223,1,8,0:0:0:0:
477,247,193462,1,0,0:0:0:0:
192,352,193700,6,0,P|99:300|138:208,1,210.000008010865,2|8,0:0|0:0,0:0:0:0:
243,176,194414,1,0,0:0:0:0:
318,251,194573,1,2,0:0:0:0:
318,251,194652,1,2,0:0:0:0:
368,112,194890,1,2,0:0:0:0:
429,298,195128,1,8,0:0:0:0:
466,68,195366,1,0,0:0:0:0:
173,352,195604,6,0,P|163:302|170:261,1,70.0000026702882,6|0,0:0|0:0,0:0:0:0:
176,250,195843,1,0,0:0:0:0:
359,278,196081,6,0,P|369:228|362:187,1,70.0000026702882,6|0,0:0|0:0,0:0:0:0:
356,176,196320,1,0,0:0:0:0:
74,251,196557,6,0,P|64:201|71:160,1,70.0000026702882,6|0,0:0|0:0,0:0:0:0:
77,149,196796,1,0,0:0:0:0:
260,177,197033,6,0,P|270:127|263:86,1,70.0000026702882,6|0,0:0|0:0,0:0:0:0:
257,75,197271,1,0,0:0:0:0:
132,364,197509,5,6,0:0:0:0:
256,192,197589,12,0,201795,0:0:0:0:
165,89,202647,6,0,L|161:179,1,70,0|0,0:0|0:0,0:0:0:0:
156,238,203056,1,0,0:0:0:0:
156,238,203329,6,0,P|193:263|225:268,1,70,8|8,0:0|0:0,0:0:0:0:
360,150,203874,2,0,P|323:175|291:180,1,70,8|8,0:0|0:0,0:0:0:0:
112,72,204419,2,0,P|149:97|181:102,1,70,8|8,0:0|0:0,0:0:0:0:
248,90,204829,1,0,0:0:0:0:
248,90,205101,1,0,0:0:0:0:
188,178,205238,1,8,0:0:0:0:
188,178,205510,6,0,L|188:228,1,35,8|0,0:0|0:0,0:0:0:0:
271,304,205783,2,0,L|271:269,1,35,8|0,0:0|0:0,0:0:0:0:
300,140,206056,2,0,L|300:190,1,35,8|0,0:0|0:0,0:0:0:0:
383,266,206329,2,0,L|383:231,1,35,8|0,0:0|0:0,0:0:0:0:
412,102,206601,2,0,P|388:59|383:21,1,70,8|8,0:0|0:0,0:0:0:0:
314,9,207010,2,0,P|304:42|285:71,1,70,0|0,0:0|0:0,0:0:0:0:
221,120,207419,1,8,0:0:0:0:
221,120,207692,6,0,L|214:204,1,70,8|8,0:0|0:0,0:0:0:0:
305,350,208238,2,0,L|298:266,1,70,8|8,0:0|0:0,0:0:0:0:
356,89,208783,2,0,L|349:173,1,70,8|8,0:0|0:0,0:0:0:0:
348,229,209192,2,0,P|392:249|423:237,1,70,0|0,0:0|0:0,0:0:0:0:
468,194,209601,1,8,0:0:0:0:
468,194,209874,6,0,P|467:173|462:157,1,35,8|0,0:0|0:0,0:0:0:0:
375,41,210147,2,0,P|376:62|381:78,1,35,8|0,0:0|0:0,0:0:0:0:
348,229,210419,2,0,P|347:208|342:192,1,35,8|0,0:0|0:0,0:0:0:0:
255,76,210692,2,0,P|256:97|261:113,1,35,8|0,0:0|0:0,0:0:0:0:
228,264,210965,1,8,0:0:0:0:
228,264,211374,6,0,P|203:312|114:297,1,140,0|0,0:0|0:0,0:0:0:0:
105,238,211783,6,0,P|102:191|40:233,1,140,0|0,0:0|0:0,0:0:0:0:
45,316,212056,5,0,0:0:0:0:
339,306,220783,5,0,0:0:0:0:
339,306,221056,2,0,P|338:272|331:249,1,52.5000020027161,8|0,0:0|0:0,0:0:0:0:
238,196,221329,1,0,0:0:0:0:
238,196,221601,2,0,P|231:170|232:144,1,52.5000020027161,8|0,0:0|0:0,0:0:0:0:
267,43,221874,5,0,0:0:0:0:
354,105,222010,1,0,0:0:0:0:
267,43,222147,1,8,0:0:0:0:
354,105,222283,1,8,0:0:0:0:
267,43,222419,1,0,0:0:0:0:
354,105,222556,2,0,P|359:133|356:183,1,52.5000020027161,0|8,0:0|0:0,0:0:0:0:
184,290,222829,6,0,P|186:226|137:210,1,105.000004005432,0|0,0:0|0:0,0:0:0:0:
76,232,223238,1,8,0:0:0:0:
76,82,223510,2,0,L|189:102,1,105.000004005432,0|8,0:0|0:0,0:0:0:0:
184,290,224056,2,0,L|297:270,1,105.000004005432,0|8,0:0|0:0,0:0:0:0:
283,53,224601,1,0,0:0:0:0:
433,242,224874,2,0,P|446:189|432:136,1,105.000004005432,8|0,0:0|0:0,0:0:0:0:
283,53,225419,6,0,P|288:88|284:119,1,52.5000020027161,8|0,0:0|0:0,0:0:0:0:
213,196,225692,1,0,0:0:0:0:
213,196,225965,2,0,P|212:222|216:247,1,52.5000020027161,8|0,0:0|0:0,0:0:0:0:
328,333,226238,5,0,0:0:0:0:
349,249,226374,1,0,0:0:0:0:
328,333,226510,1,8,0:0:0:0:
349,249,226647,1,8,0:0:0:0:
328,333,226783,1,0,0:0:0:0:
349,249,226919,2,0,P|342:208|346:180,1,52.5000020027161,0|8,0:0|0:0,0:0:0:0:
339,93,227192,6,0,P|289:129|217:119,1,105.000004005432,0|0,0:0|0:0,0:0:0:0:
168,98,227601,1,8,0:0:0:0:
176,228,227874,2,0,P|226:264|298:254,2,105.000004005432,0|8|0,0:0|0:0|0:0,0:0:0:0:
168,98,228692,1,8,0:0:0:0:
176,228,228965,2,0,P|126:192|54:202,1,105.000004005432,0|8,0:0|0:0,0:0:0:0:
178,356,229510,5,4,0:0:0:0:
322,341,229783,2,0,P|317:313|317:288,1,52.5000020027161,8|0,0:0|0:0,0:0:0:0:
329,212,230056,2,0,P|328:185|323:160,2,52.5000020027161,0|0|8,0:0|0:0|0:0,0:0:0:0:
322,341,230601,5,0,0:0:0:0:
178,326,230874,2,0,P|183:298|183:273,1,52.5000020027161,8|8,0:0|0:0,0:0:0:0:
171,197,231147,2,0,P|171:170|176:145,2,52.5000020027161,0|0|8,0:0|0:0|0:0,0:0:0:0:
329,212,231692,5,0,0:0:0:0:
319,63,231965,2,0,P|343:71|376:77,1,52.5000020027161,8|0,0:0|0:0,0:0:0:0:
419,143,232238,2,0,P|444:148|469:156,2,52.5000020027161,0|0|8,0:0|0:0|0:0,0:0:0:0:
183,212,232783,5,0,0:0:0:0:
193,63,233056,2,0,P|169:71|136:77,1,52.5000020027161,8|8,0:0|0:0,0:0:0:0:
93,143,233329,2,0,P|67:148|42:156,2,52.5000020027161,0|0|8,0:0|0:0|0:0,0:0:0:0:
348,312,233874,5,0,0:0:0:0:
348,72,234147,1,8,0:0:0:0:
289,237,234419,5,0,0:0:0:0:
289,147,234556,1,0,0:0:0:0:
289,237,234692,1,8,0:0:0:0:
196,158,234965,5,0,0:0:0:0:
196,226,235101,1,0,0:0:0:0:
196,158,235238,1,8,0:0:0:0:
103,214,235510,5,0,0:0:0:0:
103,170,235647,2,0,P|123:117|114:53,1,105.000004005432,0|0,0:0|0:0,0:0:0:0:
91,37,236056,5,0,0:0:0:0:
283,57,236329,1,8,0:0:0:0:
205,245,236601,5,0,0:0:0:0:
280,185,236738,1,0,0:0:0:0:
193,143,236874,1,8,0:0:0:0:
301,325,237147,5,0,0:0:0:0:
185,256,237283,1,0,0:0:0:0:
306,166,237419,1,8,0:0:0:0:
193,143,237692,5,0,0:0:0:0:
280,185,237829,2,0,L|272:76,1,105.000004005432,0|0,0:0|0:0,0:0:0:0:
266,3,238238,5,4,0:0:0:0:
346,220,241510,5,8,0:0:0:0:
331,233,241578,1,8,0:0:0:0:
314,242,241646,1,8,0:0:0:0:
295,247,241714,1,8,0:0:0:0:
275,248,241782,1,8,0:0:0:0:
196,195,241919,1,8,0:0:0:0:
122,268,242056,1,2,0:0:0:0:
74,164,242192,1,2,0:0:0:0:
307,58,242465,5,2,0:0:0:0:
341,343,244783,5,2,0:0:0:0:
308,188,245056,1,0,0:0:0:0:
214,331,245329,1,2,0:0:0:0:
222,155,245601,1,0,0:0:0:0:
266,256,245874,5,8,0:0:0:0:
222,155,246010,1,8,0:0:0:0:
146,258,246147,1,8,0:0:0:0:
152,119,246283,1,8,0:0:0:0:
28,191,246419,1,2,0:0:0:0:
102,66,246556,2,0,P|156:37|139:5,1,105.000004005432,2|2,0:0|0:0,0:0:0:0:
297,25,246965,6,0,P|292:47|297:82,1,52.5000020027161,6|0,0:0|0:0,0:0:0:0:
366,233,247238,2,0,P|371:211|366:176,1,52.5000020027161,8|0,0:0|0:0,0:0:0:0:
181,93,247510,2,0,P|176:115|181:150,1,52.5000020027161,2|0,0:0|0:0,0:0:0:0:
250,301,247783,2,0,P|255:279|250:244,1,52.5000020027161,8|0,0:0|0:0,0:0:0:0:
30,320,248056,6,0,L|27:260,1,52.5000020027161,2|0,0:0|0:0,0:0:0:0:
139,372,248329,2,0,L|142:312,1,52.5000020027161,8|8,0:0|0:0,0:0:0:0:
250,301,248601,2,0,L|247:241,1,52.5000020027161,2|0,0:0|0:0,0:0:0:0:
363,363,248874,2,0,L|369:243,1,105.000004005432,8|2,0:0|0:0,0:0:0:0:
397,72,249419,5,8,0:0:0:0:
397,72,249556,2,0,P|371:86|344:93,1,52.5000020027161,0|2,0:0|0:0,0:0:0:0:
192,107,249829,1,0,0:0:0:0:
192,107,249966,2,0,P|218:121|245:128,1,52.5000020027161,8|0,0:0|0:0,0:0:0:0:
378,186,250238,1,2,0:0:0:0:
378,186,250375,2,0,P|352:200|325:207,1,52.5000020027161,0|0,0:0|0:0,0:0:0:0:
173,221,250647,2,0,P|170:278|139:324,2,105.000004005432,8|0|0,0:0|0:0|0:0,0:0:0:0:
129,144,251329,6,0,L|2:171,1,105.000004005432,2|8,0:0|0:0,0:0:0:0:
277,62,251874,2,0,L|150:35,1,105.000004005432,2|8,0:0|0:0,0:0:0:0:
174,219,252419,2,0,L|225:208,1,52.5000020027161,2|0,0:0|0:0,0:0:0:0:
365,154,252692,2,0,L|301:140,1,52.5000020027161,8|8,0:0|0:0,0:0:0:0:
245,284,252965,2,0,L|347:262,1,105.000004005432,2|8,0:0|0:0,0:0:0:0:
101,82,253510,5,2,0:0:0:0:
101,82,253647,2,0,P|99:102|111:150,1,52.5000020027161,0|0,0:0|0:0,0:0:0:0:
210,180,253919,2,0,P|212:160|200:112,1,52.5000020027161,0|0,0:0|0:0,0:0:0:0:
300,49,254192,1,0,0:0:0:0:
300,49,254329,2,0,P|298:69|310:117,1,52.5000020027161,0|0,0:0|0:0,0:0:0:0:
410,132,254601,2,0,P|410:187|368:218,1,105.000004005432,0|0,0:0|0:0,0:0:0:0:
301,242,255010,6,0,L|178:272,1,105.000004005432,0|0,0:0|0:0,0:0:0:0:
124,286,255419,1,0,0:0:0:0:
141,39,255692,5,8,0:0:0:0:
165,48,256238,1,8,0:0:0:0:
189,58,256783,1,8,0:0:0:0:
179,163,257192,2,0,P|211:93|209:44,1,105.000004005432,0|0,0:0|0:0,0:0:0:0:
290,117,257601,1,0,0:0:0:0:
392,204,257874,5,8,0:0:0:0:
290,117,258147,1,0,0:0:0:0:
397,181,258419,1,8,0:0:0:0:
281,273,258692,1,0,0:0:0:0:
346,326,258829,1,0,0:0:0:0:
268,288,258965,1,8,0:0:0:0:
77,326,259374,2,0,P|89:270|86:197,1,105.000004005432,0|0,0:0|0:0,0:0:0:0:
72,148,259783,1,0,0:0:0:0:
103,307,260056,5,8,0:0:0:0:
112,283,260602,1,8,0:0:0:0:
122,259,261147,1,8,0:0:0:0:
231,260,261556,2,0,L|112:230,1,105.000004005432,0|0,0:0|0:0,0:0:0:0:
59,209,261965,1,0,0:0:0:0:
224,74,262238,5,8,0:0:0:0:
370,131,262510,1,8,0:0:0:0:
196,155,262783,5,8,0:0:0:0:
400,48,263056,1,8,0:0:0:0:
128,46,263329,5,8,0:0:0:0:
128,46,263738,6,0,B|136:118|136:118|108:185,1,140,0|0,0:0|0:0,0:0:0:0:
53,239,264147,6,0,P|105:314|118:246,1,140,0|0,0:0|0:0,0:0:0:0:
190,263,264419,5,6,0:0:0:0:
190,263,264556,2,0,L|199:337,1,70,0|8,0:0|0:0,0:0:0:0:
326,209,264829,1,0,0:0:0:0:
326,209,264966,2,0,L|317:283,1,70,6|0,0:0|0:0,0:0:0:0:
110,128,265238,1,8,0:0:0:0:
110,128,265375,2,0,L|124:227,1,70,0|6,0:0|0:0,0:0:0:0:
246,74,265648,1,0,0:0:0:0:
246,74,265783,5,8,0:0:0:0:
319,155,265919,1,8,0:0:0:0:
213,180,266056,1,2,0:0:0:0:
291,256,266192,1,0,0:0:0:0:
178,288,266329,2,0,P|141:284|94:300,1,70,8|0,0:0|0:0,0:0:0:0:
92,91,266601,5,6,0:0:0:0:
92,91,266738,2,0,P|120:116|155:130,1,70,0|8,0:0|0:0,0:0:0:0:
327,139,267010,1,0,0:0:0:0:
327,139,267147,2,0,P|299:164|264:178,1,70,6|0,0:0|0:0,0:0:0:0:
47,223,267419,1,8,0:0:0:0:
47,223,267556,2,0,P|75:248|110:262,1,70,0|6,0:0|0:0,0:0:0:0:
282,271,267828,1,0,0:0:0:0:
282,271,267965,5,8,0:0:0:0:
349,330,268101,1,8,0:0:0:0:
416,204,268238,1,2,0:0:0:0:
424,287,268374,1,0,0:0:0:0:
320,184,268510,2,0,P|305:148|283:121,1,70,8|0,0:0|0:0,0:0:0:0:
110,61,268783,5,6,0:0:0:0:
110,61,268919,2,0,P|107:86|113:139,1,70,0|8,0:0|0:0,0:0:0:0:
238,198,269192,1,0,0:0:0:0:
238,198,269328,2,0,P|213:195|160:201,1,70,6|0,0:0|0:0,0:0:0:0:
101,326,269602,1,8,0:0:0:0:
101,326,269738,2,0,P|104:301|98:248,1,70,0|6,0:0|0:0,0:0:0:0:
228,340,270010,1,0,0:0:0:0:
228,340,270147,5,8,0:0:0:0:
292,278,270283,1,8,0:0:0:0:
364,336,270419,1,2,0:0:0:0:
430,275,270556,1,0,0:0:0:0:
364,211,270692,2,0,P|352:175|352:135,1,70,8|0,0:0|0:0,0:0:0:0:
220,49,270965,5,6,0:0:0:0:
220,49,271101,2,0,L|217:126,1,70,0|8,0:0|0:0,0:0:0:0:
93,124,271374,1,0,0:0:0:0:
93,124,271510,2,0,L|96:201,1,70,6|0,0:0|0:0,0:0:0:0:
292,178,271783,1,8,0:0:0:0:
292,178,271919,2,0,L|289:255,1,70,0|6,0:0|0:0,0:0:0:0:
165,253,272192,1,0,0:0:0:0:
165,253,272329,1,8,0:0:0:0:
57,358,272465,6,0,B|73:321|54:291|54:291|35:257|46:223,1,140,8|0,0:0|0:0,0:0:0:0:
111,182,272874,6,0,P|118:136|49:165,1,140,8|0,0:0|0:0,0:0:0:0:
185,338,273147,5,6,0:0:0:0:
247,257,273283,2,0,L|236:176,1,70,0|8,0:0|0:0,0:0:0:0:
388,296,273556,5,0,0:0:0:0:
326,215,273692,2,0,L|337:134,1,70,6|0,0:0|0:0,0:0:0:0:
175,268,273965,5,8,0:0:0:0:
237,187,274101,2,0,L|226:106,1,70,0|6,0:0|0:0,0:0:0:0:
326,215,274374,1,0,0:0:0:0:
428,109,274510,5,8,0:0:0:0:
453,203,274647,1,8,0:0:0:0:
434,300,274783,1,2,0:0:0:0:
329,304,274919,1,0,0:0:0:0:
241,352,275056,2,0,P|202:357|166:355,1,70,8|0,0:0|0:0,0:0:0:0:
63,167,275329,5,6,0:0:0:0:
30,266,275465,2,0,P|64:275|104:274,1,70,0|8,0:0|0:0,0:0:0:0:
260,99,275738,5,0,0:0:0:0:
293,198,275874,2,0,P|259:207|219:206,1,70,6|0,0:0|0:0,0:0:0:0:
96,68,276147,5,8,0:0:0:0:
63,167,276283,2,0,P|97:176|137:175,1,70,0|6,0:0|0:0,0:0:0:0:
260,99,276556,1,0,0:0:0:0:
399,224,276692,6,0,P|398:180|394:149,1,70,8|8,0:0|0:0,0:0:0:0:
302,323,276965,1,2,0:0:0:0:
417,355,277101,1,0,0:0:0:0:
495,264,277238,1,8,0:0:0:0:
411,342,277374,1,0,0:0:0:0:
300,311,277510,5,6,0:0:0:0:
200,364,277647,2,0,P|160:368|124:364,1,70,0|8,0:0|0:0,0:0:0:0:
273,204,277919,5,0,0:0:0:0:
173,257,278056,2,0,P|133:261|97:257,1,70,6|0,0:0|0:0,0:0:0:0:
70,142,278329,5,8,0:0:0:0:
175,131,278465,2,0,P|206:115|234:95,1,70,0|6,0:0|0:0,0:0:0:0:
302,27,278738,1,0,0:0:0:0:
433,81,278874,5,8,0:0:0:0:
408,191,279010,1,8,0:0:0:0:
295,170,279147,1,2,0:0:0:0:
189,227,279283,1,0,0:0:0:0:
73,206,279419,2,0,P|55:243|49:286,1,70,8|0,0:0|0:0,0:0:0:0:
171,342,279692,5,6,0:0:0:0:
189,227,279829,2,0,P|226:258|252:270,1,70,0|8,0:0|0:0,0:0:0:0:
308,68,280101,5,0,0:0:0:0:
295,170,280238,2,0,P|258:139|232:127,1,70,6|0,0:0|0:0,0:0:0:0:
144,122,280510,5,8,0:0:0:0:
73,206,280647,2,0,P|110:237|136:249,1,70,0|6,0:0|0:0,0:0:0:0:
232,240,280919,1,0,0:0:0:0:
138,336,281056,1,8,0:0:0:0:
367,350,281192,6,0,B|342:315|342:315|357:211,1,140,8|0,0:0|0:0,0:0:0:0:
353,128,281601,6,0,B|327:153|289:146|289:146|254:139|222:163,1,140,8|0,0:0|0:0,0:0:0:0:
167,236,281874,5,6,0:0:0:0:
256,192,298374,12,0,300692,0:0:0:0:
209,79,300829,6,0,P|221:115|224:146,1,52.5000020027161,0|0,0:0|0:0,0:0:0:0:
217,201,301238,1,0,0:0:0:0:
217,201,301510,6,0,P|228:227|266:267,1,70,6|0,0:0|0:0,0:0:0:0:
364,300,301783,1,8,0:0:0:0:
364,300,301919,1,0,0:0:0:0:
401,159,302056,6,0,P|390:185|352:225,1,70,6|0,0:0|0:0,0:0:0:0:
254,258,302329,1,8,0:0:0:0:
254,258,302465,1,0,0:0:0:0:
172,89,302601,6,0,L|162:173,1,70,6|0,0:0|0:0,0:0:0:0:
149,235,302874,1,8,0:0:0:0:
280,34,303010,6,0,L|290:118,1,70,8|2,0:0|0:0,0:0:0:0:
303,180,303283,1,0,0:0:0:0:
407,56,303419,2,0,L|397:140,1,70,8|0,0:0|0:0,0:0:0:0:
381,304,303692,6,0,P|345:316|312:319,1,70,6|0,0:0|0:0,0:0:0:0:
188,264,303965,2,0,P|224:252|257:249,1,70,8|0,0:0|0:0,0:0:0:0:
171,352,304238,2,0,P|135:364|102:367,1,70,6|0,0:0|0:0,0:0:0:0:
53,281,304510,1,8,0:0:0:0:
83,189,304647,1,0,0:0:0:0:
43,98,304783,6,0,L|113:107,1,70,6|0,0:0|0:0,0:0:0:0:
192,122,305056,1,8,0:0:0:0:
148,254,305192,6,0,L|218:245,1,70,8|2,0:0|0:0,0:0:0:0:
297,230,305465,1,0,0:0:0:0:
289,333,305601,6,0,L|359:342,1,70,8|0,0:0|0:0,0:0:0:0:
411,148,305874,6,0,P|407:182|416:218,1,70,6|0,0:0|0:0,0:0:0:0:
465,303,306147,1,8,0:0:0:0:
465,303,306283,1,0,0:0:0:0:
351,75,306419,6,0,P|355:109|346:145,1,70,6|0,0:0|0:0,0:0:0:0:
297,230,306692,1,8,0:0:0:0:
297,230,306828,1,0,0:0:0:0:
155,33,306965,6,0,P|151:67|160:103,1,70,6|0,0:0|0:0,0:0:0:0:
209,188,307238,1,8,0:0:0:0:
54,242,307374,6,0,P|88:246|124:237,1,70,8|2,0:0|0:0,0:0:0:0:
209,188,307647,1,0,0:0:0:0:
263,343,307783,2,0,P|267:309|258:273,1,70,8|0,0:0|0:0,0:0:0:0:
395,99,308056,6,0,L|320:112,1,70,6|0,0:0|0:0,0:0:0:0:
453,215,308329,2,0,L|378:202,1,70,8|0,0:0|0:0,0:0:0:0:
295,307,308601,2,0,L|363:295,1,70,6|0,0:0|0:0,0:0:0:0:
277,199,308874,2,0,L|202:186,1,70,8|0,0:0|0:0,0:0:0:0:
100,290,309147,5,6,0:0:0:0:
121,194,309283,1,0,0:0:0:0:
86,100,309419,1,8,0:0:0:0:
238,76,309556,6,0,P|215:88|239:31,1,140,8|0,0:0|0:0,0:0:0:0:
289,22,309965,6,0,B|331:36|331:36|336:99|373:150,1,140,8|0,0:0|0:0,0:0:0:0:
385,261,310238,6,0,P|354:270|319:259,1,70,6|0,0:0|0:0,0:0:0:0:
304,177,310510,1,8,0:0:0:0:
403,182,310647,1,0,0:0:0:0:
237,342,310783,6,0,P|268:351|303:340,1,70,6|0,0:0|0:0,0:0:0:0:
318,258,311055,1,8,0:0:0:0:
219,263,311192,1,0,0:0:0:0:
444,342,311329,6,0,P|414:351|378:340,1,70,6|0,0:0|0:0,0:0:0:0:
318,258,311601,1,8,0:0:0:0:
469,184,311738,6,0,P|439:193|403:182,1,70,8|2,0:0|0:0,0:0:0:0:
343,100,312010,1,0,0:0:0:0:
237,179,312147,2,0,P|267:188|303:177,1,70,8|0,0:0|0:0,0:0:0:0:
98,80,312419,6,0,L|94:154,1,70,6|0,0:0|0:0,0:0:0:0:
237,179,312692,2,0,L|241:253,1,70,8|0,0:0|0:0,0:0:0:0:
377,342,312965,2,0,L|380:272,1,70,6|0,0:0|0:0,0:0:0:0:
425,172,313238,1,8,0:0:0:0:
390,71,313374,1,0,0:0:0:0:
299,151,313510,6,0,P|266:172|221:179,1,70,6|0,0:0|0:0,0:0:0:0:
184,80,313783,1,8,0:0:0:0:
121,249,313919,6,0,P|154:270|199:277,1,70,8|2,0:0|0:0,0:0:0:0:
236,178,314192,1,0,0:0:0:0:
298,347,314329,2,0,P|265:368|220:375,1,70,8|0,0:0|0:0,0:0:0:0:
379,107,314601,6,0,L|371:184,1,70,6|0,0:0|0:0,0:0:0:0:
453,277,314874,1,8,0:0:0:0:
441,178,315010,1,0,0:0:0:0:
298,347,315147,6,0,L|290:270,1,70,6|0,0:0|0:0,0:0:0:0:
372,177,315420,1,8,0:0:0:0:
360,276,315556,1,0,0:0:0:0:
216,107,315692,6,0,L|208:184,1,70,6|0,0:0|0:0,0:0:0:0:
290,277,315965,1,8,0:0:0:0:
278,178,316101,1,8,0:0:0:0:
188,315,316238,5,2,0:0:0:0:
306,355,316374,1,0,0:0:0:0:
411,296,316510,1,8,0:0:0:0:
368,200,316647,1,0,0:0:0:0:
379,90,316783,6,0,P|340:94|296:80,1,70,2|0,0:0|0:0,0:0:0:0:
236,63,317192,1,2,0:0:0:0:
236,63,317329,1,2,0:0:0:0:
190,196,317601,1,2,0:0:0:0:
112,71,317874,2,0,P|83:96|66:132,1,70,2|0,0:0|0:0,0:0:0:0:
48,213,318283,6,0,P|102:256|48:259,1,140,0|0,0:0|0:0,0:0:0:0:
56,342,318692,6,0,B|132:348|132:348|171:280,1,140,0|0,0:0|0:0,0:0:0:0:
203,195,318965,5,6,0:0:0:0:
256,192,319101,12,0,324419,0:0:0:0:
197,95,332140,5,0,0:0:0:0:
209,263,332530,1,0,0:0:0:0:
209,263,332627,2,0,P|248:275|280:275,1,52.5000020027161,0|0,0:0|0:0,0:0:0:0:
300,270,332919,1,0,0:0:0:0:
300,270,333309,1,0,0:0:0:0:
394,352,333504,1,0,0:0:0:0:
440,157,333699,5,0,0:0:0:0:
377,232,333894,1,0,0:0:0:0:
352,123,334088,1,0,0:0:0:0:
470,264,334283,1,0,0:0:0:0:
470,264,335257,5,0,0:0:0:0:
360,334,335647,1,0,0:0:0:0:
360,334,335744,2,0,L|302:342,1,52.5000020027161,0|0,0:0|0:0,0:0:0:0:
263,347,336036,1,0,0:0:0:0:
263,347,336426,1,0,0:0:0:0:
223,250,336621,1,0,0:0:0:0:
137,346,336816,5,6,0:0:0:0:
148,159,337010,1,0,0:0:0:0:
303,298,337205,5,6,0:0:0:0:
250,96,337400,1,0,0:0:0:0:
97,262,337595,5,6,0:0:0:0:
321,177,337790,1,0,0:0:0:0:
89,84,337984,5,6,0:0:0:0:
228,307,338179,1,0,0:0:0:0:
343,55,338374,5,8,0:0:0:0:
343,55,338764,2,0,P|328:110|376:139,1,105.000004005432,8|8,0:0|0:0,0:0:0:0:
359,137,339543,1,8,0:0:0:0:
436,206,339738,1,0,0:0:0:0:
372,294,339932,6,0,L|359:348,2,52.5000020027161,8|0|8,0:0|0:0|0:0,0:0:0:0:
301,218,340517,1,0,0:0:0:0:
301,218,340907,1,0,0:0:0:0:
246,290,341101,1,8,0:0:0:0:
200,215,341296,1,0,0:0:0:0:
137,296,341491,5,8,0:0:0:0:
105,195,341686,1,0,0:0:0:0:
182,130,341881,1,8,0:0:0:0:
75,101,342075,1,0,0:0:0:0:
211,49,342270,2,0,P|254:64|275:62,1,52.5000020027161,8|0,0:0|0:0,0:0:0:0:
383,156,342660,2,0,P|340:141|319:143,1,52.5000020027161,8|0,0:0|0:0,0:0:0:0:
188,224,343049,6,0,P|220:246|235:193,1,105.000004005432,8|8,0:0|0:0,0:0:0:0:
183,137,343829,1,8,0:0:0:0:
183,137,344218,1,8,0:0:0:0:
208,141,344315,1,2,0:0:0:0:
234,137,344412,1,2,0:0:0:0:
256,123,344510,1,2,0:0:0:0:
272,102,344607,1,2,0:0:0:0:
379,352,344997,6,0,L|385:253,1,70,12|0,0:0|0:0,0:0:0:0:
259,272,345387,2,0,L|253:173,1,70,8|0,0:0|0:0,0:0:0:0:
123,228,345777,1,8,0:0:0:0:
168,104,345971,1,0,0:0:0:0:
194,289,346166,5,8,0:0:0:0:
316,194,346361,1,0,0:0:0:0:
210,176,346556,1,8,0:0:0:0:
331,316,346751,2,0,P|390:319|418:311,1,70,0|8,0:0|0:0,0:0:0:0:
454,206,347140,1,0,0:0:0:0:
369,117,347335,1,8,0:0:0:0:
369,117,347432,1,2,0:0:0:0:
369,117,347530,1,2,0:0:0:0:
308,255,347725,5,8,0:0:0:0:
239,121,347919,1,0,0:0:0:0:
225,322,348114,1,8,0:0:0:0:
175,185,348309,1,0,0:0:0:0:
115,293,348504,5,8,0:0:0:0:
232,245,348699,1,0,0:0:0:0:
70,152,348894,2,0,P|52:197|56:235,1,70,8|0,0:0|0:0,0:0:0:0:
241,62,349283,5,8,0:0:0:0:
328,198,349478,1,0,0:0:0:0:
374,51,349673,2,0,P|414:71|445:64,1,70,8|0,0:0|0:0,0:0:0:0:
486,183,350062,2,0,P|446:163|415:170,1,70,8|0,0:0|0:0,0:0:0:0:
315,278,350452,2,0,P|355:298|386:291,1,70,8|0,0:0|0:0,0:0:0:0:
179,156,350842,5,6,0:0:0:0:
204,300,351036,1,0,0:0:0:0:
251,91,351231,1,0,0:0:0:0:
273,225,351426,1,0,0:0:0:0:
320,34,351621,1,8,0:0:0:0:
325,67,352010,1,0,0:0:0:0:
330,100,352400,2,0,P|298:129|218:93,2,140,2|0|8,0:0|0:0|0:0,0:0:0:0:
330,340,353958,5,2,0:0:0:0:
228,183,354153,1,0,0:0:0:0:
382,260,354348,1,0,0:0:0:0:
276,262,354543,1,0,0:0:0:0:
421,180,354738,2,0,P|455:132|404:67,1,140,8|0,0:0|0:0,0:0:0:0:
284,134,355517,6,0,L|279:89,3,35,8|2|2|2,0:0|0:0|0:0|0:0,0:0:0:0:
196,54,355907,2,0,L|199:88,3,35,8|2|2|2,0:0|0:0|0:0|0:0,0:0:0:0:
134,169,356296,2,0,L|129:124,3,35,8|2|2|2,0:0|0:0|0:0|0:0,0:0:0:0:
44,88,356686,1,8,0:0:0:0:
47,122,356783,1,2,0:0:0:0:
50,157,356880,1,2,0:0:0:0:
54,192,356978,1,2,0:0:0:0:
57,227,357075,5,12,0:0:0:0:
208,331,357270,1,0,0:0:0:0:
238,170,357465,1,8,0:0:0:0:
134,241,357660,1,0,0:0:0:0:
343,277,357855,2,0,P|347:221|335:180,1,70,8|0,0:0|0:0,0:0:0:0:
239,100,358244,2,0,P|235:156|247:197,1,70,8|0,0:0|0:0,0:0:0:0:
435,48,358634,6,0,L|424:119,1,70,8|0,0:0|0:0,0:0:0:0:
349,204,359023,2,0,L|360:275,1,70,8|0,0:0|0:0,0:0:0:0:
239,100,359413,2,0,L|217:242,1,140,8|8,0:0|0:0,0:0:0:0:
209,275,359900,1,2,0:0:0:0:
209,275,359997,1,2,0:0:0:0:
80,60,360192,6,0,P|70:110|80:143,1,70,8|0,0:0|0:0,0:0:0:0:
184,177,360582,1,8,0:0:0:0:
270,103,360777,1,0,0:0:0:0:
369,154,360971,1,8,0:0:0:0:
391,258,361166,1,0,0:0:0:0:
391,258,361264,1,0,0:0:0:0:
391,258,361361,2,0,P|338:257|304:272,1,70,8|0,0:0|0:0,0:0:0:0:
223,322,361751,5,8,0:0:0:0:
193,162,361945,1,0,0:0:0:0:
103,274,362140,1,8,0:0:0:0:
108,94,362335,1,0,0:0:0:0:
290,220,362530,2,0,L|284:179,3,35,8|2|2|2,0:0|0:0|0:0|0:0,0:0:0:0:
360,262,362919,2,0,L|366:221,3,35,8|2|2|2,0:0|0:0|0:0|0:0,0:0:0:0:
301,321,363309,5,12,0:0:0:0:
266,325,363406,1,0,0:0:0:0:
231,329,363503,1,8,0:0:0:0:
196,334,363601,1,0,0:0:0:0:
162,338,363698,1,8,0:0:0:0:
70,239,363894,1,8,0:0:0:0:
70,239,363991,1,0,0:0:0:0:
70,239,364088,5,8,0:0:0:0:
142,142,364283,1,8,0:0:0:0:
247,216,364478,2,0,P|285:215|315:195,1,70,8|8,0:0|0:0,0:0:0:0:
415,69,364868,5,8,0:0:0:0:
436,96,364965,1,0,0:0:0:0:
446,129,365062,1,8,0:0:0:0:
442,163,365160,1,0,0:0:0:0:
426,194,365257,1,8,0:0:0:0:
300,267,365452,1,8,0:0:0:0:
300,267,365549,1,0,0:0:0:0:
300,267,365647,5,8,0:0:0:0:
206,147,365842,1,8,0:0:0:0:
129,326,366036,2,0,L|115:238,1,70,8|8,0:0|0:0,0:0:0:0:
206,147,366426,5,10,0:0:0:0:
206,147,366523,2,0,L|260:158,1,35,0|8,0:0|0:0,0:0:0:0:
283,272,366718,1,0,0:0:0:0:
317,271,366815,1,8,0:0:0:0:
347,254,366912,1,0,0:0:0:0:
365,224,367010,1,8,0:0:0:0:
449,327,367205,1,10,0:0:0:0:
464,139,367400,1,8,0:0:0:0:
347,359,367595,2,0,P|299:369|257:361,1,70,8|8,0:0|0:0,0:0:0:0:
91,162,367984,5,0,0:0:0:0:
87,265,368179,1,0,0:0:0:0:
87,265,368277,1,0,0:0:0:0:
87,265,368374,1,0,0:0:0:0:
193,291,368569,1,0,0:0:0:0:
193,291,368764,1,0,0:0:0:0:
274,230,368958,1,0,0:0:0:0:
339,321,369153,1,0,0:0:0:0:
339,321,369543,6,0,L|368:327,1,26.25,2|0,0:0|0:0,0:0:0:0:
389,330,369932,6,0,P|395:269|385:228,1,87.5,6|0,0:0|0:0,0:0:0:0:
260,185,370322,2,0,P|254:124|264:83,1,87.5,8|0,0:0|0:0,0:0:0:0:
418,114,370712,1,2,0:0:0:0:
320,271,370907,1,0,0:0:0:0:
149,137,371101,6,0,P|145:184|161:229,1,87.5,0|0,0:0|0:0,0:0:0:0:
23,329,371491,2,0,P|27:282|11:237,1,87.5,2|0,0:0|0:0,0:0:0:0:
75,41,371881,1,8,0:0:0:0:
118,48,371978,1,2,0:0:0:0:
161,55,372075,1,2,0:0:0:0:
204,62,372173,1,2,0:0:0:0:
247,69,372270,1,2,0:0:0:0:
123,179,372465,1,2,0:0:0:0:
123,179,372562,1,2,0:0:0:0:
123,179,372660,5,2,0:0:0:0:
250,264,372855,2,0,P|266:322|264:353,1,87.5,2|2,0:0|0:0,0:0:0:0:
391,94,373244,1,0,0:0:0:0:
264,179,373439,2,0,P|248:237|250:268,1,87.5,8|0,0:0|0:0,0:0:0:0:
423,316,373829,1,2,0:0:0:0:
329,126,374023,1,0,0:0:0:0:
211,336,374218,5,0,0:0:0:0:
415,203,374413,1,0,0:0:0:0:
124,130,374608,1,2,0:0:0:0:
316,281,374803,1,0,0:0:0:0:
88,286,374997,1,8,0:0:0:0:
74,244,375094,1,2,0:0:0:0:
76,201,375191,1,2,0:0:0:0:
93,161,375289,1,2,0:0:0:0:
124,130,375387,2,0,P|155:80|164:31,1,87.5,2|2,0:0|0:0,0:0:0:0:
402,61,375777,6,0,L|392:171,1,87.5,2|2,0:0|0:0,0:0:0:0:
292,203,376166,2,0,L|302:313,1,87.5,2|0,0:0|0:0,0:0:0:0:
194,96,376556,2,0,L|184:206,1,87.5,8|0,0:0|0:0,0:0:0:0:
95,272,376945,1,2,0:0:0:0:
30,172,377140,1,0,0:0:0:0:
292,203,377335,6,0,P|290:258|272:300,1,87.5,0|0,0:0|0:0,0:0:0:0:
387,126,377725,2,0,P|389:71|407:29,1,87.5,2|0,0:0|0:0,0:0:0:0:
420,328,378114,1,8,0:0:0:0:
381,347,378211,1,2,0:0:0:0:
338,346,378308,1,2,0:0:0:0:
300,324,378406,1,2,0:0:0:0:
278,287,378503,1,2,0:0:0:0:
452,213,378699,1,2,0:0:0:0:
452,213,378796,1,2,0:0:0:0:
452,213,378894,5,2,0:0:0:0:
291,55,379088,2,0,L|306:149,1,87.5,2|2,0:0|0:0,0:0:0:0:
143,299,379478,1,0,0:0:0:0:
304,141,379673,2,0,L|289:235,1,87.5,8|0,0:0|0:0,0:0:0:0:
369,328,380062,1,2,0:0:0:0:
424,171,380257,1,0,0:0:0:0:
474,335,380452,5,6,0:0:0:0:
270,167,380647,1,0,0:0:0:0:
479,69,380842,5,6,0:0:0:0:
285,285,381036,1,0,0:0:0:0:
312,36,381231,5,12,0:0:0:0:
379,309,381426,2,0,P|352:311|327:308,1,43.75,0|0,0:0|0:0,0:0:0:0:
94,51,381621,5,6,0:0:0:0:
224,355,381816,1,0,0:0:0:0:
239,35,382010,6,0,L|240:66,1,26.25,0|0,0:0|0:0,0:0:0:0:
259,106,382400,5,6,0:0:0:0:
259,106,382497,2,0,P|250:152|201:196,1,87.5,0|0,0:0|0:0,0:0:0:0:
152,207,382790,2,0,L|164:323,1,87.5,8|0,0:0|0:0,0:0:0:0:
296,360,383179,1,2,0:0:0:0:
367,172,383374,1,0,0:0:0:0:
439,354,383569,5,0,0:0:0:0:
461,141,383764,1,0,0:0:0:0:
302,259,383958,1,2,0:0:0:0:
493,225,384153,1,0,0:0:0:0:
248,107,384348,5,8,0:0:0:0:
240,149,384445,1,2,0:0:0:0:
247,192,384542,1,2,0:0:0:0:
268,230,384640,1,2,0:0:0:0:
302,259,384738,1,2,0:0:0:0:
88,324,384932,1,2,0:0:0:0:
88,324,385030,1,2,0:0:0:0:
88,324,385127,6,0,L|96:204,1,87.5,2|2,0:0|0:0,0:0:0:0:
307,346,385517,1,2,0:0:0:0:
307,346,385614,2,0,L|299:226,1,87.5,0|0,0:0|0:0,0:0:0:0:
296,181,385907,2,0,P|352:191|392:160,1,87.5,8|0,0:0|0:0,0:0:0:0:
446,105,386296,1,2,0:0:0:0:
290,71,386491,1,0,0:0:0:0:
432,256,386686,5,0,0:0:0:0:
373,91,386881,1,0,0:0:0:0:
225,307,387075,1,2,0:0:0:0:
237,136,387270,1,0,0:0:0:0:
397,334,387465,5,8,0:0:0:0:
353,327,387562,1,2,0:0:0:0:
310,320,387659,1,2,0:0:0:0:
267,313,387757,1,2,0:0:0:0:
224,306,387854,1,2,0:0:0:0:
69,339,388049,1,2,0:0:0:0:
69,339,388147,1,2,0:0:0:0:
69,339,388244,6,0,P|58:284|74:233,1,87.5,2|2,0:0|0:0,0:0:0:0:
200,218,388634,2,0,P|211:163|195:112,1,87.5,2|0,0:0|0:0,0:0:0:0:
55,92,389023,2,0,P|44:37|60:-14,1,87.5,8|0,0:0|0:0,0:0:0:0:
255,54,389413,1,2,0:0:0:0:
134,155,389608,1,0,0:0:0:0:
351,301,389803,6,0,L|357:208,1,87.5,0|0,0:0|0:0,0:0:0:0:
169,369,390192,2,0,L|163:276,1,87.5,2|0,0:0|0:0,0:0:0:0:
378,309,390582,2,0,L|384:216,1,87.5,8|2,0:0|0:0,0:0:0:0:
246,126,390971,1,2,0:0:0:0:
273,233,391166,1,2,0:0:0:0:
325,56,391361,5,2,0:0:0:0:
146,100,391556,1,0,0:0:0:0:
273,233,391751,1,0,0:0:0:0:
345,64,391945,5,0,0:0:0:0:
143,78,392140,1,0,0:0:0:0:
255,246,392335,1,0,0:0:0:0:
366,77,392530,1,0,0:0:0:0:
366,77,392919,5,6,0:0:0:0:
424,332,393114,1,0,0:0:0:0:
265,125,393309,5,6,0:0:0:0:
237,356,393504,1,0,0:0:0:0:
111,80,393699,5,12,0:0:0:0:
155,334,393894,2,0,P|169:314|176:293,1,43.75,0|0,0:0|0:0,0:0:0:0:
208,51,394088,5,6,0:0:0:0:
55,299,394283,1,0,0:0:0:0:
375,40,394478,6,0,L|379:69,1,26.25,0|0,0:0|0:0,0:0:0:0:
391,108,394868,5,6,0:0:0:0:
391,108,394965,2,0,P|361:152|323:162,1,87.5,0|0,0:0|0:0,0:0:0:0:
288,173,395257,2,0,P|248:189|227:226,1,87.5,8|0,0:0|0:0,0:0:0:0:
283,349,395647,1,2,0:0:0:0:
94,237,395842,1,0,0:0:0:0:
314,261,396036,5,0,0:0:0:0:
120,316,396231,1,0,0:0:0:0:
301,180,396426,1,2,0:0:0:0:
188,379,396621,1,0,0:0:0:0:
147,152,396816,5,8,0:0:0:0:
186,133,396913,1,2,0:0:0:0:
229,132,397010,1,2,0:0:0:0:
269,148,397108,1,2,0:0:0:0:
300,179,397205,1,2,0:0:0:0:
283,349,397400,1,2,0:0:0:0:
283,349,397497,1,2,0:0:0:0:
283,349,397595,6,0,P|348:349|402:322,1,87.5,2|2,0:0|0:0,0:0:0:0:
434,128,397984,1,2,0:0:0:0:
434,128,398082,2,0,L|426:234,1,87.5,0|0,0:0|0:0,0:0:0:0:
386,213,398374,2,0,L|394:319,1,87.5,8|0,0:0|0:0,0:0:0:0:
294,105,398764,1,2,0:0:0:0:
259,297,398958,1,0,0:0:0:0:
136,120,399153,5,0,0:0:0:0:
287,205,399348,1,0,0:0:0:0:
16,181,399543,1,2,0:0:0:0:
167,266,399738,1,0,0:0:0:0:
26,291,399932,5,8,0:0:0:0:
60,316,400029,1,2,0:0:0:0:
103,320,400126,1,2,0:0:0:0:
142,302,400224,1,2,0:0:0:0:
166,265,400321,1,2,0:0:0:0:
136,120,400517,1,2,0:0:0:0:
136,120,400614,1,2,0:0:0:0:
136,120,400712,6,0,L|148:17,1,87.5,2|2,0:0|0:0,0:0:0:0:
301,222,401101,2,0,L|289:119,1,87.5,2|0,0:0|0:0,0:0:0:0:
438,313,401491,2,0,L|450:210,1,87.5,8|0,0:0|0:0,0:0:0:0:
225,336,401881,1,2,0:0:0:0:
331,285,402075,1,0,0:0:0:0:
138,168,402270,6,0,P|130:222|138:273,1,87.5,0|0,0:0|0:0,0:0:0:0:
277,118,402660,2,0,P|285:64|277:13,1,87.5,2|0,0:0|0:0,0:0:0:0:
231,212,403049,2,0,P|251:262|283:302,1,87.5,8|2,0:0|0:0,0:0:0:0:
421,222,403439,1,2,0:0:0:0:
386,362,403634,1,2,0:0:0:0:
306,128,403829,5,2,0:0:0:0:
421,222,404023,1,0,0:0:0:0:
283,275,404218,1,0,0:0:0:0:
318,115,404413,5,0,0:0:0:0:
425,239,404607,1,0,0:0:0:0:
265,270,404802,1,0,0:0:0:0:
335,104,404997,1,0,0:0:0:0:
335,104,405387,5,6,0:0:0:0:
224,366,405582,1,0,0:0:0:0:
194,52,405777,5,6,0:0:0:0:
376,352,405971,1,0,0:0:0:0:
378,20,406166,5,12,0:0:0:0:
115,294,406361,1,0,0:0:0:0:
461,225,406556,5,6,0:0:0:0:
79,105,406751,2,0,P|59:107|32:103,2,43.75,0|0|0,0:0|0:0|0:0,0:0:0:0:
136,44,411470,6,0,L|144:191,1,140,2|0,0:0|0:0,0:0:0:0:
149,269,411981,1,2,0:0:0:0:
149,269,412152,1,2,0:0:0:0:
306,126,412493,2,0,L|310:199,1,70,0|2,0:0|0:0,0:0:0:0:
319,287,412833,1,2,0:0:0:0:
319,287,413174,5,12,0:0:0:0:
147,156,413345,1,8,0:0:0:0:
221,348,413515,1,0,0:0:0:0:
324,105,413686,1,12,0:0:0:0:
289,371,413856,1,8,0:0:0:0:
84,37,414197,6,0,P|139:31|217:87,1,140,2|0,0:0|0:0,0:0:0:0:
245,163,414708,1,2,0:0:0:0:
245,163,414879,1,2,0:0:0:0:
147,301,415220,2,0,P|204:323|241:319,1,70,0|2,0:0|0:0,0:0:0:0:
296,298,415561,1,2,0:0:0:0:
296,298,415902,5,12,0:0:0:0:
135,180,416072,1,8,0:0:0:0:
359,92,416243,1,0,0:0:0:0:
171,281,416413,1,12,0:0:0:0:
407,354,416584,1,8,0:0:0:0:
407,354,416924,5,2,0:0:0:0:
359,180,417265,1,0,0:0:0:0:
316,258,417436,1,8,0:0:0:0:
231,301,417606,2,0,P|191:303|159:291,1,70,2|0,0:0|0:0,0:0:0:0:
157,195,417947,2,0,P|117:193|85:205,1,70,8|0,0:0|0:0,0:0:0:0:
45,81,418288,6,0,L|29:178,1,70,2|0,0:0|0:0,0:0:0:0:
168,28,418629,2,0,L|184:125,1,70,8|2,0:0|0:0,0:0:0:0:
311,92,418970,2,0,L|295:189,1,70,0|8,0:0|0:0,0:0:0:0:
434,39,419311,2,0,L|450:136,1,70,8|0,0:0|0:0,0:0:0:0:
435,231,419652,6,0,P|396:250|368:252,1,70,2|0,0:0|0:0,0:0:0:0:
232,359,419993,2,0,L|240:258,1,93.3333333333333,0|0,0:0|0:0,0:0:0:0:
273,254,420333,2,0,L|265:153,1,93.3333333333333,2|0,0:0|0:0,0:0:0:0:
228,151,420674,2,0,L|236:50,1,93.3333333333333,8|0,0:0|0:0,0:0:0:0:
260,26,421015,6,0,P|300:39|342:27,1,70,2|0,0:0|0:0,0:0:0:0:
407,104,421356,1,8,0:0:0:0:
347,187,421527,1,2,0:0:0:0:
423,261,421697,5,0,0:0:0:0:
239,287,421868,1,8,0:0:0:0:
478,353,422038,1,8,0:0:0:0:
271,49,422379,5,2,0:0:0:0:
307,312,422720,1,0,0:0:0:0:
366,247,422890,1,8,0:0:0:0:
327,161,423061,1,2,0:0:0:0:
240,200,423231,1,0,0:0:0:0:
166,143,423402,1,8,0:0:0:0:
83,192,423572,1,0,0:0:0:0:
51,109,423743,5,2,0:0:0:0:
126,64,423913,1,0,0:0:0:0:
166,143,424083,1,8,0:0:0:0:
250,101,424254,1,2,0:0:0:0:
327,161,424424,5,0,0:0:0:0:
412,78,424595,1,8,0:0:0:0:
442,256,424765,1,8,0:0:0:0:
442,256,425106,6,0,P|406:259|371:277,1,70,2|0,0:0|0:0,0:0:0:0:
264,259,425447,2,0,P|232:273|197:276,1,70,0|8,0:0|0:0,0:0:0:0:
84,318,425788,2,0,P|81:283|66:251,1,70,2|0,0:0|0:0,0:0:0:0:
129,149,426129,2,0,P|114:117|111:82,1,70,8|0,0:0|0:0,0:0:0:0:
301,103,426470,5,8,0:0:0:0:
230,284,426640,1,8,0:0:0:0:
257,293,426981,5,8,0:0:0:0:
167,66,427152,1,8,0:0:0:0:
199,47,427493,5,8,0:0:0:0:
114,330,427663,1,8,0:0:0:0:
376,229,427833,6,0,P|385:271|380:316,1,70,2|0,0:0|0:0,0:0:0:0:
234,307,428174,2,0,L|241:188,1,93.3333333333333,0|0,0:0|0:0,0:0:0:0:
250,167,428515,2,0,L|131:160,1,93.3333333333333,2|0,0:0|0:0,0:0:0:0:
159,129,428856,2,0,L|40:136,1,93.3333333333333,8|0,0:0|0:0,0:0:0:0:
22,137,429197,5,2,0:0:0:0:
75,219,429368,1,0,0:0:0:0:
54,303,429538,1,8,0:0:0:0:
142,343,429708,1,2,0:0:0:0:
204,284,429879,2,0,P|203:240|195:210,1,70,0|8,0:0|0:0,0:0:0:0:
334,325,430220,2,0,P|335:281|343:251,1,70,8|0,0:0|0:0,0:0:0:0:
382,164,430561,5,2,0:0:0:0:
314,11,430902,2,0,P|311:55|291:101,1,70,0|8,0:0|0:0,0:0:0:0:
266,168,431243,2,0,L|272:261,1,93.3333333333333,2|0,0:0|0:0,0:0:0:0:
240,262,431584,2,0,L|233:355,1,93.3333333333333,8|0,0:0|0:0,0:0:0:0:
196,364,431924,2,0,L|102:357,1,93.3333333333333,2|0,0:0|0:0,0:0:0:0:
53,352,432265,1,8,0:0:0:0:
57,213,432436,1,2,0:0:0:0:
149,290,432606,5,0,0:0:0:0:
112,96,432777,1,8,0:0:0:0:
60,230,432947,1,8,0:0:0:0:
355,367,433288,6,0,P|363:317|308:246,1,140,2|0,0:0|0:0,0:0:0:0:
191,197,433799,2,0,P|145:146|148:78,1,140,8|0,0:0|0:0,0:0:0:0:
305,68,434311,1,8,0:0:0:0:
295,192,434481,1,0,0:0:0:0:
410,139,434652,6,0,L|427:304,1,140,2|8,0:0|0:0,0:0:0:0:
293,204,435163,2,0,L|276:369,1,140,2|8,0:0|0:0,0:0:0:0:
182,304,435674,1,8,0:0:0:0:
100,356,435845,1,0,0:0:0:0:
41,272,436015,5,2,0:0:0:0:
92,189,436186,1,0,0:0:0:0:
37,108,436356,1,0,0:0:0:0:
96,38,436527,1,8,0:0:0:0:
183,67,436697,2,0,P|225:82|260:78,1,70,2|0,0:0|0:0,0:0:0:0:
335,147,437038,2,0,P|369:147|401:160,1,70,8|0,0:0|0:0,0:0:0:0:
479,313,437379,5,8,0:0:0:0:
217,211,437549,1,8,0:0:0:0:
231,192,437890,6,0,L|244:348,1,140,8|0,0:0|0:0,0:0:0:0:
141,311,438402,1,8,0:0:0:0:
141,311,438572,1,8,0:0:0:0:
58,346,438743,5,6,0:0:0:0:
31,258,438913,1,0,0:0:0:0:
80,184,439083,1,0,0:0:0:0:
166,207,439254,1,2,0:0:0:0:
232,154,439424,1,2,0:0:0:0:
183,76,439595,1,0,0:0:0:0:
250,14,439765,1,0,0:0:0:0:
331,53,439936,1,2,0:0:0:0:
324,141,440106,6,0,P|372:156|463:132,1,140,2|8,0:0|0:0,0:0:0:0:
401,258,440618,2,0,P|333:242|267:263,1,140,2|8,0:0|0:0,0:0:0:0:
193,341,441129,2,0,P|148:354|101:351,1,70,2|0,0:0|0:0,0:0:0:0:
42,283,441470,6,0,L|51:164,1,93.3333333333333,2|0,0:0|0:0,0:0:0:0:
80,180,441811,2,0,L|71:61,1,93.3333333333333,0|0,0:0|0:0,0:0:0:0:
89,57,442152,2,0,L|182:64,1,93.3333333333333,2|0,0:0|0:0,0:0:0:0:
195,89,442493,2,0,L|288:81,1,93.3333333333333,0|0,0:0|0:0,0:0:0:0:
327,97,442833,6,0,P|336:148|333:180,1,70,2|0,0:0|0:0,0:0:0:0:
300,269,443174,1,8,0:0:0:0:
168,169,443345,2,0,P|159:220|162:252,1,70,2|0,0:0|0:0,0:0:0:0:
195,341,443686,5,8,0:0:0:0:
274,83,443856,1,2,0:0:0:0:
296,93,444197,5,2,0:0:0:0:
374,151,444368,1,0,0:0:0:0:
341,235,444538,1,0,0:0:0:0:
358,320,444708,1,2,0:0:0:0:
262,316,444879,1,2,0:0:0:0:
179,356,445049,1,0,0:0:0:0:
129,287,445220,1,0,0:0:0:0:
150,206,445390,1,2,0:0:0:0:
119,119,445561,6,0,L|268:97,1,140,2|8,0:0|0:0,0:0:0:0:
424,198,446072,2,0,L|275:176,1,140,2|8,0:0|0:0,0:0:0:0:
209,276,446583,2,0,L|283:265,1,70,2|0,0:0|0:0,0:0:0:0:
108,354,446924,6,0,L|116:244,1,93.3333333333333,2|0,0:0|0:0,0:0:0:0:
99,223,447265,2,0,L|209:231,1,93.3333333333333,0|0,0:0|0:0,0:0:0:0:
227,253,447606,2,0,L|235:143,1,93.3333333333333,2|0,0:0|0:0,0:0:0:0:
258,149,447947,2,0,L|250:39,1,93.3333333333333,0|0,0:0|0:0,0:0:0:0:
233,27,448288,6,0,P|271:30|315:19,1,70,2|0,0:0|0:0,0:0:0:0:
392,85,448629,1,8,0:0:0:0:
191,239,448799,2,0,P|229:236|273:247,1,70,2|0,0:0|0:0,0:0:0:0:
350,181,449140,5,8,0:0:0:0:
288,363,449311,1,2,0:0:0:0:
309,370,449652,5,6,0:0:0:0:
159,103,451356,5,0,0:0:0:0:
159,103,451527,1,0,0:0:0:0:
170,340,451868,1,0,0:0:0:0:
238,317,452038,1,0,0:0:0:0:
305,338,452208,1,0,0:0:0:0:
474,154,452379,6,0,L|468:263,1,87.5,6|0,0:0|0:0,0:0:0:0:
299,96,452720,2,0,L|305:205,1,87.5,8|2,0:0|0:0,0:0:0:0:
238,317,453061,1,2,0:0:0:0:
159,195,453231,1,0,0:0:0:0:
381,284,453402,1,8,0:0:0:0:
158,337,453572,6,0,P|116:276|181:186,1,175,2|0,0:0|0:0,0:0:0:0:
236,64,454083,1,8,0:0:0:0:
358,188,454254,2,0,P|358:139|345:94,1,87.5,2|0,0:0|0:0,0:0:0:0:
272,305,454595,1,8,0:0:0:0:
445,232,454765,1,8,0:0:0:0:
241,203,454936,1,0,0:0:0:0:
371,354,455106,6,0,L|382:258,1,87.5,2|0,0:0|0:0,0:0:0:0:
299,81,455447,2,0,L|310:177,1,87.5,8|2,0:0|0:0,0:0:0:0:
138,285,455788,1,2,0:0:0:0:
206,162,455958,1,0,0:0:0:0:
204,341,456129,1,8,0:0:0:0:
61,117,456299,6,0,P|128:120|124:16,1,175,2|0,0:0|0:0,0:0:0:0:
120,215,456811,1,8,0:0:0:0:
238,261,456981,1,2,0:0:0:0:
93,298,457152,5,0,0:0:0:0:
266,188,457322,1,8,0:0:0:0:
57,181,457493,5,8,0:0:0:0:
279,325,457663,1,0,0:0:0:0:
200,28,457833,6,0,P|193:80|207:130,1,87.5,6|0,0:0|0:0,0:0:0:0:
373,188,458174,2,0,P|380:136|366:86,1,87.5,8|2,0:0|0:0,0:0:0:0:
165,199,458515,2,0,P|158:251|172:301,1,87.5,2|0,0:0|0:0,0:0:0:0:
400,340,458856,1,8,0:0:0:0:
284,218,459027,1,2,0:0:0:0:
266,365,459197,5,2,0:0:0:0:
426,243,459368,1,0,0:0:0:0:
227,162,459538,1,8,0:0:0:0:
429,160,459708,2,0,P|481:128|394:71,1,175,2|8,0:0|0:0,0:0:0:0:
257,71,460220,1,8,0:0:0:0:
303,248,460390,1,0,0:0:0:0:
100,153,460561,6,0,L|110:50,1,87.5,2|0,0:0|0:0,0:0:0:0:
207,310,460902,2,0,L|197:207,1,87.5,8|2,0:0|0:0,0:0:0:0:
42,348,461243,2,0,L|52:245,1,87.5,2|0,0:0|0:0,0:0:0:0:
213,327,461583,1,8,0:0:0:0:
142,185,461754,1,2,0:0:0:0:
312,210,461924,5,8,0:0:0:0:
152,261,462095,1,8,0:0:0:0:
152,261,462265,1,0,0:0:0:0:
363,324,462436,5,8,0:0:0:0:
263,176,462606,1,8,0:0:0:0:
263,176,462777,1,0,0:0:0:0:
387,100,462947,5,8,0:0:0:0:
273,262,463118,1,8,0:0:0:0:
462,304,463288,6,0,P|463:254|452:217,1,87.5,6|0,0:0|0:0,0:0:0:0:
263,176,463629,2,0,P|262:226|273:263,1,87.5,8|2,0:0|0:0,0:0:0:0:
358,343,463970,1,2,0:0:0:0:
373,171,464140,1,0,0:0:0:0:
358,356,464311,1,8,0:0:0:0:
196,317,464481,6,0,L|-3:306,1,175,2|0,0:0|0:0,0:0:0:0:
52,123,464993,1,8,0:0:0:0:
135,222,465163,2,0,L|222:217,1,87.5,2|0,0:0|0:0,0:0:0:0:
355,164,465504,1,8,0:0:0:0:
367,319,465674,1,8,0:0:0:0:
259,100,465845,1,0,0:0:0:0:
370,328,466015,6,0,P|341:356|293:368,1,87.5,2|0,0:0|0:0,0:0:0:0:
135,234,466356,2,0,P|164:262|212:274,1,87.5,8|2,0:0|0:0,0:0:0:0:
362,155,466697,1,2,0:0:0:0:
224,106,466868,1,0,0:0:0:0:
401,80,467038,1,8,0:0:0:0:
148,56,467208,6,0,P|149:118|63:195,2,175,2|0|2,0:0|0:0|0:0,0:0:0:0:
243,206,468061,1,0,0:0:0:0:
338,42,468231,1,8,0:0:0:0:
348,293,468402,5,8,0:0:0:0:
256,77,468572,1,0,0:0:0:0:
227,353,468743,6,0,P|163:368|130:365,1,87.5,6|0,0:0|0:0,0:0:0:0:
328,219,469083,2,0,P|264:204|231:207,1,87.5,8|2,0:0|0:0,0:0:0:0:
460,361,469424,2,0,P|396:376|363:373,1,87.5,2|0,0:0|0:0,0:0:0:0:
416,120,469765,1,8,0:0:0:0:
442,270,469936,1,2,0:0:0:0:
254,70,470106,6,0,L|239:214,1,116.666666666667,2|0,0:0|0:0,0:0:0:0:
229,259,470447,1,8,0:0:0:0:
104,63,470618,2,0,P|161:29|261:82,1,175,2|8,0:0|0:0,0:0:0:0:
95,291,471129,1,8,0:0:0:0:
301,186,471299,1,0,0:0:0:0:
88,203,471470,6,0,L|97:317,1,87.5,2|0,0:0|0:0,0:0:0:0:
209,118,471811,2,0,L|200:232,1,87.5,8|2,0:0|0:0,0:0:0:0:
312,272,472152,2,0,L|321:386,1,87.5,2|0,0:0|0:0,0:0:0:0:
442,196,472493,1,8,0:0:0:0:
422,328,472663,1,2,0:0:0:0:
287,94,472833,5,8,0:0:0:0:
313,271,473004,1,8,0:0:0:0:
313,271,473174,1,0,0:0:0:0:
148,161,473345,5,8,0:0:0:0:
212,348,473515,1,8,0:0:0:0:
229,348,473856,5,8,0:0:0:0:
43,255,474027,1,8,0:0:0:0:
287,204,474197,6,0,P|295:273|194:354,1,175,6|8,0:0|0:0,0:0:0:0:
148,161,474708,2,0,P|140:92|241:11,2,175,2|0|2,0:0|0:0|0:0,0:0:0:0:
201,283,475561,6,0,L|380:228,1,175,2|8,0:0|0:0,0:0:0:0:
285,108,476072,2,0,L|464:163,2,175,2|8|0,0:0|0:0|0:0,0:0:0:0:
166,166,476924,6,0,B|179:252|179:252|169:360,1,175,2|8,0:0|0:0,0:0:0:0:
49,254,477436,2,0,B|36:168|36:168|46:60,2,175,2|0|2,0:0|0:0|0:0,0:0:0:0:
170,339,478288,6,0,B|215:351|254:327|254:327|293:301|338:309,1,175,2|8,0:0|0:0,0:0:0:0:
428,188,478799,2,0,B|383:200|344:176|344:176|305:150|260:158,2,175,2|8|0,0:0|0:0|0:0,0:0:0:0:
234,381,479652,6,0,L|222:264,1,87.5,6|0,0:0|0:0,0:0:0:0:
368,325,479993,2,0,L|380:208,1,87.5,8|2,0:0|0:0,0:0:0:0:
511,351,480333,2,0,L|499:234,1,87.5,2|0,0:0|0:0,0:0:0:0:
424,64,480674,2,0,L|412:181,1,87.5,8|2,0:0|0:0,0:0:0:0:
299,265,481015,6,0,P|250:275|202:253,1,87.5,2|0,0:0|0:0,0:0:0:0:
67,80,481356,1,8,0:0:0:0:
200,168,481527,1,2,0:0:0:0:
50,265,481697,1,0,0:0:0:0:
269,351,481868,1,8,0:0:0:0:
47,180,482038,2,0,P|41:240|61:283,1,87.5,8|0,0:0|0:0,0:0:0:0:
269,351,482379,6,0,P|290:306|288:266,1,87.5,2|0,0:0|0:0,0:0:0:0:
365,72,482720,2,0,P|386:117|384:157,1,87.5,8|2,0:0|0:0,0:0:0:0:
457,373,483061,2,0,P|478:328|476:288,1,87.5,2|0,0:0|0:0,0:0:0:0:
241,153,483402,2,0,P|262:198|260:238,1,87.5,8|2,0:0|0:0,0:0:0:0:
110,360,483743,5,8,0:0:0:0:
63,118,483913,1,8,0:0:0:0:
63,118,484083,1,0,0:0:0:0:
221,378,484254,5,8,0:0:0:0:
268,104,484424,1,8,0:0:0:0:
246,100,484765,5,8,0:0:0:0:
376,354,484936,1,8,0:0:0:0:
407,62,485106,6,0,P|399:123|477:203,1,175,6|8,0:0|0:0,0:0:0:0:
310,239,485618,2,0,P|318:178|240:98,2,175,2|0|2,0:0|0:0|0:0,0:0:0:0:
179,367,486470,6,0,L|158:171,1,175,2|8,0:0|0:0,0:0:0:0:
35,293,486981,2,0,L|56:97,2,175,2|8|0,0:0|0:0|0:0,0:0:0:0:
295,358,487833,6,0,B|321:309|321:309|300:186,1,175,2|8,0:0|0:0,0:0:0:0:
190,251,488345,2,0,B|164:202|164:202|185:79,2,175,2|0|2,0:0|0:0|0:0,0:0:0:0:
448,96,489197,6,0,B|437:136|457:181|457:181|437:224|445:271,1,175,2|8,0:0|0:0,0:0:0:0:
304,342,489708,2,0,B|293:302|313:257|313:257|293:214|301:167,2,175,2|8|0,0:0|0:0|0:0,0:0:0:0:
126,86,490561,6,0,P|119:133|140:182,1,87.5,6|0,0:0|0:0,0:0:0:0:
72,342,490902,2,0,P|79:295|58:246,1,87.5,8|2,0:0|0:0,0:0:0:0:
217,219,491243,2,0,P|210:266|231:315,1,87.5,2|0,0:0|0:0,0:0:0:0:
331,182,491583,2,0,P|338:135|317:86,1,87.5,8|2,0:0|0:0,0:0:0:0:
460,309,491924,6,0,L|446:208,1,87.5,2|0,0:0|0:0,0:0:0:0:
315,306,492265,1,8,0:0:0:0:
244,100,492436,1,2,0:0:0:0:
210,365,492606,1,0,0:0:0:0:
338,171,492777,1,8,0:0:0:0:
119,167,492947,2,0,P|115:213|134:263,1,87.5,8|0,0:0|0:0,0:0:0:0:
328,311,493288,6,0,L|420:329,1,87.5,2|0,0:0|0:0,0:0:0:0:
242,150,493629,2,0,L|334:132,1,87.5,8|2,0:0|0:0,0:0:0:0:
127,251,493970,2,0,L|219:269,1,87.5,2|0,0:0|0:0,0:0:0:0:
104,77,494311,2,0,L|196:59,1,87.5,8|2,0:0|0:0,0:0:0:0:
239,339,494652,5,8,0:0:0:0:
381,102,494822,1,8,0:0:0:0:
381,102,494993,1,0,0:0:0:0:
399,373,495163,5,8,0:0:0:0:
244,131,495333,1,8,0:0:0:0:
259,135,495674,5,8,0:0:0:0:
95,348,495845,1,8,0:0:0:0:
28,67,496015,6,0,L|41:231,1,157.500006008148,0|0,0:0|0:0,0:0:0:0:
208,313,496868,2,0,L|213:238,1,52.5000020027161,0|0,0:0|0:0,0:0:0:0:
390,136,497379,6,0,L|226:149,1,157.500006008148,0|0,0:0|0:0,0:0:0:0:
443,302,498231,2,0,L|333:293,1,105.000004005432,0|0,0:0|0:0,0:0:0:0:
256,192,499791,12,0,501849,0:0:0:0:
192,121,502143,6,0,L|202:212,2,70,0|0|0,0:0|0:0|0:0,0:0:0:0:
268,64,503026,1,0,0:0:0:0:
342,136,503320,2,0,L|332:227,2,70,0|0|0,0:0|0:0|0:0,0:0:0:0:
342,136,505379,1,0,0:0:0:0:
342,136,505673,5,0,0:0:0:0:
420,183,505967,1,0,0:0:0:0:
421,271,506261,1,0,0:0:0:0:
421,271,506702,1,0,0:0:0:0:
421,271,506849,6,0,P|387:273|354:292,2,70,0|0|0,0:0|0:0|0:0,0:0:0:0:
457,355,507732,1,0,0:0:0:0:
356,290,508026,2,0,P|322:288|289:269,2,70,0|0|0,0:0|0:0|0:0,0:0:0:0:
356,290,509791,5,0,0:0:0:0:
372,193,510085,1,0,0:0:0:0:
280,239,510379,5,0,0:0:0:0:
259,138,510673,1,0,0:0:0:0:
190,211,510967,1,0,0:0:0:0:
30,70,511555,5,0,0:0:0:0:
181,78,520967,5,0,0:0:0:0:
189,176,521261,1,0,0:0:0:0:
132,251,521555,2,0,P|172:286|211:296,1,70,8|0,0:0|0:0,0:0:0:0:
283,295,522143,1,0,0:0:0:0:
365,352,522438,1,0,0:0:0:0:
452,324,522732,1,8,0:0:0:0:
434,150,523026,6,0,P|444:198|443:242,1,70,0|0,0:0|0:0,0:0:0:0:
341,121,523614,1,0,0:0:0:0:
313,223,523908,1,8,0:0:0:0:
245,144,524202,1,0,0:0:0:0:
209,247,524496,2,0,P|175:256|137:244,1,70,0|0,0:0|0:0,0:0:0:0:
30,161,525085,2,0,P|64:152|102:164,1,70,8|0,0:0|0:0,0:0:0:0:
86,349,525673,6,0,L|236:340,1,140,0|8,0:0|0:0,0:0:0:0:
340,345,526555,1,0,0:0:0:0:
340,345,526702,1,0,0:0:0:0:
356,112,527143,2,0,L|362:207,1,70,0|8,0:0|0:0,0:0:0:0:
395,192,527585,2,0,L|389:287,1,70,0|0,0:0|0:0,0:0:0:0:
360,285,528026,6,0,P|310:297|223:237,1,140,0|8,0:0|0:0,0:0:0:0:
173,158,528908,1,0,0:0:0:0:
173,158,529055,1,0,0:0:0:0:
163,262,529496,2,0,L|175:130,1,105,0|0,0:0|0:0,0:0:0:0:
181,84,530085,1,0,0:0:0:0:
181,84,530232,1,0,0:0:0:0:
181,84,530379,6,0,L|267:95,1,70,2|0,0:0|0:0,0:0:0:0:
350,138,530967,1,8,0:0:0:0:
441,115,531261,1,0,0:0:0:0:
483,201,531555,1,0,0:0:0:0:
408,266,531849,1,2,0:0:0:0:
408,358,532143,1,8,0:0:0:0:
286,248,532438,6,0,P|293:295|282:333,1,70,0|2,0:0|0:0,0:0:0:0:
197,359,533026,1,0,0:0:0:0:
108,300,533320,1,8,0:0:0:0:
130,200,533614,1,0,0:0:0:0:
82,93,533908,2,0,P|120:94|159:75,1,70,0|2,0:0|0:0,0:0:0:0:
242,126,534496,2,0,P|274:113|309:115,1,70,8|0,0:0|0:0,0:0:0:0:
400,177,535085,6,0,P|388:217|448:306,1,140,2|8,0:0|0:0,0:0:0:0:
349,370,535967,1,0,0:0:0:0:
349,370,536114,1,0,0:0:0:0:
204,326,536555,2,0,P|205:286|184:239,1,70,2|8,0:0|0:0,0:0:0:0:
218,236,536996,2,0,P|208:202|209:167,1,70,2|0,0:0|0:0,0:0:0:0:
181,144,537438,6,0,P|244:138|225:71,1,140,2|8,0:0|0:0,0:0:0:0:
147,44,538320,1,0,0:0:0:0:
147,44,538467,1,0,0:0:0:0:
53,178,538908,2,0,L|64:240,1,35,2|8,0:0|0:0,0:0:0:0:
68,234,539129,1,8,0:0:0:0:
68,234,539202,5,8,0:0:0:0:
127,279,539349,1,8,0:0:0:0:
128,290,539643,1,8,0:0:0:0:
190,226,539791,6,0,L|234:231,1,43.75,6|0,0:0|0:0,0:0:0:0:
248,314,540085,2,0,L|292:309,1,43.75,0|0,0:0|0:0,0:0:0:0:
324,239,540379,2,0,L|368:244,1,43.75,8|0,0:0|0:0,0:0:0:0:
428,304,540673,1,0,0:0:0:0:
428,304,540820,2,0,P|464:283|472:239,1,87.5,0|0,0:0|0:0,0:0:0:0:
445,161,541261,2,0,P|424:135|418:113,1,43.75,2|0,0:0|0:0,0:0:0:0:
382,49,541555,2,0,P|334:80|275:65,1,87.5,8|0,0:0|0:0,0:0:0:0:
104,75,542143,6,0,P|100:102|103:124,1,43.75,2|0,0:0|0:0,0:0:0:0:
170,162,542438,2,0,P|171:183|167:205,1,43.75,0|0,0:0|0:0,0:0:0:0:
90,232,542732,2,0,P|86:259|89:281,1,43.75,8|0,0:0|0:0,0:0:0:0:
132,342,543026,1,0,0:0:0:0:
132,342,543173,2,0,L|243:360,1,87.5,0|0,0:0|0:0,0:0:0:0:
254,283,543614,2,0,L|309:274,1,43.75,2|0,0:0|0:0,0:0:0:0:
332,202,543908,2,0,L|443:220,1,87.5,8|0,0:0|0:0,0:0:0:0:
397,51,544496,5,2,0:0:0:0:
397,51,544643,2,0,L|402:103,1,43.75,0|0,0:0|0:0,0:0:0:0:
290,76,544938,1,0,0:0:0:0:
290,76,545085,2,0,L|285:128,1,43.75,8|0,0:0|0:0,0:0:0:0:
170,36,545379,2,0,L|190:244,1,175,0|2,0:0|0:0,0:0:0:0:
201,339,546261,1,8,0:0:0:0:
201,339,546555,2,0,P|227:337|249:331,1,43.75,0|0,0:0|0:0,0:0:0:0:
316,285,546849,6,0,L|339:359,2,65.625,2|0|0,0:0|0:0|0:0,0:0:0:0:
391,249,547438,2,0,L|414:323,2,65.625,8|0|0,0:0|0:0|0:0,0:0:0:0:
466,213,548026,2,0,L|489:287,2,65.625,0|0|0,0:0|0:0|0:0,0:0:0:0:
438,133,548614,2,0,P|398:143|355:128,1,87.5,8|0,0:0|0:0,0:0:0:0:
214,55,549202,6,0,P|205:84|209:113,1,43.75,2|0,0:0|0:0,0:0:0:0:
260,204,549496,2,0,P|269:175|265:146,1,43.75,0|0,0:0|0:0,0:0:0:0:
155,192,549791,2,0,P|146:221|150:250,1,43.75,8|0,0:0|0:0,0:0:0:0:
219,303,550085,1,0,0:0:0:0:
316,274,550232,2,0,P|393:278|419:250,1,87.5,0|0,0:0|0:0,0:0:0:0:
445,202,550673,2,0,L|437:149,1,43.75,2|0,0:0|0:0,0:0:0:0:
341,185,550967,2,0,L|355:56,1,87.5,8|0,0:0|0:0,0:0:0:0:
145,68,551555,6,0,L|194:76,1,43.75,2|0,0:0|0:0,0:0:0:0:
185,169,551849,2,0,L|234:161,1,43.75,0|0,0:0|0:0,0:0:0:0:
106,243,552143,2,0,L|155:251,1,43.75,8|0,0:0|0:0,0:0:0:0:
232,300,552438,1,0,0:0:0:0:
329,242,552585,2,0,L|313:340,1,87.5,0|0,0:0|0:0,0:0:0:0:
403,285,553026,2,0,L|410:328,1,43.75,2|0,0:0|0:0,0:0:0:0:
466,188,553320,2,0,L|482:286,1,87.5,8|0,0:0|0:0,0:0:0:0:
286,44,553908,6,0,P|307:92|296:144,1,87.5,8|0,0:0|0:0,0:0:0:0:
261,196,554349,1,8,0:0:0:0:
261,196,554496,1,8,0:0:0:0:
383,145,554791,2,0,P|404:193|393:245,1,87.5,8|0,0:0|0:0,0:0:0:0:
358,297,555232,1,8,0:0:0:0:
358,297,555379,1,8,0:0:0:0:
233,285,555673,2,0,P|212:333|223:385,1,87.5,8|0,0:0|0:0,0:0:0:0:
256,192,556261,12,0,558320,0:0:0:0:
206,65,558614,6,0,L|199:138,1,52.5000020027161,6|0,0:0|0:0,0:0:0:0:
317,106,558908,2,0,L|324:179,1,52.5000020027161,0|0,0:0|0:0,0:0:0:0:
138,174,559202,2,0,L|131:247,1,52.5000020027161,8|0,0:0|0:0,0:0:0:0:
249,215,559496,2,0,L|256:288,1,52.5000020027161,2|0,0:0|0:0,0:0:0:0:
188,356,559791,5,0,0:0:0:0:
188,356,559864,1,0,0:0:0:0:
188,356,559938,1,0,0:0:0:0:
277,366,560085,1,0,0:0:0:0:
360,320,560232,1,0,0:0:0:0:
455,333,560379,2,0,P|459:273|443:213,1,105.000004005432,8|0,0:0|0:0,0:0:0:0:
412,150,560820,1,0,0:0:0:0:
327,200,560967,6,0,L|311:88,1,105.000004005432,2|0,0:0|0:0,0:0:0:0:
195,81,561408,1,0,0:0:0:0:
181,185,561555,2,0,L|197:73,1,105.000004005432,8|2,0:0|0:0,0:0:0:0:
100,108,561996,1,0,0:0:0:0:
40,196,562143,5,0,0:0:0:0:
40,196,562217,1,0,0:0:0:0:
40,196,562291,1,0,0:0:0:0:
64,281,562438,1,0,0:0:0:0:
25,358,562585,1,0,0:0:0:0:
117,376,562732,2,0,P|164:368|183:353,1,52.5000020027161,8|0,0:0|0:0,0:0:0:0:
214,293,563026,2,0,P|238:283|264:283,1,52.5000020027161,0|0,0:0|0:0,0:0:0:0:
379,322,563320,6,0,P|384:293|381:265,1,52.5000020027161,2|0,0:0|0:0,0:0:0:0:
264,283,563614,2,0,P|259:254|262:226,1,52.5000020027161,0|0,0:0|0:0,0:0:0:0:
346,187,563908,2,0,P|351:158|348:130,1,52.5000020027161,8|0,0:0|0:0,0:0:0:0:
231,148,564202,2,0,P|226:119|229:91,1,52.5000020027161,2|0,0:0|0:0,0:0:0:0:
139,49,564496,5,0,0:0:0:0:
139,49,564570,1,0,0:0:0:0:
139,49,564643,1,0,0:0:0:0:
91,117,564791,1,0,0:0:0:0:
126,192,564938,1,0,0:0:0:0:
86,266,565085,2,0,P|124:288|191:290,1,105.000004005432,8|0,0:0|0:0,0:0:0:0:
265,265,565526,1,0,0:0:0:0:
343,305,565673,6,0,L|350:193,1,105.000004005432,2|0,0:0|0:0,0:0:0:0:
424,150,566114,1,0,0:0:0:0:
447,235,566261,2,0,L|450:291,1,52.5000020027161,8|0,0:0|0:0,0:0:0:0:
343,305,566555,2,0,L|339:361,1,52.5000020027161,2|0,0:0|0:0,0:0:0:0:
235,334,566849,5,0,0:0:0:0:
235,334,566923,1,0,0:0:0:0:
235,334,566996,1,0,0:0:0:0:
151,369,567143,1,0,0:0:0:0:
89,293,567291,6,0,L|62:306,2,26.2500010013581,8|8|8,0:0|0:0|0:0,0:0:0:0:
111,207,567585,1,8,0:0:0:0:
104,197,567879,1,8,0:0:0:0:
203,90,568026,6,0,P|205:136|217:167,1,61.2500005841255,6|0,0:0|0:0,0:0:0:0:
271,232,568320,1,0,0:0:0:0:
271,232,568467,1,0,0:0:0:0:
394,198,568614,2,0,P|392:244|380:275,1,61.2500005841255,8|0,0:0|0:0,0:0:0:0:
326,340,568908,1,2,0:0:0:0:
326,340,569055,1,0,0:0:0:0:
216,287,569202,5,0,0:0:0:0:
215,302,569275,1,0,0:0:0:0:
214,317,569349,1,0,0:0:0:0:
129,308,569496,1,0,0:0:0:0:
42,343,569643,1,0,0:0:0:0:
46,257,569791,2,0,P|59:218|56:180,1,61.2500005841255,8|0,0:0|0:0,0:0:0:0:
8,130,570085,2,0,P|10:99|21:71,1,61.2500005841255,0|0,0:0|0:0,0:0:0:0:
108,32,570379,6,0,P|165:49|234:28,1,122.500001168251,2|0,0:0|0:0,0:0:0:0:
314,71,570820,1,0,0:0:0:0:
320,161,570967,2,0,P|355:179|395:175,1,61.2500005841255,8|0,0:0|0:0,0:0:0:0:
455,243,571261,2,0,P|420:261|380:257,1,61.2500005841255,2|0,0:0|0:0,0:0:0:0:
313,350,571555,5,0,0:0:0:0:
313,334,571628,1,0,0:0:0:0:
313,319,571702,1,0,0:0:0:0:
218,277,571849,1,0,0:0:0:0:
134,331,571996,1,0,0:0:0:0:
100,241,572143,2,0,L|106:176,1,61.2500005841255,8|0,0:0|0:0,0:0:0:0:
216,263,572438,2,0,L|210:198,1,61.2500005841255,0|0,0:0|0:0,0:0:0:0:
311,90,572732,6,0,P|313:147|332:175,1,81.6666674455007,2|0,0:0|0:0,0:0:0:0:
351,186,573026,2,0,L|345:261,1,61.2500005841255,0|0,0:0|0:0,0:0:0:0:
444,258,573320,2,0,L|450:333,1,61.2500005841255,8|0,0:0|0:0,0:0:0:0:
330,380,573614,2,0,L|334:318,1,61.2500005841255,2|0,0:0|0:0,0:0:0:0:
232,253,573908,5,0,0:0:0:0:
233,268,573982,1,0,0:0:0:0:
234,283,574055,1,0,0:0:0:0:
159,352,574202,1,0,0:0:0:0:
97,282,574349,1,0,0:0:0:0:
132,199,574496,2,0,P|134:173|126:135,1,61.2500005841255,8|0,0:0|0:0,0:0:0:0:
191,25,574791,2,0,P|189:51|197:89,1,61.2500005841255,0|0,0:0|0:0,0:0:0:0:
322,108,575085,6,0,L|311:254,1,122.500001168251,2|0,0:0|0:0,0:0:0:0:
255,302,575526,1,0,0:0:0:0:
181,178,575673,2,0,L|186:251,1,61.2500005841255,8|0,0:0|0:0,0:0:0:0:
85,222,575967,2,0,L|79:295,1,61.2500005841255,2|0,0:0|0:0,0:0:0:0:
146,345,576261,5,0,0:0:0:0:
161,346,576334,1,0,0:0:0:0:
176,347,576408,1,0,0:0:0:0:
255,302,576555,1,0,0:0:0:0:
337,346,576702,1,8,0:0:0:0:
411,295,576849,5,8,0:0:0:0:
375,208,576996,1,8,0:0:0:0:
391,109,577143,2,0,P|379:71|365:55,1,61.2500005841255,0|8,0:0|0:0,0:0:0:0:
254,42,577438,6,0,L|163:36,2,70,2|0|0,0:0|0:0|0:0,0:0:0:0:
294,135,578320,1,2,0:0:0:0:
210,195,578614,2,0,L|119:201,2,70,0|0|0,0:0|0:0|0:0,0:0:0:0:
345,330,579791,6,0,P|385:329|395:234,1,140,2|0,0:0|0:0,0:0:0:0:
344,176,580673,1,2,0:0:0:0:
277,231,580967,1,0,0:0:0:0:
202,179,581261,1,0,0:0:0:0:
234,84,581555,1,0,0:0:0:0:
81,79,581996,1,0,0:0:0:0:
81,79,582143,6,0,L|94:168,2,70,2|0|0,0:0|0:0|0:0,0:0:0:0:
177,107,583026,1,2,0:0:0:0:
91,148,583320,2,0,L|78:237,2,70,0|0|0,0:0|0:0|0:0,0:0:0:0:
199,322,585085,5,0,0:0:0:0:
287,340,585379,1,0,0:0:0:0:
363,297,585673,1,0,0:0:0:0:
357,216,585967,1,0,0:0:0:0:
411,151,586261,1,0,0:0:0:0:
136,102,588755,6,0,L|124:272,2,140,2|0|0,0:0|0:0|0:0,0:0:0:0:
370,41,590161,2,0,P|379:75|378:118,1,70,0|0,0:0|0:0,0:0:0:0:
361,198,590630,6,0,L|367:239,2,35,2|0|0,0:0|0:0|0:0,0:0:0:0:
282,261,591098,2,0,L|276:302,2,35,2|0|0,0:0|0:0|0:0,0:0:0:0:
280,142,591567,2,0,L|286:183,2,35,2|0|0,0:0|0:0|0:0,0:0:0:0:
201,205,592035,2,0,L|195:246,2,35,2|0|0,0:0|0:0|0:0,0:0:0:0:
94,124,592505,6,0,P|108:172|50:266,2,140,2|0|0,0:0|0:0|0:0,0:0:0:0:
266,41,593911,2,0,L|257:128,1,70,0|0,0:0|0:0,0:0:0:0:
393,294,594380,6,0,L|386:255,1,35,2|0,0:0|0:0,0:0:0:0:
370,186,594614,1,0,0:0:0:0:
312,351,594848,2,0,L|305:312,1,35,2|0,0:0|0:0,0:0:0:0:
289,243,595082,1,0,0:0:0:0:
182,316,595317,5,8,0:0:0:0:
171,301,595434,1,8,0:0:0:0:
163,286,595551,1,8,0:0:0:0:
158,269,595668,1,8,0:0:0:0:
156,252,595787,5,2,0:0:0:0:
154,234,595904,1,2,0:0:0:0:
149,217,596021,1,2,0:0:0:0:
141,202,596138,1,2,0:0:0:0:
130,188,596255,5,6,0:0:0:0:
272,127,596489,1,0,0:0:0:0:
272,127,596606,1,0,0:0:0:0:
272,127,596723,1,8,0:0:0:0:
80,84,596958,1,0,0:0:0:0:
248,305,597192,2,0,L|253:246,1,52.5000020027161,2|0,0:0|0:0,0:0:0:0:
272,127,597426,1,0,0:0:0:0:
100,242,597661,2,0,L|110:360,1,105.000004005432,8|0,0:0|0:0,0:0:0:0:
344,312,598130,5,2,0:0:0:0:
405,147,598364,1,0,0:0:0:0:
405,147,598481,1,0,0:0:0:0:
405,147,598598,1,8,0:0:0:0:
207,105,598833,1,0,0:0:0:0:
308,213,599067,1,2,0:0:0:0:
128,295,599301,1,0,0:0:0:0:
128,295,599419,1,0,0:0:0:0:
128,295,599536,2,0,P|105:240|113:194,1,105.000004005432,8|0,0:0|0:0,0:0:0:0:
249,346,600005,5,2,0:0:0:0:
308,213,600239,1,0,0:0:0:0:
308,213,600356,1,0,0:0:0:0:
308,213,600473,1,8,0:0:0:0:
390,358,600708,1,0,0:0:0:0:
491,215,600942,2,0,P|468:205|435:200,1,52.5000020027161,2|0,0:0|0:0,0:0:0:0:
308,213,601176,1,0,0:0:0:0:
411,40,601411,2,0,P|412:103|346:113,1,105.000004005432,8|0,0:0|0:0,0:0:0:0:
46,93,601880,5,2,0:0:0:0:
151,232,602114,1,0,0:0:0:0:
151,232,602231,1,0,0:0:0:0:
151,232,602348,1,8,0:0:0:0:
252,76,602583,2,0,P|256:98|258:135,2,52.5000020027161,0|0|2,0:0|0:0|0:0,0:0:0:0:
363,235,603051,1,0,0:0:0:0:
363,235,603168,1,0,0:0:0:0:
363,235,603286,2,0,L|357:352,1,105.000004005432,8|0,0:0|0:0,0:0:0:0:
188,214,603755,5,2,0:0:0:0:
232,350,603989,1,0,0:0:0:0:
232,350,604106,1,0,0:0:0:0:
232,350,604223,1,8,0:0:0:0:
276,143,604458,1,0,0:0:0:0:
401,291,604692,2,0,P|386:305|351:328,1,52.5000020027161,2|0,0:0|0:0,0:0:0:0:
232,350,604926,1,0,0:0:0:0:
132,208,605161,2,0,L|123:343,1,105.000004005432,8|0,0:0|0:0,0:0:0:0:
263,227,605630,5,2,0:0:0:0:
210,84,605864,1,0,0:0:0:0:
210,84,605981,1,0,0:0:0:0:
210,84,606098,1,8,0:0:0:0:
377,158,606333,1,0,0:0:0:0:
176,218,606567,1,2,0:0:0:0:
384,305,606801,1,0,0:0:0:0:
384,305,606919,1,0,0:0:0:0:
384,305,607036,2,0,P|447:310|470:267,1,105.000004005432,8|0,0:0|0:0,0:0:0:0:
200,348,607505,5,2,0:0:0:0:
280,218,607739,1,0,0:0:0:0:
280,218,607856,1,0,0:0:0:0:
280,218,607973,1,8,0:0:0:0:
331,380,608208,1,0,0:0:0:0:
445,248,608442,2,0,P|425:236|392:231,1,52.5000020027161,2|0,0:0|0:0,0:0:0:0:
280,218,608676,1,0,0:0:0:0:
200,348,608911,1,8,0:0:0:0:
198,130,609145,1,0,0:0:0:0:
198,130,609262,1,0,0:0:0:0:
198,130,609380,5,2,0:0:0:0:
83,309,609614,1,0,0:0:0:0:
83,309,609731,1,0,0:0:0:0:
83,309,609848,1,8,0:0:0:0:
71,96,610083,2,0,P|60:72|54:40,2,52.5000020027161,0|0|2,0:0|0:0|0:0,0:0:0:0:
205,261,610551,1,0,0:0:0:0:
205,261,610669,1,0,0:0:0:0:
205,261,610786,1,8,0:0:0:0:
0,206,611020,1,0,0:0:0:0:
300,54,611255,6,0,L|293:188,1,131.25,6|0,0:0|0:0,0:0:0:0:
287,230,611723,1,8,0:0:0:0:
353,344,611958,1,0,0:0:0:0:
217,337,612192,1,2,0:0:0:0:
84,360,612426,1,0,0:0:0:0:
105,248,612661,1,8,0:0:0:0:
55,134,612895,1,0,0:0:0:0:
173,81,613130,5,2,0:0:0:0:
273,143,613364,2,0,P|319:154|364:143,1,87.5,0|8,0:0|0:0,0:0:0:0:
420,253,613833,2,0,P|374:242|329:253,1,87.5,0|2,0:0|0:0,0:0:0:0:
226,300,614301,5,0,0:0:0:0:
261,112,614536,1,8,0:0:0:0:
242,311,614770,5,0,0:0:0:0:
244,101,615005,1,2,0:0:0:0:
132,247,615239,5,0,0:0:0:0:
242,311,615473,2,0,P|297:318|330:303,1,87.5,8|0,0:0|0:0,0:0:0:0:
398,231,615942,2,0,P|439:217|481:225,1,87.5,2|0,0:0|0:0,0:0:0:0:
477,118,616411,1,8,0:0:0:0:
368,155,616645,1,0,0:0:0:0:
268,89,616880,5,2,0:0:0:0:
189,173,617114,2,0,L|187:268,1,87.5,0|8,0:0|0:0,0:0:0:0:
78,110,617583,2,0,L|80:205,1,87.5,0|2,0:0|0:0,0:0:0:0:
119,340,618051,5,0,0:0:0:0:
307,281,618286,1,8,0:0:0:0:
95,325,618520,5,0,0:0:0:0:
330,295,618755,1,2,0:0:0:0:
456,360,618989,5,0,0:0:0:0:
482,256,619223,1,8,0:0:0:0:
443,158,619458,1,0,0:0:0:0:
461,47,619692,1,2,0:0:0:0:
345,79,619926,1,0,0:0:0:0:
226,54,620161,1,8,0:0:0:0:
265,158,620395,1,0,0:0:0:0:
139,141,620630,5,2,0:0:0:0:
185,250,620864,2,0,L|178:350,1,87.5,0|8,0:0|0:0,0:0:0:0:
333,277,621333,2,0,L|340:377,1,87.5,0|2,0:0|0:0,0:0:0:0:
390,105,621801,5,0,0:0:0:0:
440,269,622036,1,8,0:0:0:0:
402,84,622270,5,0,0:0:0:0:
427,289,622505,1,2,0:0:0:0:
319,189,622739,5,0,0:0:0:0:
217,243,622973,1,8,0:0:0:0:
130,184,623208,1,0,0:0:0:0:
58,263,623442,1,2,0:0:0:0:
123,344,623676,1,0,0:0:0:0:
223,314,623911,1,8,0:0:0:0:
320,355,624145,1,0,0:0:0:0:
387,206,624380,5,2,0:0:0:0:
455,351,624614,2,0,P|462:293|451:243,1,87.5,0|8,0:0|0:0,0:0:0:0:
315,86,625083,1,0,0:0:0:0:
282,262,625317,1,2,0:0:0:0:
172,44,625551,2,0,P|146:101|220:212,1,175,0|0,0:0|0:0,0:0:0:0:
282,262,626255,5,2,0:0:0:0:
391,326,626489,1,0,0:0:0:0:
391,326,626606,1,0,0:0:0:0:
391,326,626723,1,0,0:0:0:0:
486,264,626958,1,0,0:0:0:0:
398,50,627192,2,0,L|414:240,1,175,0|0,0:0|0:0,0:0:0:0:
189,150,628130,6,0,L|173:340,3,175,2|0|0|0,0:0|0:0|0:0|0:0,0:0:0:0:
340,347,630005,5,2,0:0:0:0:
296,256,630239,1,0,0:0:0:0:
296,256,630356,1,0,0:0:0:0:
296,256,630473,1,2,0:0:0:0:
379,175,630708,2,0,L|421:184,2,43.75,0|0|2,0:0|0:0|0:0,0:0:0:0:
216,130,631176,1,0,0:0:0:0:
216,130,631294,1,0,0:0:0:0:
216,130,631411,2,0,P|191:177|186:230,1,87.5,2|0,0:0|0:0,0:0:0:0:
301,351,631880,5,2,0:0:0:0:
375,201,632114,1,0,0:0:0:0:
375,201,632231,1,0,0:0:0:0:
375,201,632348,1,0,0:0:0:0:
423,301,632583,1,0,0:0:0:0:
260,122,632817,5,8,0:0:0:0:
256,143,632934,1,8,0:0:0:0:
252,165,633051,1,8,0:0:0:0:
249,186,633168,1,8,0:0:0:0:
245,208,633285,1,2,0:0:0:0:
242,229,633402,1,2,0:0:0:0:
238,251,633520,1,2,0:0:0:0:
235,273,633637,1,2,0:0:0:0:
229,294,633755,6,0,L|137:279,1,87.5,6|0,0:0|0:0,0:0:0:0:
113,301,634106,2,0,L|128:209,1,87.5,0|0,0:0|0:0,0:0:0:0:
132,189,634458,1,0,0:0:0:0:
251,68,634692,2,0,P|245:122|267:159,1,87.5,2|0,0:0|0:0,0:0:0:0:
354,193,635161,1,8,0:0:0:0:
450,141,635395,1,0,0:0:0:0:
450,141,635512,1,0,0:0:0:0:
450,141,635630,6,0,L|442:239,1,87.5,2|0,0:0|0:0,0:0:0:0:
413,230,635981,2,0,L|421:328,1,87.5,0|0,0:0|0:0,0:0:0:0:
403,340,636333,1,0,0:0:0:0:
274,263,636567,2,0,P|282:305|272:353,1,87.5,2|0,0:0|0:0,0:0:0:0:
169,166,637036,2,0,P|161:208|171:256,1,87.5,8|0,0:0|0:0,0:0:0:0:
382,156,637505,5,2,0:0:0:0:
339,290,637739,1,0,0:0:0:0:
246,147,637973,1,8,0:0:0:0:
246,147,638090,1,0,0:0:0:0:
246,147,638208,1,0,0:0:0:0:
180,304,638442,2,0,P|130:310|69:284,1,87.5,2|0,0:0|0:0,0:0:0:0:
57,306,638794,2,0,L|66:162,1,131.25,0|0,0:0|0:0,0:0:0:0:
98,57,639380,5,2,0:0:0:0:
110,75,639497,1,0,0:0:0:0:
126,90,639614,1,0,0:0:0:0:
144,100,639731,1,0,0:0:0:0:
165,107,639848,1,8,0:0:0:0:
187,108,639965,1,0,0:0:0:0:
209,105,640083,1,0,0:0:0:0:
229,96,640200,1,0,0:0:0:0:
246,83,640317,5,2,0:0:0:0:
314,213,640551,1,0,0:0:0:0:
400,91,640786,2,0,P|406:142|399:195,1,87.5,8|0,0:0|0:0,0:0:0:0:
364,350,641255,5,2,0:0:0:0:
272,305,641489,1,0,0:0:0:0:
176,354,641723,1,8,0:0:0:0:
102,276,641958,1,0,0:0:0:0:
156,194,642192,1,2,0:0:0:0:
103,104,642426,1,0,0:0:0:0:
103,104,642544,2,0,P|168:111|210:53,1,131.25,0|0,0:0|0:0,0:0:0:0:
289,168,643130,5,2,0:0:0:0:
392,132,643365,1,0,0:0:0:0:
392,153,643482,1,0,0:0:0:0:
392,175,643599,1,8,0:0:0:0:
392,197,643716,1,0,0:0:0:0:
392,219,643833,1,0,0:0:0:0:
392,241,643950,1,0,0:0:0:0:
391,265,644067,2,0,L|276:285,1,87.5,2|0,0:0|0:0,0:0:0:0:
303,312,644419,2,0,L|170:289,1,131.25,0|0,0:0|0:0,0:0:0:0:
77,60,645005,6,0,P|70:114|84:156,1,87.5,2|0,0:0|0:0,0:0:0:0:
107,163,645356,2,0,P|116:205|108:248,1,87.5,0|0,0:0|0:0,0:0:0:0:
92,275,645708,1,0,0:0:0:0:
254,362,645942,6,0,L|238:273,1,87.5,2|0,0:0|0:0,0:0:0:0:
210,275,646294,2,0,L|234:141,1,131.25,0|0,0:0|0:0,0:0:0:0:
385,261,646880,5,2,0:0:0:0:
394,142,647114,1,0,0:0:0:0:
394,142,647231,2,0,P|340:147|271:102,1,131.25,0|0,0:0|0:0,0:0:0:0:
149,90,647817,5,2,0:0:0:0:
169,288,648051,1,0,0:0:0:0:
169,288,648168,2,0,P|115:283|46:328,1,131.25,0|0,0:0|0:0,0:0:0:0:
310,347,648755,5,6,0:0:0:0:
310,347,648872,1,0,0:0:0:0:
310,347,648989,1,0,0:0:0:0:
387,265,649223,1,8,0:0:0:0:
387,265,649340,1,0,0:0:0:0:
387,265,649457,1,0,0:0:0:0:
203,265,649692,5,2,0:0:0:0:
203,265,649809,1,0,0:0:0:0:
203,265,649926,1,0,0:0:0:0:
280,183,650160,1,8,0:0:0:0:
280,183,650277,1,0,0:0:0:0:
280,183,650394,1,0,0:0:0:0:
96,183,650630,5,2,0:0:0:0:
96,183,650747,1,0,0:0:0:0:
96,183,650864,1,0,0:0:0:0:
173,101,651098,1,8,0:0:0:0:
173,101,651215,1,0,0:0:0:0:
173,101,651332,1,0,0:0:0:0:
203,265,651567,5,2,0:0:0:0:
203,265,651684,1,0,0:0:0:0:
203,265,651801,1,0,0:0:0:0:
280,183,652036,1,8,0:0:0:0:
280,183,652153,2,0,P|288:209|290:239,1,43.75,0|0,0:0|0:0,0:0:0:0:
151,346,652505,5,2,0:0:0:0:
172,351,652622,1,0,0:0:0:0:
193,357,652739,1,0,0:0:0:0:
357,301,652973,1,8,0:0:0:0:
335,306,653090,1,0,0:0:0:0:
314,312,653207,1,0,0:0:0:0:
96,127,653442,5,2,0:0:0:0:
96,127,653559,1,0,0:0:0:0:
194,208,653794,2,0,P|241:219|302:215,1,87.5,0|0,0:0|0:0,0:0:0:0:
317,208,654145,1,0,0:0:0:0:
404,90,654380,5,2,0:0:0:0:
441,208,654614,1,0,0:0:0:0:
421,217,654731,1,0,0:0:0:0:
400,223,654848,1,8,0:0:0:0:
378,225,654965,1,0,0:0:0:0:
357,223,655082,1,0,0:0:0:0:
336,217,655199,1,0,0:0:0:0:
315,206,655317,2,0,L|305:161,1,43.75,2|0,0:0|0:0,0:0:0:0:
186,89,655669,2,0,L|176:233,1,131.25,0|0,0:0|0:0,0:0:0:0:
87,331,656255,5,2,0:0:0:0:
183,314,656489,1,0,0:0:0:0:
280,348,656723,1,8,0:0:0:0:
379,307,656958,1,0,0:0:0:0:
379,307,657075,1,0,0:0:0:0:
379,307,657192,2,0,L|357:206,1,87.5,2|0,0:0|0:0,0:0:0:0:
318,229,657544,2,0,L|337:97,1,131.25,0|0,0:0|0:0,0:0:0:0:
221,54,658130,5,2,0:0:0:0:
221,54,658247,1,0,0:0:0:0:
221,54,658364,1,0,0:0:0:0:
111,141,658598,1,8,0:0:0:0:
111,141,658715,1,0,0:0:0:0:
111,141,658833,1,0,0:0:0:0:
234,219,659067,2,0,P|287:221|321:200,1,87.5,2|0,0:0|0:0,0:0:0:0:
343,163,659419,2,0,L|387:311,1,131.25,0|0,0:0|0:0,0:0:0:0:
251,355,660005,5,2,0:0:0:0:
150,291,660239,1,0,0:0:0:0:
150,291,660356,2,0,P|89:281|57:252,1,87.5,0|0,0:0|0:0,0:0:0:0:
42,243,660708,1,0,0:0:0:0:
157,159,660942,2,0,L|149:301,2,131.25,2|0|0,0:0|0:0|0:0,0:0:0:0:
294,306,661880,6,0,L|281:214,1,87.5,2|0,0:0|0:0,0:0:0:0:
425,358,662348,2,0,L|438:266,1,87.5,8|0,0:0|0:0,0:0:0:0:
158,315,662817,1,2,0:0:0:0:
213,155,663051,1,0,0:0:0:0:
213,155,663169,1,0,0:0:0:0:
213,155,663286,1,8,0:0:0:0:
293,364,663520,1,0,0:0:0:0:
345,47,663755,5,6,0:0:0:0:
314,125,678755,6,0,L|328:224,1,70,2|0,0:0|0:0,0:0:0:0:
239,219,679223,2,0,L|253:318,1,70,0|0,0:0|0:0,0:0:0:0:
161,351,679692,1,0,0:0:0:0:
80,287,679926,1,0,0:0:0:0:
80,287,680044,2,0,P|102:248|99:166,1,105,0|0,0:0|0:0,0:0:0:0:
347,345,680630,6,0,P|300:350|268:338,1,70,2|0,0:0|0:0,0:0:0:0:
412,225,681098,2,0,P|365:220|333:232,1,70,0|0,0:0|0:0,0:0:0:0:
226,274,681567,1,0,0:0:0:0:
244,163,681801,1,0,0:0:0:0:
244,163,681919,2,0,L|220:28,1,105,0|0,0:0|0:0,0:0:0:0:
59,296,682505,5,2,0:0:0:0:
73,171,682739,1,0,0:0:0:0:
142,272,682973,5,2,0:0:0:0:
156,147,683207,1,0,0:0:0:0:
221,315,683442,5,2,0:0:0:0:
235,190,683676,1,0,0:0:0:0:
304,291,683910,5,2,0:0:0:0:
318,166,684144,1,0,0:0:0:0:
386,328,684380,5,2,0:0:0:0:
415,310,684497,1,2,0:0:0:0:
436,282,684614,1,2,0:0:0:0:
445,248,684731,1,2,0:0:0:0:
440,214,684848,5,2,0:0:0:0:
434,179,684965,1,2,0:0:0:0:
443,145,685082,1,2,0:0:0:0:
464,118,685199,1,2,0:0:0:0:
494,100,685316,5,2,0:0:0:0:
424,89,685434,1,2,0:0:0:0:
355,78,685551,2,0,L|363:37,1,26.2500010013581,2|2,0:0|0:0,0:0:0:0:
286,67,685669,2,0,L|281:92,1,26.2500010013581,2|2,0:0|0:0,0:0:0:0:
217,57,685786,2,0,L|224:15,1,26.2500010013581,2|2,0:0|0:0,0:0:0:0:
206,126,685903,2,0,L|231:130,1,26.2500010013581,2|2,0:0|0:0,0:0:0:0:
195,195,686020,2,0,L|153:187,1,26.2500010013581,2|2,0:0|0:0,0:0:0:0:
184,265,686138,2,0,L|209:269,1,26.2500010013581,2|2,0:0|0:0,0:0:0:0:
174,334,686255,6,0,L|65:314,1,105,2|0,0:0|0:0,0:0:0:0:
346,307,688130,5,6,0:0:0:0:
356,168,688364,1,0,0:0:0:0:
351,237,688481,1,0,0:0:0:0:
346,307,688598,1,8,0:0:0:0:
234,141,688833,1,0,0:0:0:0:
122,342,689067,6,0,P|112:312|109:261,1,70,2|0,0:0|0:0,0:0:0:0:
125,177,689301,1,0,0:0:0:0:
264,370,689536,2,0,P|276:283|245:205,1,140,8|0,0:0|0:0,0:0:0:0:
162,61,690005,5,2,0:0:0:0:
294,110,690239,1,0,0:0:0:0:
228,85,690356,1,0,0:0:0:0:
162,61,690473,1,8,0:0:0:0:
255,199,690708,1,0,0:0:0:0:
430,276,690942,5,2,0:0:0:0:
298,325,691176,1,0,0:0:0:0:
364,300,691293,1,0,0:0:0:0:
430,276,691411,2,0,P|454:196|434:130,1,140,8|0,0:0|0:0,0:0:0:0:
174,268,691880,5,2,0:0:0:0:
168,129,692114,1,0,0:0:0:0:
171,198,692231,1,0,0:0:0:0:
174,268,692348,1,8,0:0:0:0:
299,333,692583,1,0,0:0:0:0:
447,100,692817,6,0,P|454:134|447:176,1,70,2|0,0:0|0:0,0:0:0:0:
404,253,693051,1,0,0:0:0:0:
284,101,693286,2,0,P|276:177|325:273,1,140,8|0,0:0|0:0,0:0:0:0:
168,325,693755,5,2,0:0:0:0:
128,190,693989,1,0,0:0:0:0:
147,257,694106,1,0,0:0:0:0:
167,324,694223,1,8,0:0:0:0:
128,190,694458,5,0,0:0:0:0:
197,207,694575,1,0,0:0:0:0:
147,257,694692,1,2,0:0:0:0:
237,342,694926,1,0,0:0:0:0:
217,274,695043,1,0,0:0:0:0:
197,207,695161,2,0,P|204:112|258:94,1,140,8|0,0:0|0:0,0:0:0:0:
435,170,695630,5,2,0:0:0:0:
299,134,695864,1,0,0:0:0:0:
366,151,695981,1,0,0:0:0:0:
434,169,696098,1,8,0:0:0:0:
202,269,696333,1,0,0:0:0:0:
427,311,696567,6,0,P|405:293|357:273,1,70,2|0,0:0|0:0,0:0:0:0:
202,269,696801,1,0,0:0:0:0:
185,140,697036,2,0,P|216:203|190:285,1,140,8|0,0:0|0:0,0:0:0:0:
342,47,697505,5,2,0:0:0:0:
202,60,697739,1,0,0:0:0:0:
271,53,697856,1,0,0:0:0:0:
341,46,697973,1,8,0:0:0:0:
185,140,698208,1,0,0:0:0:0:
261,231,698442,5,2,0:0:0:0:
121,218,698676,1,0,0:0:0:0:
190,224,698793,1,0,0:0:0:0:
261,231,698911,2,0,L|436:249,1,140,8|0,0:0|0:0,0:0:0:0:
176,363,699380,5,2,0:0:0:0:
190,224,699614,1,0,0:0:0:0:
183,293,699731,1,0,0:0:0:0:
176,363,699848,1,8,0:0:0:0:
337,349,700083,1,0,0:0:0:0:
354,120,700317,6,0,P|361:151|362:191,1,70,2|0,0:0|0:0,0:0:0:0:
337,349,700551,1,0,0:0:0:0:
181,86,700786,1,8,0:0:0:0:
156,321,701020,5,0,0:0:0:0:
166,251,701137,1,0,0:0:0:0:
177,182,701254,1,2,0:0:0:0:
242,307,701489,1,0,0:0:0:0:
179,276,701606,1,0,0:0:0:0:
116,245,701723,1,8,0:0:0:0:
255,221,701958,1,0,0:0:0:0:
206,271,702075,1,0,0:0:0:0:
156,321,702192,1,2,0:0:0:0:
177,182,702426,1,0,0:0:0:0:
209,244,702543,1,0,0:0:0:0:
241,307,702661,2,0,P|323:337|348:290,1,140,8|0,0:0|0:0,0:0:0:0:
362,72,703130,6,0,L|353:223,1,131.25,2|0,0:0|0:0,0:0:0:0:
344,246,703598,1,8,0:0:0:0:
278,323,703833,1,0,0:0:0:0:
181,265,704067,1,2,0:0:0:0:
93,333,704301,1,0,0:0:0:0:
28,257,704536,1,8,0:0:0:0:
79,164,704770,1,0,0:0:0:0:
33,76,705005,5,2,0:0:0:0:
148,91,705239,2,0,P|200:89|229:60,1,87.5,0|8,0:0|0:0,0:0:0:0:
360,174,705708,2,0,P|308:172|279:143,1,87.5,0|2,0:0|0:0,0:0:0:0:
137,325,706176,5,0,0:0:0:0:
275,254,706411,1,8,0:0:0:0:
117,317,706645,5,0,0:0:0:0:
294,261,706880,1,2,0:0:0:0:
394,328,707114,5,0,0:0:0:0:
459,259,707348,1,8,0:0:0:0:
425,173,707583,1,0,0:0:0:0:
457,87,707817,1,2,0:0:0:0:
359,116,708051,1,0,0:0:0:0:
256,78,708286,1,8,0:0:0:0:
160,122,708520,1,0,0:0:0:0:
228,196,708755,5,2,0:0:0:0:
125,297,708989,2,0,P|106:242|107:200,1,87.5,0|8,0:0|0:0,0:0:0:0:
284,299,709458,2,0,P|280:342|264:382,1,87.5,0|2,0:0|0:0,0:0:0:0:
361,72,709926,5,0,0:0:0:0:
327,230,710161,1,8,0:0:0:0:
347,54,710395,5,0,0:0:0:0:
340,247,710630,1,2,0:0:0:0:
222,227,710864,5,0,0:0:0:0:
141,295,711098,1,8,0:0:0:0:
56,230,711333,1,0,0:0:0:0:
106,149,711567,1,2,0:0:0:0:
75,49,711801,1,0,0:0:0:0:
190,77,712036,1,8,0:0:0:0:
298,46,712270,1,0,0:0:0:0:
330,156,712505,5,2,0:0:0:0:
447,113,712739,2,0,P|446:160|470:208,1,87.5,0|8,0:0|0:0,0:0:0:0:
382,356,713208,2,0,P|383:309|359:261,1,87.5,0|2,0:0|0:0,0:0:0:0:
180,319,713676,5,0,0:0:0:0:
220,137,713911,1,8,0:0:0:0:
195,339,714145,5,0,0:0:0:0:
204,116,714380,1,2,0:0:0:0:
102,217,714614,5,0,0:0:0:0:
202,253,714848,1,8,0:0:0:0:
300,227,715083,1,0,0:0:0:0:
395,263,715317,1,2,0:0:0:0:
470,195,715551,1,0,0:0:0:0:
408,115,715786,1,8,0:0:0:0:
445,25,716020,1,0,0:0:0:0:
292,53,716255,5,2,0:0:0:0:
287,173,716489,2,0,L|280:281,1,87.5,0|8,0:0|0:0,0:0:0:0:
177,157,716958,1,0,0:0:0:0:
125,359,717192,5,2,0:0:0:0:
90,189,717426,2,0,L|69:77,1,87.5,0|8,0:0|0:0,0:0:0:0:
12,334,717895,1,0,0:0:0:0:
355,74,718130,5,2,0:0:0:0:
348,186,718364,1,0,0:0:0:0:
348,186,718481,1,0,0:0:0:0:
348,186,718598,1,0,0:0:0:0:
411,280,718833,1,0,0:0:0:0:
279,352,719067,2,0,P|288:304|192:234,1,175,0|0,0:0|0:0,0:0:0:0:
120,113,720005,6,0,P|111:161|207:231,3,175,2|0|0|0,0:0|0:0|0:0|0:0,0:0:0:0:
410,342,721880,5,2,0:0:0:0:
449,239,722114,1,0,0:0:0:0:
449,239,722231,1,0,0:0:0:0:
449,239,722348,1,0,0:0:0:0:
307,200,722583,2,0,L|313:245,2,43.75,0|0|0,0:0|0:0|0:0,0:0:0:0:
206,306,723051,1,0,0:0:0:0:
206,306,723169,1,0,0:0:0:0:
206,306,723286,2,0,P|183:258|185:203,1,87.5,0|0,0:0|0:0,0:0:0:0:
388,97,723755,5,2,0:0:0:0:
372,277,723989,1,0,0:0:0:0:
372,277,724106,1,0,0:0:0:0:
372,277,724223,1,2,0:0:0:0:
251,170,724458,1,0,0:0:0:0:
183,345,724692,5,8,0:0:0:0:
161,347,724809,1,8,0:0:0:0:
139,344,724926,1,8,0:0:0:0:
119,336,725043,1,8,0:0:0:0:
101,324,725160,1,2,0:0:0:0:
87,307,725277,1,2,0:0:0:0:
78,287,725395,1,2,0:0:0:0:
74,266,725512,1,2,0:0:0:0:
76,244,725629,5,6,0:0:0:0:
256,192,725747,12,0,729380,0:0:0:0:
