osu file format v14

[General]
AudioFilename: audio.mp3
AudioLeadIn: 0
PreviewTime: 66780
Countdown: 0
SampleSet: Soft
StackLeniency: 0.7
Mode: 0
LetterboxInBreaks: 0
WidescreenStoryboard: 1

[Editor]
DistanceSpacing: 1
BeatDivisor: 4
GridSize: 4
TimelineZoom: 0.9

[Metadata]
Title:Nogayo
TitleUnicode:녹아요
Artist:TWICE
ArtistUnicode:트와이스
Creator:[Kim Dahyun]
Version:Normal
Source:
Tags:TWICEcoaster LANE 2 kpop pop korean Melting Ice Cream
BeatmapID:1908817
BeatmapSetID:913830

[Difficulty]
HPDrainRate:4
CircleSize:3
OverallDifficulty:4
ApproachRate:5
SliderMultiplier:1.2
SliderTickRate:1

[Events]
//Background and Video events
0,0,"06ecd04f-41eb-48a4-9edd-5639beb22635.png",0,0
//Break Periods
//Storyboard Layer 0 (Background)
//Storyboard Layer 1 (Fail)
//Storyboard Layer 2 (Pass)
//Storyboard Layer 3 (Foreground)
//Storyboard Sound Samples

[TimingPoints]
-312,483.870967741935,4,2,2,40,1,0
48074,-100,4,2,2,60,0,0
67429,-100,4,2,1,80,0,1
79042,-100,4,2,1,100,0,1
84848,-100,4,2,1,30,0,1
84849,-100,4,2,1,30,0,0
84969,-100,4,2,2,30,0,0
106139,-100,4,2,2,25,0,0
108075,-100,4,2,2,20,0,0
110010,-100,4,2,2,15,0,0
111946,-100,4,2,2,10,0,0
113881,-100,4,2,2,5,0,0

[Colours]
Combo1 : 0,128,255
Combo2 : 158,138,229
Combo3 : 253,255,255

[HitObjects]
199,76,655,6,0,L|191:143,1,60,2|0,0:0|0:0,0:0:0:0:
237,174,1139,2,0,L|245:241,1,60,2|0,0:0|0:0,0:0:0:0:
298,260,1623,6,0,L|424:240,1,120,6|0,0:0|0:0,0:0:0:0:
475,230,2349,1,0,0:0:0:0:
465,50,3075,2,0,L|227:90,1,240,2|0,0:0|0:0,0:0:0:0:
111,117,4526,2,0,P|96:162|123:241,1,120,0|0,0:0|0:0,0:0:0:0:
221,283,5494,6,0,L|351:303,1,120,6|0,0:0|0:0,0:0:0:0:
399,309,6220,1,0,0:0:0:0:
451,136,6946,2,0,B|388:185|316:141|316:141|243:94|168:144,1,300,2|0,0:0|0:0,0:0:0:0:
122,178,8397,2,0,P|102:221|133:304,1,120,0|0,0:0|0:0,0:0:0:0:
226,343,9365,5,6,0:0:0:0:
256,192,9486,12,6,13236,0:0:0:0:
255,191,15171,5,0,0:0:0:0:
255,191,15413,2,0,P|287:206|327:210,2,60,2|2|0,0:0|0:0|0:0,0:0:0:0:
196,177,16139,2,0,P|128:199|123:254,1,120,2|2,0:0|0:0,0:0:0:0:
194,333,17107,5,6,0:0:0:0:
309,364,17591,2,0,P|331:331|335:305,1,60,0|2,0:0|0:0,0:0:0:0:
313,255,18075,1,10,0:0:0:0:
387,159,18558,1,2,0:0:0:0:
457,66,19042,6,0,P|482:89|511:102,2,60,0|0|0,0:0|0:0|0:0,0:0:0:0:
410,27,19768,1,2,0:0:0:0:
410,27,20010,2,0,P|342:36|310:81,1,120,10|2,0:0|0:0,0:0:0:0:
291,190,20978,6,0,P|241:163|174:182,1,120,2|0,0:0|0:0,0:0:0:0:
166,235,21704,2,0,P|107:238|60:203,1,120,2|0,0:0|0:0,0:0:0:0:
43,145,22429,2,0,P|47:114|70:80,1,60,2|0,0:0|0:0,0:0:0:0:
113,56,22913,2,0,P|173:83|152:245,1,240,2|8,0:0|0:0,0:0:0:0:
166,235,24849,6,0,L|298:246,1,120,2|0,0:0|0:0,0:0:0:0:
405,251,25817,2,0,P|455:215|458:152,1,120,10|0,0:0|0:0,0:0:0:0:
376,74,26784,5,2,0:0:0:0:
249,201,27510,1,2,0:0:0:0:
249,201,27752,2,0,P|190:183|162:133,1,120,10|2,0:0|0:0,0:0:0:0:
214,25,28720,6,0,B|345:66,2,120,0|2|8,0:0|0:0|0:0,0:0:0:0:
214,25,30413,1,2,0:0:0:0:
158,47,30655,6,0,P|152:116|174:165,1,120,2|0,0:0|0:0,0:0:0:0:
290,142,31623,2,0,P|296:73|274:24,1,120,10|0,0:0|0:0,0:0:0:0:
157,45,32591,6,0,P|98:51|52:88,1,120,6|0,0:0|0:0,0:0:0:0:
67,207,33558,2,0,P|91:261|81:319,1,120,10|0,0:0|0:0,0:0:0:0:
184,381,34526,2,0,P|291:347|304:227,1,240,2|10,0:0|0:0,0:0:0:0:
306,232,36462,6,0,P|363:217|420:236,1,120,2|0,0:0|0:0,0:0:0:0:
396,354,37429,2,0,P|364:350|328:333,1,60,10|0,0:0|0:0,0:0:0:0:
282,316,37913,2,0,P|254:304|224:301,1,60,2|0,0:0|0:0,0:0:0:0:
165,312,38397,6,0,P|79:315|122:195,1,240,2|8,0:0|0:0,0:0:0:0:
159,183,39607,2,0,P|223:191|276:154,1,120,2|0,0:0|0:0,0:0:0:0:
320,133,40333,5,6,0:0:0:0:
320,133,41300,2,0,P|339:200|330:259,1,120,10|0,0:0|0:0,0:0:0:0:
276,355,42268,5,6,0:0:0:0:
276,355,43236,2,0,P|245:292|244:232,1,120,10|0,0:0|0:0,0:0:0:0:
256,124,44204,6,0,B|199:149|141:122|141:122|79:93|23:125,1,240,6|10,0:0|0:0,0:0:0:0:
39,303,45897,1,2,0:0:0:0:
39,303,46139,6,0,L|158:354,1,120,2|0,0:0|0:0,0:0:0:0:
268,366,47107,2,0,P|300:361|323:343,1,60,10|2,0:0|0:0,0:0:0:0:
362,300,47591,2,0,P|386:282|415:278,1,60,2|0,0:0|0:0,0:0:0:0:
475,280,48075,6,0,P|520:219|501:184,1,120,6|0,0:0|0:0,0:0:0:0:
392,142,49042,2,0,L|266:95,1,120,10|2,0:0|0:0,0:0:0:0:
165,62,50010,5,2,0:0:0:0:
123,174,50494,1,2,0:0:0:0:
81,286,50978,2,0,P|126:332|183:335,1,120,10|0,0:0|0:0,0:0:0:0:
246,236,51946,6,0,L|359:309,1,120,2|0,0:0|0:0,0:0:0:0:
458,257,52913,2,0,L|357:191,1,120,10|2,0:0|0:0,0:0:0:0:
251,134,53881,6,0,P|215:132|187:119,2,60,2|2|2,0:0|0:0|0:0,0:0:0:0:
362,88,54849,1,0,0:0:0:0:
362,88,55091,2,0,P|428:108|444:170,1,120,2|0,0:0|0:0,0:0:0:0:
448,211,55817,6,0,L|314:252,1,120,6|0,0:0|0:0,0:0:0:0:
220,288,56784,2,0,P|175:241|184:185,1,120,8|2,0:0|0:0,0:0:0:0:
294,151,57752,6,0,L|335:285,2,120,0|2|10,0:0|0:0|0:0,0:0:0:0:
258,35,59204,2,0,P|234:24|197:22,1,60,2|2,0:0|0:0,0:0:0:0:
142,35,59687,5,2,0:0:0:0:
87,60,59929,2,0,P|87:119|121:167,1,120,0|0,0:0|0:0,0:0:0:0:
172,198,60655,1,10,0:0:0:0:
219,235,60897,2,0,P|248:271|256:296,2,60,2|2|0,0:0|0:0|0:0,0:0:0:0:
172,198,61623,6,0,P|198:150|264:146,1,120,2|0,0:0|0:0,0:0:0:0:
378,143,62591,1,10,0:0:0:0:
389,84,62833,2,0,L|397:23,2,60,2|2|0,0:0|0:0|0:0,0:0:0:0:
378,143,63558,5,4,0:0:0:0:
378,143,65494,5,0,0:0:0:0:
158,239,66462,2,0,P|195:278|259:277,1,120,2|2,0:0|0:0,0:0:0:0:
303,238,67187,1,2,0:0:0:0:
303,238,67429,6,0,L|311:164,2,60,6|2|2,0:0|0:0|0:0,0:0:0:0:
334,289,68155,1,0,0:0:0:0:
334,289,68397,2,0,L|327:348,2,60,10|0|2,0:0|0:0|0:0,0:0:0:0:
303,238,69123,6,0,P|241:247|188:201,1,120,2|2,0:0|0:0,0:0:0:0:
189,156,69849,1,0,0:0:0:0:
184,36,70333,2,0,P|149:46|120:65,1,60,8|2,0:0|0:0,0:0:0:0:
85,99,70817,2,0,P|74:126|56:151,1,60,2|0,0:0|0:0,0:0:0:0:
29,202,71300,6,0,P|43:228|50:257,2,60,2|2|2,0:0|0:0|0:0,0:0:0:0:
152,220,72268,1,8,0:0:0:0:
152,220,72510,2,0,P|151:249|143:278,2,60,2|2|0,0:0|0:0|0:0,0:0:0:0:
136,162,73236,6,0,P|136:132|144:103,1,60,2|2,0:0|0:0,0:0:0:0:
187,61,73720,1,2,0:0:0:0:
187,61,73962,2,0,P|252:90|259:146,1,120,2|0,0:0|0:0,0:0:0:0:
249,191,74687,1,0,0:0:0:0:
246,311,75171,6,0,L|313:320,1,60,2|0,0:0|0:0,0:0:0:0:
360,346,75655,2,0,L|427:337,1,60,2|0,0:0|0:0,0:0:0:0:
463,296,76139,2,0,L|472:229,1,60,10|2,0:0|0:0,0:0:0:0:
457,177,76623,1,2,0:0:0:0:
457,177,76865,6,0,P|402:202|357:164,1,120,2|0,0:0|0:0,0:0:0:0:
343,111,77591,1,0,0:0:0:0:
241,46,78075,2,0,P|247:82|244:106,1,60,10|2,0:0|0:0,0:0:0:0:
233,164,78558,2,0,P|198:151|179:136,1,60,2|2,0:0|0:0,0:0:0:0:
134,97,79042,6,0,B|107:112|104:145|104:145|102:180|77:200,2,120,6|2|8,0:0|0:0|0:0,0:0:0:0:
187,69,80252,1,2,0:0:0:0:
241,46,80494,2,0,P|269:35|304:29,1,60,2|0,0:0|0:0,0:0:0:0:
352,33,80978,5,2,0:0:0:0:
352,33,81220,2,0,B|384:179,1,120,2|0,0:0|0:0,0:0:0:0:
389,209,81946,1,8,0:0:0:0:
301,290,82429,1,2,0:0:0:0:
248,261,82671,6,0,P|188:274|171:339,1,120,2|2,0:0|0:0,0:0:0:0:
201,374,83397,1,2,0:0:0:0:
321,372,83881,1,10,0:0:0:0:
321,372,84123,2,0,P|348:360|378:357,1,60,2|2,0:0|0:0,0:0:0:0:
437,364,84607,1,2,0:0:0:0:
437,364,84849,6,0,B|444:309|444:309|417:250|417:250|425:188|425:188|440:104|349:41|263:93|249:159|278:214,1,480,4|0,0:0|0:0,0:0:0:0:
212,192,88720,6,0,P|216:221|214:262,2,60,6|2|2,0:0|0:0|0:0,0:0:0:0:
174,77,89687,2,0,P|142:80|101:72,1,60,10|0,0:0|0:0,0:0:0:0:
55,63,90171,1,2,0:0:0:0:
55,63,90413,6,0,P|18:138|90:200,1,180,0|0,0:0|0:0,0:0:0:0:
137,205,91381,1,2,0:0:0:0:
137,205,91623,2,0,P|169:221|185:239,2,60,10|0|2,0:0|0:0|0:0,0:0:0:0:
77,198,92349,6,0,P|23:242|32:298,1,120,0|0,0:0|0:0,0:0:0:0:
66,331,93075,1,2,0:0:0:0:
185,321,93558,2,0,L|320:308,1,120,10|0,0:0|0:0,0:0:0:0:
424,297,94526,5,0,0:0:0:0:
424,297,95494,2,0,L|407:217,1,60,2|0,0:0|0:0,0:0:0:0:
416,178,95978,2,0,L|399:98,1,60,2|0,0:0|0:0,0:0:0:0:
366,71,96462,6,0,P|270:25|184:147,1,240,6|0,0:0|0:0,0:0:0:0:
188,226,97913,2,0,P|152:277|88:300,1,120,2|0,0:0|0:0,0:0:0:0:
76,182,98881,2,0,P|118:127|288:159,1,240,2|0,0:0|0:0,0:0:0:0:
341,239,100333,5,6,0:0:0:0:
341,239,102268,2,0,P|312:247|287:265,1,60,2|0,0:0|0:0,0:0:0:0:
247,308,102752,2,0,P|222:325|193:333,1,60,2|0,0:0|0:0,0:0:0:0:
134,328,103236,5,6,0:0:0:0:
256,192,105171,12,0,113881,0:0:0:0:
