osu file format v14

[General]
AudioFilename: audio.mp3
AudioLeadIn: 0
PreviewTime: 41034
Countdown: 0
SampleSet: Soft
StackLeniency: 0.7
Mode: 0
LetterboxInBreaks: 0
WidescreenStoryboard: 0

[Editor]
DistanceSpacing: 1
BeatDivisor: 3
GridSize: 4
TimelineZoom: 0.8999999

[Metadata]
Title:Merry & Happy
TitleUnicode:Merry & Happy
Artist:TWICE
ArtistUnicode:트와이스
Creator:iYiyo
Version:Mk's Merry & Normal!
Source:
Tags:Futser [Im Nayeon] Im [Im_Nayeon] MkGuh Marianna kpop k-pop jyp entertainment korea korean once christmas xmas Merry&Happy and sana jihyo dahyun nayeon jeongyeon chaeyoung momo mina tzuyu
BeatmapID:2599120
BeatmapSetID:1250620

[Difficulty]
HPDrainRate:4
CircleSize:3.5
OverallDifficulty:4
ApproachRate:5
SliderMultiplier:1.1
SliderTickRate:1

[Events]
//Background and Video events
0,0,"xmas.jpg",0,0
Video,-11000,"Twice Merry & Happy M V-1-1.mp4"
//Break Periods
2,69383,74217
2,131721,145515
2,184708,186424
//Storyboard Layer 0 (Background)
//Storyboard Layer 1 (Fail)
//Storyboard Layer 2 (Pass)
//Storyboard Layer 3 (Foreground)
//Storyboard Layer 4 (Overlay)
//Storyboard Sound Samples

[TimingPoints]
612,389.61038961039,4,2,1,30,1,0
6845,-111.111111111111,4,2,1,40,0,0
19313,-111.111111111111,4,2,1,50,0,0
31780,-100,4,2,1,60,0,0
44248,-90.9090909090909,4,2,1,65,0,1
56586,-90.9090909090909,4,2,1,65,0,0
56715,-90.9090909090909,4,2,1,65,0,1
69183,-111.111111111111,4,2,1,40,0,0
81650,-100,4,2,1,50,0,0
94118,-100,4,2,1,60,0,0
106586,-90.9090909090909,4,2,1,65,0,1
118923,-90.9090909090909,4,2,1,65,0,0
119053,-90.9090909090909,4,2,1,65,0,1
131521,-117.647058823529,4,2,1,40,0,0
145936,-117.647058823529,4,2,1,50,0,0
147105,-100,4,2,1,60,0,0
159573,-90.9090909090909,4,2,1,65,0,1
171910,-90.9090909090909,4,2,1,65,0,0
172040,-90.9090909090909,4,2,1,65,0,1
184508,-200,4,2,1,40,0,0
187624,-200,4,2,1,40,0,0
188404,-200,4,2,1,40,0,0
189183,-200,4,2,1,40,0,0
189962,-200,4,2,1,40,0,0
190741,-200,4,2,1,40,0,0

[Colours]
Combo1 : 64,133,208
Combo2 : 114,185,79
Combo3 : 238,17,17
SliderBorder : 255,17,17
SliderTrackOverride : 17,145,17

[HitObjects]
256,191,6845,5,2,0:0:0:0:
184,120,7235,2,0,L|68:120,1,98.9999969787599,8|2,0:0|0:0,0:0:0:0:
16,192,8014,1,8,0:0:0:0:
84,264,8404,1,2,0:0:0:0:
184,264,8793,2,0,B|232:264|232:264|256:308,1,98.9999969787599,8|2,0:0|0:0,0:0:0:0:
348,360,9573,1,8,0:0:0:0:
424,296,9962,5,2,0:0:0:0:
380,208,10352,2,0,P|368:160|396:100,1,98.9999969787599,8|2,0:0|0:0,0:0:0:0:
308,48,11131,1,8,0:0:0:0:
208,48,11521,1,2,0:0:0:0:
128,114,11910,2,0,P|144:160|132:208,1,98.9999969787599,8|2,0:0|0:0,0:0:0:0:
116,304,12689,1,8,0:0:0:0:
208,340,13079,6,0,B|256:352|256:352|308:340,1,98.9999969787599,2|8,0:0|0:0,0:0:0:0:
396,304,13858,1,2,0:0:0:0:
332,228,14248,1,8,0:0:0:0:
388,148,14637,2,0,P|400:84|384:44,1,98.9999969787599,2|8,0:0|0:0,0:0:0:0:
292,28,15417,2,0,L|184:28,1,98.9999969787599,2|8,0:0|0:0,0:0:0:0:
120,96,16196,5,2,0:0:0:0:
120,196,16586,2,0,P|172:228|204:364,1,197.99999395752,8|8,0:0|0:0,0:0:0:0:
304,352,17754,1,2,0:0:0:0:
380,288,18144,1,8,0:0:0:0:
376,188,18534,2,0,B|376:136|376:136|420:96,1,98.9999969787599,2|10,0:0|0:0,0:0:0:0:
344,32,19313,5,4,1:2:0:0:
256,76,19702,1,10,0:0:0:0:
168,32,20092,2,0,L|56:80,1,98.9999969787599,2|8,0:0|0:0,0:0:0:0:
24,156,20871,2,0,P|60:168|120:156,1,98.9999969787599,2|8,0:0|0:0,0:0:0:0:
192,224,21650,2,0,P|240:212|296:228,1,98.9999969787599,2|8,0:0|0:0,0:0:0:0:
380,256,22430,5,6,0:2:0:0:
444,180,22819,2,0,P|444:130|466:87,1,98.9999969787599,10|2,0:0|0:0,0:0:0:0:
392,24,23599,1,8,0:0:0:0:
308,80,23988,1,2,0:0:0:0:
208,80,24378,1,8,0:0:0:0:
128,20,24767,2,0,P|104:48|96:108,1,98.9999969787599,2|8,0:0|0:0,0:0:0:0:
44,192,25547,5,6,0:2:0:0:
40,292,25936,2,0,B|88:284|132:316|132:316|160:272|212:260,1,197.99999395752,10|8,0:0|0:0,0:0:0:0:
256,172,27105,1,2,0:0:0:0:
300,260,27495,2,0,B|352:272|380:316|380:316|424:284|472:292,1,197.99999395752,8|8,0:0|0:0,0:0:0:0:
452,196,28663,5,4,1:2:0:0:
488,104,29053,1,10,0:0:0:0:
432,24,29443,2,0,B|388:24|388:24|368:36|368:36|324:36,1,98.9999969787599,0|8,0:0|0:0,0:0:0:0:
256,96,30222,5,2,0:0:0:0:
188,168,30612,1,10,0:0:0:0:
256,240,31001,1,2,0:0:0:0:
324,168,31391,1,10,0:0:0:0:
341,276,31780,6,0,P|300:322|241:337,1,110,4|8,0:0|0:0,0:0:0:0:
180,336,32430,2,0,P|112:328|64:244,1,146.666666666667,8|8,0:0|0:0,0:0:0:0:
64,160,33339,2,0,P|112:148|148:92,1,110,4|8,0:3|0:0,0:0:0:0:
160,28,33988,2,0,P|240:28|296:100,1,146.666666666667,8|8,0:0|0:0,0:0:0:0:
352,160,34897,5,4,0:3:0:0:
416,248,35287,2,0,P|364:268|296:256,1,110,8|0,0:0|0:0,0:0:0:0:
256,356,36066,1,8,0:0:0:0:
200,262,36456,2,0,P|146:267|96:248,1,110,4|8,0:3|0:0,0:0:0:0:
44,152,37235,1,0,0:0:0:0:
120,72,37624,1,8,0:0:0:0:
196,152,38014,5,4,0:3:0:0:
272,72,38404,2,0,L|404:72,1,110,8|2,0:0|0:0,0:0:0:0:
456,156,39183,1,10,0:0:0:0:
456,268,39573,2,0,P|416:324|308:312,1,183.333333333333,4|8,0:3|0:0,0:0:0:0:
256,220,40612,2,0,L|256:168,1,36.6666666666667,4|8,0:3|0:0,0:0:0:0:
312,84,41131,5,4,0:3:0:0:
200,84,41521,1,8,0:0:0:0:
132,172,41910,2,0,L|48:172,1,73.3333333333333,8|8,0:0|0:0,0:0:0:0:
28,276,42560,2,0,P|88:304|168:264,1,146.666666666667,8|8,0:0|0:0,0:0:0:0:
256,224,43469,1,4,0:3:0:0:
356,272,43858,1,4,0:3:0:0:
429,190,44248,5,4,0:0:0:0:
400,84,44637,2,0,P|356:76|304:92,1,80.6666691284181,8|8,0:0|0:0,0:0:0:0:
284,104,45027,2,0,P|244:120|156:88,1,121.000003692627,2|8,0:0|0:0,0:0:0:0:
88,192,45806,1,4,0:3:0:0:
148,300,46196,1,8,0:0:0:0:
256,248,46586,1,2,0:0:0:0:
364,300,46975,1,8,0:0:0:0:
424,192,47365,6,0,B|464:144|464:144|464:64,2,121.000003692627,4|8|2,0:3|0:0|0:0,0:0:0:0:
344,196,48404,2,0,P|283:172|281:88,1,121.000003692627,4|0,0:3|0:0,0:0:0:0:
257,83,48923,1,4,0:3:0:0:
153,19,49313,1,8,0:0:0:0:
51,85,49702,1,2,0:0:0:0:
151,152,50092,1,8,0:0:0:0:
93,256,50482,6,0,P|157:256|203:319,1,121.000003692627,4|8,0:3|0:0,0:0:0:0:
260,355,51131,1,8,0:0:0:0:
260,355,51261,1,2,0:0:0:0:
318,293,51521,1,4,0:3:0:0:
318,293,51650,2,0,P|361:253|404:253,1,80.6666691284181,8|0,0:0|0:0,0:0:0:0:
421,243,52040,2,0,P|469:235|485:153,1,121.000003692627,4|8,0:3|0:0,0:0:0:0:
451,105,52689,2,0,B|389:149|352:63|285:125,1,161.333338256836,8|8,0:0|0:0,0:0:0:0:
216,114,53469,6,0,B|155:65|124:148|62:104,1,161.333338256836,0|8,0:0|0:0,0:0:0:0:
24,177,54248,1,8,0:0:0:0:
24,177,54378,2,0,P|27:243|80:268,1,121.000003692627,2|8,0:0|0:0,0:0:0:0:
143,301,55027,2,0,B|161:254|211:247|211:247|196:192|230:162,1,161.333338256836,0|8,0:0|0:0,0:0:0:0:
296,180,55806,2,0,B|315:204|301:247|301:247|347:253|369:301,1,161.333338256836,8|8,0:0|0:0,0:0:0:0:
424,193,56715,5,4,0:0:0:0:
333,110,57105,2,0,P|295:101|256:111,1,80.6666691284181,8|8,0:0|0:0,0:0:0:0:
221,90,57495,2,0,B|170:69|162:113|102:89,1,121.000003692627,2|8,0:0|0:0,0:0:0:0:
39,192,58274,1,4,0:3:0:0:
119,281,58663,2,0,B|158:281|158:281|198:328,1,80.6666691284181,8|8,0:0|0:0,0:0:0:0:
219,290,59053,2,0,P|256:277|293:290,1,80.6666691284181,2|4,0:0|0:3,0:0:0:0:
326,312,59443,2,0,B|354:281|354:281|393:281,1,80.6666691284181,8|0,0:0|0:0,0:0:0:0:
433,281,59832,5,4,0:3:0:0:
435,159,60222,2,0,P|380:116|310:137,1,121.000003692627,8|2,0:0|0:0,0:0:0:0:
258,153,60871,1,4,0:3:0:0:
258,153,61001,2,0,P|219:127|213:90,1,80.6666691284181,8|0,0:0|0:0,0:0:0:0:
193,59,61391,1,4,0:3:0:0:
77,94,61780,1,8,0:0:0:0:
152,192,62170,1,2,0:0:0:0:
77,290,62560,1,8,0:0:0:0:
180,352,62949,6,0,P|220:340|264:360,1,80.6666691284181,4|0,0:3|0:0,0:0:0:0:
290,331,63339,2,0,P|327:343|365:331,1,80.6666691284181,8|8,0:0|0:0,0:0:0:0:
400,351,63728,1,2,0:0:0:0:
480,258,64118,1,8,0:0:0:0:
407,161,64508,2,0,P|363:153|307:173,1,80.6666691284181,4|0,0:3|0:0,0:0:0:0:
295,184,64897,2,0,P|257:196|219:184,1,80.6666691284181,8|8,0:0|0:0,0:0:0:0:
188,158,65287,1,2,0:0:0:0:
124,260,65676,1,8,0:0:0:0:
6,231,66066,6,0,P|14:191|2:143,1,80.6666691284181,4|4,0:3|0:0,0:0:0:0:
34,123,66456,2,0,P|26:83|42:35,1,80.6666691284181,4|4,0:0|0:0,0:0:0:0:
62,16,66845,2,0,B|118:28|118:28|211:15|211:15|262:28,1,201.666672821045,4|4,0:0|0:0,0:0:0:0:
371,87,67884,1,4,0:0:0:0:
371,87,68014,2,0,L|348:187,1,80.6666691284181,4|4,0:0|0:0,0:0:0:0:
320,190,68404,2,0,B|330:233|330:233|326:266|326:266|338:324,1,121.000003692627,4|4,0:0|0:0,0:0:0:0:
255,367,69183,5,4,0:3:0:0:
256,252,75417,5,4,0:3:0:0:
176,196,75806,2,0,P|136:140|184:32,1,197.99999395752,10|8,0:0|0:0,0:0:0:0:
256,100,76975,1,0,0:0:0:0:
327,31,77365,2,0,P|378:111|336:196,1,197.99999395752,8|8,0:0|0:0,0:0:0:0:
256,252,78534,5,4,0:3:0:0:
176,312,78923,2,0,L|68:252,1,98.9999969787599,10|0,0:0|0:0,0:0:0:0:
4,212,79702,1,8,0:0:0:0:
64,132,80092,2,0,P|104:152|160:128,1,98.9999969787599,0|8,0:0|0:0,0:0:0:0:
237,83,80871,2,0,P|282:66|326:86,1,98.9999969787599,0|8,0:0|0:0,0:0:0:0:
405,145,81650,5,4,0:3:0:0:
420,244,82040,2,0,B|392:272|392:272|384:316|384:316|352:348,1,110,10|0,0:0|0:2,0:0:0:0:
256,316,82819,1,8,0:0:0:0:
148,336,83209,2,0,B|129:317|129:317|121:273|121:273|93:245,1,110,0|8,0:2|0:0,0:0:0:0:
40,192,83858,2,0,P|20:136|48:48,1,146.666666666667,8|8,0:0|0:0,0:0:0:0:
148,20,84767,5,4,0:3:0:0:
256,48,85157,2,0,B|220:96|220:96|224:196|224:196|180:248,1,220,10|8,0:0|0:0,0:0:0:0:
156,348,86326,2,0,P|104:336|48:352,2,110,0|8|0,0:0|0:0|0:0,0:0:0:0:
256,300,87495,1,8,0:0:0:0:
356,348,87884,6,0,P|408:364|475:336,1,110,4|10,0:3|0:0,0:0:0:0:
408,252,88663,1,0,0:2:0:0:
480,168,89053,1,8,0:0:0:0:
412,80,89443,2,0,P|360:64|294:92,1,110,0|8,0:0|0:0,0:0:0:0:
256,176,90222,1,0,0:0:0:0:
204,80,90612,1,8,0:0:0:0:
114,148,91001,6,0,L|-14:164,1,110,4|10,0:3|0:0,0:0:0:0:
0,279,91780,2,0,L|108:263,1,110,0|8,0:2|0:0,0:0:0:0:
192,192,92560,5,0,1:0:0:0:
256,104,92949,1,4,0:3:0:0:
324,192,93339,1,0,1:0:0:0:
256,280,93728,1,8,0:0:0:0:
172,352,94118,6,0,P|96:352|64:324,1,110,4|8,0:3|0:0,0:0:0:0:
28,272,94767,2,0,L|28:116,1,146.666666666667,8|8,0:0|0:0,0:0:0:0:
113,56,95676,2,0,P|161:40|229:68,1,110,4|8,0:3|0:0,0:0:0:0:
280,100,96326,2,0,B|328:100|328:100|372:68|372:68|440:68,1,146.666666666667,8|8,0:0|0:0,0:0:0:0:
480,156,97235,5,4,0:3:0:0:
424,252,97624,2,0,B|384:284|384:284|360:344,1,110,8|0,0:0|0:0,0:0:0:0:
256,364,98404,1,8,0:0:0:0:
148,336,98793,2,0,B|126:281|126:281|86:249,1,110,4|8,0:3|0:0,0:0:0:0:
48,148,99573,1,0,0:0:0:0:
96,48,99962,1,8,0:0:0:0:
208,48,100352,5,4,0:3:0:0:
316,48,100741,2,0,P|388:44|416:4,2,110,8|2|10,0:0|0:0|0:0,0:0:0:0:
256,140,101910,2,0,L|256:344,1,183.333333333333,4|8,0:3|0:0,0:0:0:0:
144,324,102949,2,0,L|108:288,1,36.6666666666667,4|8,0:3|0:0,0:0:0:0:
40,220,103469,5,4,0:3:0:0:
40,112,103858,1,8,0:0:0:0:
152,108,104248,2,0,P|186:117|228:104,1,73.3333333333333,8|8,0:0|0:0,0:0:0:0:
318,53,104897,2,0,P|381:28|470:69,1,146.666666666667,8|8,0:0|0:0,0:0:0:0:
387,137,105806,2,0,L|422:263,2,110,4|4|4,0:3|0:3|0:0,0:0:0:0:
269,168,106975,6,0,P|224:159|183:171,1,80.6666691284181,8|8,0:0|0:0,0:0:0:0:
155,187,107365,2,0,P|118:204|39:180,1,121.000003692627,2|8,0:0|0:0,0:0:0:0:
46,62,108144,1,4,0:3:0:0:
157,15,108534,1,8,0:0:0:0:
255,84,108923,1,2,0:0:0:0:
355,15,109313,1,8,0:0:0:0:
466,62,109702,6,0,P|481:160|448:175,2,121.000003692627,4|8|2,0:3|0:0|0:0,0:0:0:0:
390,89,110741,2,0,P|348:142|289:154,1,121.000003692627,4|0,0:3|0:0,0:0:0:0:
257,155,111261,1,4,0:3:0:0:
168,73,111650,1,8,0:0:0:0:
73,148,112040,1,2,0:0:0:0:
168,222,112430,1,8,0:0:0:0:
95,319,112819,6,0,B|156:319|156:319|210:362,1,121.000003692627,4|8,0:3|0:0,0:0:0:0:
258,297,113469,1,8,0:0:0:0:
258,297,113599,1,2,0:0:0:0:
315,357,113858,1,4,0:3:0:0:
315,357,113988,2,0,B|336:321|336:321|391:321,1,80.6666691284181,8|0,0:0|0:0,0:0:0:0:
416,322,114378,2,0,P|476:286|470:229,1,121.000003692627,4|8,0:3|0:0,0:0:0:0:
410,193,115027,2,0,B|357:163|352:117|352:117|310:110|288:73,1,161.333338256836,8|8,0:0|0:0,0:0:0:0:
213,88,115806,6,0,B|195:115|160:117|160:117|155:163|102:193,1,161.333338256836,0|8,0:0|0:0,0:0:0:0:
25,217,116586,1,8,0:0:0:0:
25,217,116715,2,0,P|68:269|132:267,1,121.000003692627,2|8,0:0|0:0,0:0:0:0:
186,228,117365,2,0,B|209:275|209:275|187:336|218:381,1,161.333338256836,0|8,0:0|0:0,0:0:0:0:
295,379,118144,2,0,B|325:336|303:275|303:275|326:228,1,161.333338256836,8|8,0:0|0:0,0:0:0:0:
256,129,119053,5,4,0:0:0:0:
343,45,119443,2,0,B|381:54|382:23|430:38,1,80.6666691284181,8|8,0:0|0:0,0:0:0:0:
461,36,119832,2,0,P|476:108|436:135,1,121.000003692627,2|8,0:0|0:0,0:0:0:0:
444,254,120612,1,4,0:3:0:0:
354,334,121001,2,0,B|316:320|316:320|293:260,1,80.6666691284181,8|8,0:0|0:0,0:0:0:0:
292,242,121391,2,0,P|262:225|217:247,1,80.6666691284181,2|4,0:0|0:3,0:0:0:0:
210,282,121780,2,0,B|196:320|196:320|158:334,1,80.6666691284181,8|0,0:0|0:0,0:0:0:0:
117,331,122170,5,4,0:3:0:0:
25,251,122560,2,0,P|16:206|29:129,1,121.000003692627,8|2,0:0|0:0,0:0:0:0:
112,137,123209,1,4,0:3:0:0:
112,137,123339,2,0,P|159:133|174:73,1,80.6666691284181,8|0,0:0|0:0,0:0:0:0:
200,74,123728,1,4,0:3:0:0:
256,184,124118,1,8,0:0:0:0:
312,74,124508,2,0,B|368:76|368:76|420:136,1,121.000003692627,2|8,0:0|0:0,0:0:0:0:
510,193,125287,6,0,P|500:239|514:277,1,80.6666691284181,4|0,0:3|0:0,0:0:0:0:
469,272,125676,2,0,P|479:310|468:349,1,80.6666691284181,8|8,0:0|0:0,0:0:0:0:
432,368,126066,1,2,0:0:0:0:
324,311,126456,1,8,0:0:0:0:
217,367,126845,2,0,P|171:357|133:371,1,80.6666691284181,4|0,0:3|0:0,0:0:0:0:
138,326,127235,2,0,P|99:336|60:325,1,80.6666691284181,8|8,0:0|0:0,0:0:0:0:
42,289,127624,1,2,0:0:0:0:
115,193,128014,1,8,0:0:0:0:
36,101,128404,6,0,L|128:48,1,80.6666691284181,4|4,0:3|0:0,0:0:0:0:
145,70,128793,1,4,0:0:0:0:
224,82,129053,1,4,0:0:0:0:
263,91,129183,2,0,L|333:51,1,80.6666691284181,4|4,0:0|0:0,0:0:0:0:
453,66,129832,1,4,0:0:0:0:
493,180,130222,1,4,0:0:0:0:
454,189,130352,2,0,L|410:265,1,80.6666691284181,4|4,0:0|0:0,0:0:0:0:
415,299,130741,2,0,L|331:335,1,80.6666691284181,4|4,0:0|0:0,0:0:0:0:
315,362,131131,1,4,0:0:0:0:
256,272,131521,5,2,0:0:0:0:
59,59,146715,5,8,0:0:0:0:
156,110,147106,2,0,B|190:139|190:139|259:139,1,110,4|2,0:3|0:0,0:0:0:0:
352,88,147884,1,0,0:0:0:0:
448,144,148274,1,2,0:0:0:0:
352,200,148663,2,0,P|336:252|352:304,1,110,0|2,0:0|0:0,0:0:0:0:
256,360,149443,2,0,B|216:360|216:360|188:376|188:376|136:376,1,110,0|2,0:0|0:0,0:0:0:0:
80,292,150222,5,4,0:3:0:0:
128,192,150612,1,2,0:0:0:0:
79,93,151001,2,0,P|118:42|180:48,1,110,0|2,0:0|0:0,0:0:0:0:
257,90,151780,1,0,0:0:0:0:
353,37,152170,1,2,0:0:0:0:
445,96,152560,1,0,0:0:0:0:
353,156,152949,1,2,0:0:0:0:
411,249,153339,6,0,L|341:341,1,110,4|2,0:3|0:0,0:0:0:0:
256,268,154118,2,0,P|240:208|272:152,1,110,0|2,0:0|0:0,0:0:0:0:
344,96,154897,1,0,0:0:0:0:
256,24,155287,1,2,0:0:0:0:
168,92,155676,1,0,0:0:0:0:
257,165,156066,1,2,0:0:0:0:
290,268,156456,6,0,P|255:259|220:268,1,73.3333333333333,0|8,0:0|0:0,0:0:0:0:
188,284,156845,2,0,P|153:292|118:283,1,73.3333333333333,12|8,0:0|0:0,0:0:0:0:
92,260,157235,2,0,P|98:224|88:188,1,73.3333333333333,8|8,0:0|0:0,0:0:0:0:
20,104,157884,1,8,0:0:0:0:
88,20,158274,1,8,0:0:0:0:
88,20,158404,2,0,L|208:20,2,110,8|4|4,0:0|0:3|0:3,0:0:0:0:
256,192,159573,12,4,162689,0:3:0:0:
429,31,163728,6,0,B|444:74|431:112|431:112|476:143,1,121.000003692627,4|0,0:3|0:0,0:0:0:0:
495,157,164248,1,4,0:3:0:0:
492,277,164637,1,8,0:0:0:0:
378,234,165027,1,2,0:0:0:0:
377,355,165417,1,8,0:0:0:0:
256,309,165806,6,0,P|193:310|152:247,1,121.000003692627,4|8,0:3|0:0,0:0:0:0:
182,193,166456,1,8,0:0:0:0:
182,193,166586,1,2,0:0:0:0:
156,114,166845,1,4,0:3:0:0:
156,114,166975,2,0,P|197:72|243:72,1,80.6666691284181,8|0,0:0|0:0,0:0:0:0:
257,69,167365,2,0,P|303:93|372:57,1,121.000003692627,4|8,0:3|0:0,0:0:0:0:
431,27,168014,2,0,B|451:74|431:113|431:113|466:129|491:152,1,161.333338256836,8|8,0:0|0:0,0:0:0:0:
491,231,168793,6,0,B|466:255|431:271|431:271|451:310|431:357,1,161.333338256836,0|8,0:0|0:0,0:0:0:0:
361,309,169573,2,0,B|315:334|283:312|287:300|249:273|206:306,1,161.333338256836,8|8,0:0|0:0,0:0:0:0:
141,346,170352,1,0,0:0:0:0:
89,193,170871,1,8,0:0:0:0:
148,138,171131,2,0,P|168:193|141:257,2,121.000003692627,8|4|4,0:0|0:3|0:3,0:0:0:0:
122,107,172040,5,4,0:0:0:0:
218,33,172430,2,0,B|255:19|255:19|296:35,1,80.6666691284181,8|8,0:0|0:0,0:0:0:0:
316,66,172819,2,0,B|354:80|354:80|391:66,1,80.6666691284181,2|4,0:0|0:3,0:0:0:0:
426,47,173209,1,8,0:0:0:0:
470,159,173599,1,4,0:3:0:0:
382,242,173988,2,0,P|344:285|301:280,1,80.6666691284181,8|8,0:0|0:0,0:0:0:0:
294,259,174378,2,0,P|253:247|210:266,1,80.6666691284181,2|4,0:0|0:3,0:0:0:0:
191,288,174767,1,8,0:0:0:0:
152,359,175027,6,0,P|80:335|138:278,1,161.333338256836,0|8,0:0|0:0,0:0:0:0:
137,201,175806,2,0,P|165:136|96:119,1,161.333338256836,8|8,0:0|0:0,0:0:0:0:
33,68,176586,2,0,P|164:37|202:255,1,403.33334564209,0|8,0:0|0:0,0:0:0:0:
256,360,178274,6,0,P|299:347|332:364,1,80.6666691284181,4|0,0:3|0:0,0:0:0:0:
354,330,178663,2,0,P|390:345|427:331,1,80.6666691284181,8|8,0:0|0:0,0:0:0:0:
457,303,179053,1,2,0:0:0:0:
509,193,179443,1,8,0:0:0:0:
456,84,179832,2,0,P|413:71|380:88,1,80.6666691284181,4|0,0:3|0:0,0:0:0:0:
358,54,180222,2,0,P|321:69|284:55,1,80.6666691284181,8|8,0:0|0:0,0:0:0:0:
255,27,180611,1,2,0:0:0:0:
149,86,181001,1,8,0:0:0:0:
33,48,181391,6,0,P|25:103|37:133,1,80.6666691284181,4|4,0:3|0:0,0:0:0:0:
63,152,181780,2,0,P|72:190|62:229,1,80.6666691284181,4|4,0:0|0:0,0:0:0:0:
35,260,182170,2,0,P|80:252|128:269,1,80.6666691284181,4|4,0:0|0:0,0:0:0:0:
192,352,182819,1,4,0:0:0:0:
258,252,183209,1,4,0:0:0:0:
258,252,183339,2,0,B|283:207|231:181|268:128,2,121.000003692627,4|4|4,0:0|0:0|0:0,0:0:0:0:
320,352,184508,5,0,0:0:0:0:
256,192,187624,12,4,190741,0:3:0:0:
