osu file format v14

[General]
AudioFilename: OOH-AHH.mp3
AudioLeadIn: 0
PreviewTime: 53335
Countdown: 0
SampleSet: Soft
StackLeniency: 0.7
Mode: 0
LetterboxInBreaks: 0
WidescreenStoryboard: 0

[Editor]
DistanceSpacing: 0.9
BeatDivisor: 4
GridSize: 32
TimelineZoom: 1.599999

[Metadata]
Title:Like OOH-AHH
TitleUnicode:OOH-AHH하게
Artist:TWICE
ArtistUnicode:트와이스
Creator:Heart Attack
Version:Insane
Source:
Tags:THE STORY BEGINS JYP entertainment 나연 정연 모모 사나 지효 미나 다현 채영 쯔위 Sana Nayeon Momo Dahyun Mina Jeongyeon Jihyo Chaeyeong Tzuyu K-pop Kpop
BeatmapID:1063694
BeatmapSetID:499853

[Difficulty]
HPDrainRate:6
CircleSize:4
OverallDifficulty:7
ApproachRate:8.5
SliderMultiplier:1.9
SliderTickRate:1

[Events]
//Background and Video events
Video,-32,"twice ooh ahh mv.avi"
0,0,"BG.jpg",0,0
//Break Periods
2,81329,87321
2,150625,163377
//Storyboard Layer 0 (Background)
//Storyboard Layer 1 (Fail)
//Storyboard Layer 2 (Pass)
//Storyboard Layer 3 (Foreground)
//Storyboard Sound Samples

[TimingPoints]
109,422.535211267606,4,2,1,50,1,0
11939,-100,4,2,1,50,0,0
40671,-100,4,2,1,60,0,0
52503,-100,4,2,1,70,0,0
54193,-83.3333333333333,4,2,1,80,0,1
55037,-111.111111111111,4,2,1,80,0,1
55882,-83.3333333333333,4,2,1,80,0,1
56516,-100,4,2,1,80,0,1
66868,-83.3333333333333,4,2,1,80,0,1
67713,-83.3333333333333,4,2,1,80,0,1
68558,-111.111111111111,4,2,1,70,0,1
69403,-83.3333333333333,4,2,1,80,0,1
70037,-100,4,2,1,80,0,1
80389,-83.3333333333333,4,2,1,80,0,1
80812,-133.333333333333,4,2,1,80,0,1
81235,-100,4,2,1,40,0,0
87995,-133.333333333333,4,2,1,50,0,0
89263,-100,4,2,1,50,0,0
109968,-100,4,2,1,60,0,0
121799,-100,4,2,1,70,0,0
123489,-83.3333333333333,4,2,1,80,0,1
124333,-111.111111111111,4,2,1,80,0,1
125178,-83.3333333333333,4,2,1,80,0,1
125812,-100,4,2,1,80,0,1
136164,-83.3333333333333,4,2,1,80,0,1
137009,-83.3333333333333,4,2,1,80,0,1
137854,-111.111111111111,4,2,1,70,0,1
138699,-83.3333333333333,4,2,1,80,0,1
139333,-100,4,2,1,80,0,1
149685,-83.3333333333333,4,2,1,80,0,1
150108,-153.846153846153,4,2,1,80,0,1
150531,-100,4,2,1,40,0,0
165741,-200,4,2,1,70,0,0
167009,-100,4,2,1,70,0,0
167854,-117.647058823529,4,2,1,70,0,0
168699,-166.666666666667,4,2,1,70,0,0
169122,-100,4,2,1,70,0,0
169967,-166.666666666667,4,2,1,70,0,0
170389,-100,4,2,1,70,0,0
170812,-100,4,2,1,60,0,0
172079,-100,4,2,1,50,0,0
173770,-100,4,2,1,50,0,0
175460,-117.647058823529,4,2,1,50,0,0
175882,-100,4,2,1,40,0,0
177150,-133.333333333333,4,2,1,40,0,0
178840,-133.333333333333,4,2,1,50,0,0
179263,-100,4,2,1,80,0,1
180108,-111.111111111111,4,2,1,80,0,1
180953,-83.3333333333333,4,2,1,80,0,1
181586,-111.111111111111,4,2,1,70,0,1
191939,-83.3333333333333,4,2,1,80,0,1
192784,-83.3333333333333,4,2,1,80,0,1
193629,-111.111111111111,4,2,1,70,0,1
194474,-83.3333333333333,4,2,1,80,0,1
195108,-100,4,2,1,80,0,1
205460,-83.3333333333333,4,2,1,80,0,1
206306,-100,4,2,1,40,0,0

[Colours]
Combo1 : 255,255,128
Combo2 : 0,128,255
Combo3 : 176,0,0
Combo4 : 64,0,128

[HitObjects]
331,73,11939,6,0,L|283:69,3,47.5,2|2|2|2,0:0|0:0|0:0|0:0,0:0:0:0:
421,122,12362,6,0,L|472:125,3,47.5,2|2|2|2,0:0|0:0|0:0|0:0,0:0:0:0:
334,169,12785,5,2,0:0:0:0:
310,167,12890,1,2,0:0:0:0:
286,165,12996,1,2,0:0:0:0:
262,163,13101,1,2,0:0:0:0:
239,162,13207,1,2,0:0:0:0:
155,106,13418,5,2,0:0:0:0:
155,106,13524,1,2,0:0:0:0:
155,106,13630,1,2,0:0:0:0:
151,253,13841,1,0,0:0:0:0:
239,162,14052,1,0,0:0:0:0:
65,129,14263,1,0,0:0:0:0:
316,217,14475,2,0,P|326:147|289:88,1,142.5,2|0,0:0|0:0,0:0:0:0:
274,84,14897,2,0,L|377:80,1,95,0|0,0:0|0:0,0:0:0:0:
455,274,15320,6,0,P|436:230|439:183,1,95,2|2,0:0|0:0,0:0:0:0:
451,174,15637,1,2,0:0:0:0:
451,174,15742,1,2,0:0:0:0:
340,309,15954,1,0,0:0:0:0:
106,133,16165,2,0,B|162:185|238:161,1,142.5,2|0,0:0|0:0,0:0:0:0:
256,149,16587,1,4,0:0:0:0:
201,84,16799,1,0,0:0:0:0:
212,253,17010,5,6,0:0:0:0:
226,255,17116,2,0,B|263:253|263:253|293:261|293:261|321:259,1,95,0|0,0:0|0:0,0:0:0:0:
401,211,17432,1,0,0:0:0:0:
241,338,17644,1,0,0:0:0:0:
195,182,17855,6,0,P|150:234|164:302,1,142.5,2|0,0:0|0:0,0:0:0:0:
241,338,18278,2,0,L|146:339,1,95,0|0,0:0|0:0,0:0:0:0:
393,330,18700,6,0,L|402:209,1,95,0|0,0:0|0:0,0:0:0:0:
356,177,19017,1,2,0:0:0:0:
356,177,19123,2,0,L|364:279,1,95,2|0,0:0|0:0,0:0:0:0:
313,89,19545,2,0,P|273:115|226:117,1,95,2|0,0:0|0:0,0:0:0:0:
158,62,19968,1,4,0:0:0:0:
213,224,20179,1,0,0:0:0:0:
133,265,20390,6,0,L|124:170,1,95,6|2,0:0|0:0,0:0:0:0:
123,157,20707,1,2,0:0:0:0:
123,157,20813,1,2,0:0:0:0:
252,303,21024,1,0,0:0:0:0:
370,190,21235,2,0,L|358:338,1,142.5,2|0,0:0|0:0,0:0:0:0:
354,343,21658,2,0,P|398:328|445:333,1,95,0|0,0:0|0:0,0:0:0:0:
275,215,22080,5,2,0:0:0:0:
188,184,22292,1,2,0:0:0:0:
188,184,22397,1,2,0:0:0:0:
188,184,22503,1,2,0:0:0:0:
201,283,22714,1,0,0:0:0:0:
367,248,22925,2,0,P|367:201|354:156,1,95,2|0,0:0|0:0,0:0:0:0:
345,147,23242,1,0,0:0:0:0:
345,147,23348,1,12,0:0:0:0:
188,184,23559,1,0,0:0:0:0:
103,80,23770,6,0,B|162:89|162:89|188:78|188:78|245:85,1,142.5,6|2,0:0|0:0,0:0:0:0:
253,91,24193,1,2,0:0:0:0:
102,275,24404,2,0,B|80:231|96:182,1,95,0|2,0:0|0:0,0:0:0:0:
177,226,24827,1,0,0:0:0:0:
133,363,25038,2,0,L|35:355,1,95
236,299,25461,1,6,0:0:0:0:
259,267,25566,1,2,0:0:0:0:
267,229,25672,1,2,0:0:0:0:
260,190,25778,1,2,0:0:0:0:
244,157,25883,6,0,P|235:134|232:111,3,47.5,6|2|2|2,0:0|0:0|0:0|0:0,0:0:0:0:
309,113,26306,6,0,P|316:90|317:66,3,47.5,6|2|2|2,0:0|0:0|0:0|0:0,0:0:0:0:
387,44,26728,6,0,P|410:43|434:46,3,47.5,0|0|0|0,0:0|0:0|0:0|0:0,0:0:0:0:
456,59,27151,6,0,L|449:153,1,95,4|0,0:0|0:0,0:0:0:0:
337,307,27573,2,0,P|323:261|331:215,1,95,8|0,0:0|0:0,0:0:0:0:
175,102,27996,2,0,P|208:162|194:231,1,142.5,0|0,0:0|0:0,0:0:0:0:
174,246,28418,1,8,0:0:0:0:
259,308,28630,1,0,0:0:0:0:
32,171,28841,6,0,L|126:175,1,95,0|0,0:0|0:0,0:0:0:0:
113,360,29263,2,0,P|93:317|90:269,1,95,8|0,0:0|0:0,0:0:0:0:
267,119,29686,2,0,P|263:166|243:208,1,95,0|0,0:0|0:0,0:0:0:0:
177,276,30109,1,8,0:0:0:0:
275,298,30320,1,0,0:0:0:0:
113,360,30531,5,4,0:0:0:0:
275,298,30742,1,2,0:0:0:0:
94,231,30954,1,8,0:0:0:0:
213,367,31165,1,0,0:0:0:0:
200,193,31376,2,0,L|189:98,1,95,0|0,0:0|0:0,0:0:0:0:
374,30,31799,2,0,L|364:134,1,95,8|0,0:0|0:0,0:0:0:0:
300,188,32221,6,0,P|278:142|278:97,1,95,4|2,0:0|0:0,0:0:0:0:
212,35,32644,1,2,0:0:0:0:
368,127,32855,1,0,0:0:0:0:
212,192,33066,1,0,0:0:0:0:
303,27,33278,1,0,0:0:0:0:
210,199,33489,2,0,P|159:218|91:207,1,95,8|0,0:0|0:0,0:0:0:0:
328,263,33911,6,0,P|364:231|376:175,1,95,4|0,0:0|0:0,0:0:0:0:
139,42,34334,2,0,L|151:142,1,95,8|0,0:0|0:0,0:0:0:0:
298,184,34756,2,0,P|334:124|402:115,1,142.5,0|0,0:0|0:0,0:0:0:0:
418,122,35179,1,8,0:0:0:0:
415,22,35390,1,0,0:0:0:0:
507,175,35601,5,0,0:0:0:0:
512,50,35813,1,2,0:0:0:0:
385,197,36024,2,0,L|290:189,1,95,2|0,0:0|0:0,0:0:0:0:
154,66,36447,2,0,B|197:76|197:76|245:68|245:68|293:80,1,142.5,0|0,0:0|0:0,0:0:0:0:
297,94,36869,2,0,L|288:207,1,95,8|0,0:0|0:0,0:0:0:0:
283,210,37186,1,0,0:0:0:0:
283,210,37292,5,4,0:0:0:0:
197,165,37503,1,0,0:0:0:0:
297,94,37714,1,8,0:0:0:0:
397,236,37925,1,0,0:0:0:0:
391,64,38137,1,0,0:0:0:0:
274,276,38348,1,0,0:0:0:0:
447,155,38559,1,8,0:0:0:0:
465,175,38665,2,0,P|477:220|480:268,1,95,0|0,0:0|0:0,0:0:0:0:
471,297,38982,5,0,0:0:0:0:
382,327,39193,1,0,0:0:0:0:
400,232,39404,1,8,0:0:0:0:
289,352,39616,1,0,0:0:0:0:
139,239,39827,2,0,L|145:344,1,95
400,232,40249,2,0,B|426:197|419:136,1,95,12|0,0:0|0:0,0:0:0:0:
316,280,40672,5,4,0:0:0:0:
223,233,40883,1,0,0:0:0:0:
236,339,41094,1,8,0:0:0:0:
316,280,41306,1,0,0:0:0:0:
301,168,41517,1,8,0:0:0:0:
213,125,41728,1,0,0:0:0:0:
247,34,41939,1,8,0:0:0:0:
117,170,42151,1,0,0:0:0:0:
301,168,42362,6,0,P|323:121|325:76,1,95,8|0,0:0|0:0,0:0:0:0:
175,248,42785,2,0,L|181:342,1,95,8|0,0:0|0:0,0:0:0:0:
405,140,43207,2,0,L|394:282,1,142.5,8|0,0:0|0:0,0:0:0:0:
359,353,43630,2,0,L|346:258,1,95,12|0,0:0|0:0,0:0:0:0:
270,199,44052,5,8,0:0:0:0:
198,122,44263,1,0,0:0:0:0:
298,104,44475,1,8,0:0:0:0:
172,223,44686,1,0,0:0:0:0:
90,77,44897,2,0,P|84:122|94:171,1,95,8|0,0:0|0:0,0:0:0:0:
230,305,45320,1,8,0:0:0:0:
270,218,45531,1,0,0:0:0:0:
172,223,45742,5,8,0:0:0:0:
323,354,45954,1,0,0:0:0:0:
128,330,46165,1,8,0:0:0:0:
270,218,46376,1,0,0:0:0:0:
93,170,46587,1,8,0:0:0:0:
230,305,46799,1,0,0:0:0:0:
292,85,47010,2,0,B|304:159|304:159|270:217,1,142.5,12|0,0:0|0:0,0:0:0:0:
268,233,47432,6,0,B|365:225,1,95,8|0,0:0|0:0,0:0:0:0:
186,200,47855,1,8,0:0:0:0:
397,305,48066,1,0,0:0:0:0:
367,138,48278,1,8,0:0:0:0:
288,328,48489,1,0,0:0:0:0:
448,225,48700,1,8,0:0:0:0:
218,127,48911,1,0,0:0:0:0:
316,323,49123,6,0,L|325:219,1,95,8|0,0:0|0:0,0:0:0:0:
188,106,49545,2,0,L|194:200,1,95,8|0,0:0|0:0,0:0:0:0:
158,277,49968,1,8,0:0:0:0:
275,144,50179,1,0,0:0:0:0:
416,338,50390,2,0,B|404:195,1,142.5,8|0,0:0|0:0,0:0:0:0:
454,136,50813,6,0,L|447:230,1,95,8|0,0:0|0:0,0:0:0:0:
288,320,51235,1,8,0:0:0:0:
226,126,51447,1,0,0:0:0:0:
198,265,51658,1,8,0:0:0:0:
347,93,51869,1,0,0:0:0:0:
288,320,52080,1,8,0:0:0:0:
226,126,52292,1,0,0:0:0:0:
67,267,52503,5,6,0:0:0:0:
109,283,52609,1,2,0:0:0:0:
155,283,52714,1,2,0:0:0:0:
198,265,52820,1,2,0:0:0:0:
237,238,52925,6,0,P|260:230|283:228,3,47.5,6|2|0|2,0:0|0:0|0:0|0:0,0:0:0:0:
333,156,53348,6,0,P|355:161|379:164,3,47.5,6|2|2|0,0:0|0:0|0:0|0:0,0:0:0:0:
383,249,53770,6,0,P|438:247|486:268,1,95,4|0,0:0|0:0,0:0:0:0:
237,322,54193,6,0,P|178:294|221:157,1,227.999993041992,4|8,0:0|0:0,0:0:0:0:
379,164,54827,1,0,0:0:0:0:
410,249,55038,2,0,B|361:254|361:254|305:230|305:230|244:237,1,170.999994781494,0|8,0:0|0:0,0:0:0:0:
282,320,55672,1,0,0:0:0:0:
442,329,55883,6,0,P|483:290|493:235,2,113.999996520996,0|0|8,0:0|0:0|0:0,0:0:0:0:
412,63,56517,2,0,B|443:189|380:143|415:263,1,190,2|0,0:0|0:0,0:0:0:0:
345,303,57151,1,8,0:0:0:0:
487,208,57362,1,0,0:0:0:0:
251,178,57573,6,0,P|295:207|339:217,1,95,6|0,0:0|0:0,0:0:0:0:
154,318,57996,2,0,L|148:223,1,95,8|0,0:0|0:0,0:0:0:0:
329,35,58418,2,0,L|323:145,1,95,0|0,0:0|0:0,0:0:0:0:
256,324,58841,1,8,0:0:0:0:
256,324,59263,5,4,0:0:0:0:
151,295,59475,1,0,0:0:0:0:
348,265,59686,1,8,0:0:0:0:
58,260,59897,2,0,P|124:208|223:227,1,190,2|0,0:0|0:0,0:0:0:0:
365,357,60531,2,0,P|364:314|346:261,1,95,10|2,0:0|0:0,0:0:0:0:
297,194,60954,1,4,0:0:0:0:
297,194,61376,5,8,0:0:0:0:
391,84,61587,1,2,0:0:0:0:
207,17,61799,2,0,L|219:117,1,95,2|0,0:0|0:0,0:0:0:0:
161,220,62221,2,0,P|225:191|296:193,1,142.5,8|0,0:0|0:0,0:0:0:0:
311,204,62644,5,0,0:0:0:0:
218,111,62855,1,0,0:0:0:0:
408,154,63066,1,8,0:0:0:0:
257,267,63278,1,2,0:0:0:0:
382,319,63489,2,0,P|428:307|465:277,1,95
278,245,63911,2,0,P|199:196|105:227,1,190,8|4,0:0|0:0,0:0:0:0:
98,131,64545,1,0,0:0:0:0:
185,290,64756,5,8,0:0:0:0:
1,172,64968,1,0,0:0:0:0:
203,61,65179,2,0,P|198:114|149:217,1,142.5
151,204,65601,2,0,L|246:211,1,95,8|0,0:0|0:0,0:0:0:0:
382,58,66024,5,6,0:0:0:0:
370,82,66130,1,2,0:0:0:0:
363,107,66235,1,2,0:0:0:0:
364,134,66341,1,2,0:0:0:0:
375,158,66447,5,6,0:0:0:0:
388,182,66552,1,2,0:0:0:0:
392,208,66658,1,2,0:0:0:0:
387,234,66763,1,2,0:0:0:0:
377,258,66869,6,0,L|383:331,1,56.9999982604981,6|2,0:0|0:0,0:0:0:0:
297,289,67080,2,0,L|292:232,1,56.9999982604981,2|2,0:0|0:0,0:0:0:0:
211,262,67292,6,0,L|215:318,3,56.9999982604981,4|0|0|0,0:0|0:0|0:0|0:0,0:0:0:0:
201,253,67714,6,0,B|156:279|156:279|96:274|96:274|68:215|68:215|88:168,1,227.999993041992,4|8,0:0|0:0,0:0:0:0:
197,113,68348,1,0,0:0:0:0:
451,157,68559,2,0,P|366:165|275:149,1,170.999994781494,0|8,0:0|0:0,0:0:0:0:
276,247,69193,1,0,0:0:0:0:
184,372,69404,6,0,P|170:313|172:254,2,113.999996520996,0|0|8,0:0|0:0|0:0,0:0:0:0:
276,329,70038,2,0,P|349:277|330:187,1,190,2|0,0:0|0:0,0:0:0:0:
211,193,70672,1,8,0:0:0:0:
141,48,70883,1,0,0:0:0:0:
336,93,71094,6,0,L|331:187,1,95,4|0,0:0|0:0,0:0:0:0:
145,248,71517,2,0,P|128:204|139:153,1,95,8|0,0:0|0:0,0:0:0:0:
327,298,71939,2,0,P|327:344|303:384,1,95
240,217,72362,1,8,0:0:0:0:
240,217,72785,5,4,0:0:0:0:
342,239,72996,1,0,0:0:0:0:
148,266,73207,1,8,0:0:0:0:
407,296,73418,2,0,P|324:276|240:341,1,190,2|0,0:0|0:0,0:0:0:0:
491,335,74052,2,0,P|494:280|480:240,1,95,10|2,0:0|0:0,0:0:0:0:
407,187,74475,1,4,0:0:0:0:
407,187,74897,5,8,0:0:0:0:
326,118,75109,1,0,0:0:0:0:
340,358,75320,2,0,P|325:317|327:260,1,95
407,187,75742,2,0,P|341:214|271:209,1,142.5,8|0,0:0|0:0,0:0:0:0:
262,200,76165,5,0,0:0:0:0:
430,278,76376,1,0,0:0:0:0:
219,323,76587,1,8,0:0:0:0:
325,266,76799,1,0,0:0:0:0:
100,313,77010,2,0,L|91:209,1,95
207,93,77432,2,0,P|137:35|46:49,1,190,8|4,0:0|0:0,0:0:0:0:
188,185,78066,1,0,0:0:0:0:
306,64,78278,5,8,0:0:0:0:
113,123,78489,1,0,0:0:0:0:
333,289,78700,2,0,L|347:147,1,142.5
340,136,79123,2,0,P|378:160|431:166,1,95,8|0,0:0|0:0,0:0:0:0:
255,100,79545,5,6,0:0:0:0:
251,126,79651,1,2,0:0:0:0:
253,151,79756,1,2,0:0:0:0:
261,175,79862,1,2,0:0:0:0:
274,197,79968,5,6,0:0:0:0:
291,216,80073,1,2,0:0:0:0:
312,230,80179,1,2,0:0:0:0:
336,240,80285,1,2,0:0:0:0:
366,244,80390,6,0,L|436:243,1,56.9999982604981,6|2,0:0|0:0,0:0:0:0:
258,306,80601,2,0,L|201:306,1,56.9999982604981,2|0,0:0|0:0,0:0:0:0:
75,197,80813,6,0,L|181:197,1,106.875004076958,4|0,0:0|0:0,0:0:0:0:
244,80,87996,6,0,L|360:68,2,106.875004076958,0|0|0,0:0|0:0|0:0,0:0:0:0:
146,272,89052,5,0,0:0:0:0:
233,296,89263,2,0,P|232:248|209:207,1,95,0|0,0:0|0:0,0:0:0:0:
135,137,89686,5,0,0:0:0:0:
169,129,89791,1,0,0:0:0:0:
201,113,89897,1,0,0:0:0:0:
227,89,90002,1,0,0:0:0:0:
248,60,90109,2,0,L|252:107,1,47.5,10|2,0:0|0:0,0:0:0:0:
346,166,90320,2,0,L|348:118,1,47.5,2|2,0:0|0:0,0:0:0:0:
270,308,90531,6,0,L|259:213,1,95
257,188,90848,1,0,0:0:0:0:
257,188,90954,1,8,0:0:0:0:
177,302,91165,1,0,0:0:0:0:
388,298,91376,5,2,0:0:0:0:
386,268,91481,1,2,0:0:0:0:
384,238,91587,1,2,0:0:0:0:
382,209,91692,1,2,0:0:0:0:
380,179,91798,1,10,0:0:0:0:
378,149,91904,1,2,0:0:0:0:
376,120,92009,1,2,0:0:0:0:
374,90,92115,1,2,0:0:0:0:
373,62,92221,6,0,P|413:88|459:98,1,95,0|0,0:0|0:0,0:0:0:0:
292,142,92644,2,0,P|248:159|163:157,1,95,8|0,0:0|0:0,0:0:0:0:
107,99,93066,5,0,0:0:0:0:
201,261,93278,1,0,0:0:0:0:
226,78,93489,1,8,0:0:0:0:
104,201,93700,1,0,0:0:0:0:
327,237,93911,2,0,P|337:199|336:140,1,95,0|2,0:0|0:0,0:0:0:0:
324,130,94228,1,2,0:0:0:0:
324,130,94334,2,0,L|434:128,1,95,10|0,0:0|0:0,0:0:0:0:
488,73,94756,5,0,0:0:0:0:
256,188,94968,1,0,0:0:0:0:
489,219,95179,1,8,0:0:0:0:
246,201,95390,2,0,P|227:157|225:110,1,95,0|0,0:0|0:0,0:0:0:0:
418,128,95813,1,0,0:0:0:0:
331,287,96024,2,0,B|240:290|240:290|186:277,1,142.5,12|0,0:0|0:0,0:0:0:0:
176,266,96447,6,0,L|169:360,1,95,4|0,0:0|0:0,0:0:0:0:
283,150,96869,2,0,L|274:41,1,95,0|0,0:0|0:0,0:0:0:0:
362,96,97292,2,0,P|377:164|344:226,1,142.5,4|0,0:0|0:0,0:0:0:0:
319,236,97714,1,0,0:0:0:0:
415,344,97925,1,0,0:0:0:0:
224,231,98137,6,0,L|318:235,1,95,0|0,0:0|0:0,0:0:0:0:
128,304,98559,2,0,P|108:261|105:213,1,95,0|0,0:0|0:0,0:0:0:0:
168,96,98982,2,0,B|73:85,1,95,4|0,0:0|0:0,0:0:0:0:
257,174,99404,1,0,0:0:0:0:
346,120,99616,1,0,0:0:0:0:
218,268,99827,5,0,0:0:0:0:
346,120,100038,1,2,0:0:0:0:
164,155,100249,1,2,0:0:0:0:
324,248,100461,1,0,0:0:0:0:
249,60,100672,2,0,P|206:38|160:30,1,95,4|2,0:0|0:0,0:0:0:0:
346,120,101094,2,0,L|356:25,1,95
164,155,101517,6,0,P|165:202|186:244,1,95,0|2,0:0|0:0,0:0:0:0:
277,276,101939,1,8,0:0:0:0:
434,327,102151,1,0,0:0:0:0:
234,355,102362,1,2,0:0:0:0:
441,328,102573,1,2,0:0:0:0:
456,329,102679,1,2,0:0:0:0:
472,330,102785,1,0,0:0:0:0:
193,277,102996,1,0,0:0:0:0:
319,355,103207,6,0,P|355:323|367:267,1,95,0|0,0:0|0:0,0:0:0:0:
228,95,103630,2,0,L|240:195,1,95,0|0,0:0|0:0,0:0:0:0:
185,357,104052,2,0,P|125:321|117:253,1,142.5,4|0,0:0|0:0,0:0:0:0:
162,179,104475,1,0,0:0:0:0:
322,299,104686,1,0,0:0:0:0:
193,277,104897,5,0,0:0:0:0:
322,178,105109,1,0,0:0:0:0:
404,333,105320,2,0,P|405:285|395:239,1,95,8|0,0:0|0:0,0:0:0:0:
153,216,105742,2,0,P|134:285|151:353,1,142.5,4|0,0:0|0:0,0:0:0:0:
166,369,106165,2,0,L|260:376,1,95
285,374,106482,1,0,0:0:0:0:
285,374,106587,5,0,0:0:0:0:
394,252,106799,1,0,0:0:0:0:
487,210,107010,1,0,0:0:0:0:
289,192,107221,1,0,0:0:0:0:
394,252,107432,1,8,0:0:0:0:
184,226,107644,1,0,0:0:0:0:
223,68,107855,2,0,L|229:116,1,47.5,0|0,0:0|0:0,0:0:0:0:
330,301,108278,5,2,0:0:0:0:
330,301,108383,1,2,0:0:0:0:
330,301,108489,1,2,0:0:0:0:
246,236,108700,1,2,0:0:0:0:
222,234,108806,1,2,0:0:0:0:
198,232,108911,1,2,0:0:0:0:
174,230,109017,1,2,0:0:0:0:
154,229,109123,6,0,P|159:197|159:166,2,63.3333333333333,0|0|0,0:0|0:0|0:0,0:0:0:0:
76,125,109545,6,0,P|71:156|71:187,2,63.3333333333333,0|0|0,0:0|0:0|0:0,0:0:0:0:
159,82,109968,5,12,0:0:0:0:
343,137,110179,1,0,0:0:0:0:
291,31,110390,1,8,0:0:0:0:
203,188,110601,1,0,0:0:0:0:
343,137,110813,1,8,0:0:0:0:
197,288,111024,1,0,0:0:0:0:
316,253,111235,1,8,0:0:0:0:
109,209,111447,1,0,0:0:0:0:
406,224,111658,6,0,L|414:324,1,95,8|0,0:0|0:0,0:0:0:0:
203,188,112080,2,0,P|202:140|216:93,1,95,8|0,0:0|0:0,0:0:0:0:
470,103,112503,2,0,P|399:105|337:71,1,142.5,8|0,0:0|0:0,0:0:0:0:
331,60,112925,2,0,L|344:155,1,95,4|0,0:0|0:0,0:0:0:0:
386,244,113348,5,8,0:0:0:0:
490,318,113559,1,0,0:0:0:0:
313,319,113770,1,8,0:0:0:0:
484,217,113982,1,0,0:0:0:0:
205,249,114193,2,0,L|218:349,1,95,8|0,0:0|0:0,0:0:0:0:
228,157,114616,1,8,0:0:0:0:
293,82,114827,1,0,0:0:0:0:
133,160,115038,5,8,0:0:0:0:
293,82,115249,1,0,0:0:0:0:
205,249,115461,1,8,0:0:0:0:
193,72,115672,1,0,0:0:0:0:
313,186,115883,1,8,0:0:0:0:
193,72,116094,1,0,0:0:0:0:
381,255,116306,2,0,P|400:187|378:120,1,142.5,12|0,0:0|0:0,0:0:0:0:
359,104,116728,6,0,B|495:92,1,95,8|0,0:0|0:0,0:0:0:0:
193,72,117151,1,8,0:0:0:0:
315,187,117362,1,0,0:0:0:0:
146,164,117573,1,8,0:0:0:0:
288,55,117785,1,0,0:0:0:0:
79,88,117996,1,8,0:0:0:0:
240,152,118207,1,0,0:0:0:0:
291,271,118418,6,0,L|280:377,1,95,8|0,0:0|0:0,0:0:0:0:
156,258,118841,2,0,L|146:164,1,95,8|0,0:0|0:0,0:0:0:0:
315,187,119263,1,8,0:0:0:0:
235,51,119475,1,0,0:0:0:0:
394,54,119686,2,0,B|405:196,1,142.5,8|0,0:0|0:0,0:0:0:0:
451,258,120109,6,0,L|461:163,1,95,8|0,0:0|0:0,0:0:0:0:
356,289,120531,1,8,0:0:0:0:
230,207,120742,1,0,0:0:0:0:
435,242,120954,1,8,0:0:0:0:
160,299,121165,1,0,0:0:0:0:
312,181,121376,1,8,0:0:0:0:
336,364,121587,1,0,0:0:0:0:
160,299,121799,5,6,2:0:0:0:
142,256,121904,1,2,2:0:0:0:
142,210,122010,1,2,2:0:0:0:
158,168,122116,1,2,2:0:0:0:
186,139,122221,6,0,L|139:140,3,47.5,6|2|2|2,2:0|2:0|2:0|2:0,0:0:0:0:
273,93,122644,6,0,L|218:59,3,47.5,6|2|2|2,2:0|2:0|2:0|2:0,0:0:0:0:
363,133,123066,6,0,L|349:38,1,95,4|0,0:0|0:0,0:0:0:0:
216,252,123489,6,0,B|316:262|370:220|370:220|356:259|367:285,1,227.999993041992,4|8,0:0|0:0,0:0:0:0:
277,159,124123,1,0,0:0:0:0:
447,254,124334,2,0,P|445:188|356:134,1,170.999994781494,0|8,0:0|0:0,0:0:0:0:
177,165,124968,1,0,0:0:0:0:
367,217,125179,6,0,L|241:235,2,113.999996520996,0|0|8,0:0|0:0|0:0,0:0:0:0:
189,306,125813,2,0,P|166:216|218:141,1,190,2|0,0:0|0:0,0:0:0:0:
221,36,126447,1,8,0:0:0:0:
356,105,126658,1,0,0:0:0:0:
134,102,126869,6,0,P|178:131|222:141,1,95,6|0,0:0|0:0,0:0:0:0:
391,235,127292,2,0,P|343:233|300:251,1,95,8|0,0:0|0:0,0:0:0:0:
147,307,127714,2,0,L|141:212,1,95
230,376,128137,1,8,0:0:0:0:
230,376,128559,5,4,0:0:0:0:
300,251,128770,1,0,0:0:0:0:
147,307,128982,1,8,0:0:0:0:
364,181,129193,2,0,P|279:166|200:234,1,190,2|0,0:0|0:0,0:0:0:0:
43,145,129827,2,0,P|84:159|144:151,1,95,10|2,0:0|0:0,0:0:0:0:
212,102,130249,1,4,0:0:0:0:
212,102,130672,5,8,0:0:0:0:
293,184,130883,1,2,0:0:0:0:
117,286,131094,2,0,P|164:286|221:266,1,95,2|0,0:0|0:0,0:0:0:0:
293,184,131517,2,0,P|233:162|146:174,1,142.5,8|0,0:0|0:0,0:0:0:0:
142,182,131939,5,0,0:0:0:0:
323,93,132151,1,0,0:0:0:0:
209,272,132362,1,8,0:0:0:0:
181,85,132573,1,2,0:0:0:0:
370,249,132785,2,0,P|382:203|384:154,1,95,2|0,0:0|0:0,0:0:0:0:
100,23,133207,2,0,P|87:116|153:188,1,190,8|4,0:0|0:0,0:0:0:0:
286,105,133841,1,0,0:0:0:0:
321,288,134052,5,8,0:0:0:0:
145,184,134263,1,0,0:0:0:0:
358,152,134475,2,0,P|352:216|317:293,1,142.5
305,296,134897,2,0,L|401:300,1,95,8|0,0:0|0:0,0:0:0:0:
228,248,135320,5,6,0:0:0:0:
195,233,135425,1,2,0:0:0:0:
160,230,135531,1,2,0:0:0:0:
125,237,135637,1,2,0:0:0:0:
94,255,135742,5,6,0:0:0:0:
96,219,135848,1,2,0:0:0:0:
98,183,135954,1,2,0:0:0:0:
101,148,136059,1,2,0:0:0:0:
106,118,136165,6,0,L|49:122,1,56.9999982604981,6|2,0:0|0:0,0:0:0:0:
205,154,136376,2,0,L|262:149,1,56.9999982604981,2|2,0:0|0:0,0:0:0:0:
352,187,136587,6,0,L|408:183,3,56.9999982604981,4|0|0|0,0:0|0:0|0:0|0:0,0:0:0:0:
427,187,137010,6,0,P|349:239|450:229,1,227.999993041992,4|8,0:0|0:0,0:0:0:0:
493,128,137644,1,0,0:0:0:0:
430,63,137855,2,0,P|347:51|279:100,1,170.999994781494,0|8,0:0|0:0,0:0:0:0:
369,145,138489,1,0,0:0:0:0:
169,110,138700,6,0,P|153:56|159:-3,2,113.999996520996,0|0|8,0:0|0:0|0:0,0:0:0:0:
279,100,139334,2,0,B|267:158|267:158|275:227|275:227|260:286,1,190,2|0,0:0|0:0,0:0:0:0:
187,346,139968,1,8,0:0:0:0:
371,254,140179,1,0,0:0:0:0:
159,175,140390,6,0,P|132:213|120:259,1,95,4|0,0:0|0:0,0:0:0:0:
297,115,140813,2,0,P|293:68|267:23,1,95,8|0,0:0|0:0,0:0:0:0:
371,254,141235,2,0,L|466:259,1,95,0|0,0:0|0:0,0:0:0:0:
272,204,141658,1,8,0:0:0:0:
272,204,142080,5,4,0:0:0:0:
372,125,142292,1,0,0:0:0:0:
179,140,142503,1,8,0:0:0:0:
311,310,142714,2,0,B|379:318|379:318|447:305|447:305|513:313,1,190,2|0,0:0|0:0,0:0:0:0:
204,333,143348,2,0,P|205:288|228:235,1,95,10|2,0:0|0:0,0:0:0:0:
315,191,143770,1,4,0:0:0:0:
315,191,144193,5,8,0:0:0:0:
392,269,144404,1,0,0:0:0:0:
409,58,144616,2,0,P|424:99|423:155,1,95
232,243,145038,2,0,P|227:177|265:107,1,142.5,8|0,0:0|0:0,0:0:0:0:
278,111,145461,5,0,0:0:0:0:
144,218,145672,1,0,0:0:0:0:
315,191,145883,1,8,0:0:0:0:
114,104,146094,1,0,0:0:0:0:
315,191,146306,2,0,P|361:144|366:102,1,95
193,309,146728,2,0,P|100:302|39:232,1,190,8|4,0:0|0:0,0:0:0:0:
230,221,147362,1,0,0:0:0:0:
432,168,147573,5,8,0:0:0:0:
202,130,147785,1,0,0:0:0:0:
344,107,147996,2,0,L|328:253,1,142.5
320,265,148418,2,0,P|363:251|433:268,1,95,8|0,0:0|0:0,0:0:0:0:
270,347,148841,5,6,0:0:0:0:
238,330,148947,1,2,0:0:0:0:
203,324,149052,1,2,0:0:0:0:
169,332,149158,1,2,0:0:0:0:
193,309,149263,5,6,0:0:0:0:
207,276,149369,1,2,0:0:0:0:
213,241,149475,1,2,0:0:0:0:
210,206,149580,1,2,0:0:0:0:
203,175,149686,6,0,L|273:174,1,56.9999982604981,6|2,0:0|0:0,0:0:0:0:
114,241,149897,2,0,L|57:241,1,56.9999982604981,2|0,0:0|0:0,0:0:0:0:
285,267,150109,6,0,L|403:267,1,92.6249957599642,4|0,0:0|0:0,0:0:0:0:
256,192,164052,12,0,164897,0:0:0:0:
336,170,165320,5,8,0:0:0:0:
336,170,165742,5,2,0:0:0:0:
365,170,165848,1,2,0:0:0:0:
394,165,165954,1,2,0:0:0:0:
422,154,166059,1,2,0:0:0:0:
446,137,166165,1,2,0:0:0:0:
245,131,166376,1,0,0:0:0:0:
102,90,166587,1,2,0:0:0:0:
205,37,166799,1,2,0:0:0:0:
195,40,166904,1,2,0:0:0:0:
184,43,167010,2,0,P|191:128|215:189,1,142.5,8|0,0:0|0:0,0:0:0:0:
238,199,167432,5,4,0:0:0:0:
175,284,167644,1,0,0:0:0:0:
360,182,167855,2,0,L|351:267,1,80.750001540184,8|0,0:0|0:0,0:0:0:0:
141,199,168278,1,0,0:0:0:0:
262,354,168489,2,0,L|259:304,1,40.375000770092,0|0,0:0|0:0,0:0:0:0:
347,357,168700,6,0,L|261:353,1,85.4999973907472,8|0,0:0|0:0,0:0:0:0:
164,313,169123,6,0,L|262:313,1,95,4|0,0:0|0:0,0:0:0:0:
345,257,169545,1,8,0:0:0:0:
239,191,169756,1,0,0:0:0:0:
351,82,169968,6,0,P|309:89|275:115,1,85.4999973907472
239,191,170390,2,0,P|226:144|208:100,1,95,8|0,0:0|0:0,0:0:0:0:
145,175,170813,5,2,0:0:0:0:
128,214,170918,1,2,0:0:0:0:
126,257,171024,1,2,0:0:0:0:
134,300,171130,1,2,0:0:0:0:
149,339,171235,1,2,0:0:0:0:
188,352,171341,1,2,0:0:0:0:
218,324,171447,1,2,0:0:0:0:
197,291,171552,1,2,0:0:0:0:
155,286,171658,1,2,0:0:0:0:
118,304,171763,1,2,0:0:0:0:
78,320,171869,1,2,0:0:0:0:
35,319,171975,1,2,0:0:0:0:
0,304,172080,6,0,B|-5:252|8:197|8:197|27:220|23:229,1,142.5,8|0,0:0|0:0,0:0:0:0:
64,259,172503,6,0,P|110:258|160:234,1,95,12|0,0:0|0:0,0:0:0:0:
207,171,172925,1,0,0:0:0:0:
200,324,173137,1,0,0:0:0:0:
350,134,173348,2,0,P|319:152|261:168,1,95,2|0,0:0|0:0,0:0:0:0:
207,171,173665,1,0,0:0:0:0:
206,170,173770,2,0,B|337:231,1,142.5,8|0,0:0|0:0,0:0:0:0:
371,214,174193,5,4,0:0:0:0:
286,327,174404,1,0,0:0:0:0:
206,170,174616,2,0,L|212:264,1,95,8|0,0:0|0:0,0:0:0:0:
313,127,175038,1,0,0:0:0:0:
206,170,175249,6,0,P|183:163|161:153,1,47.5,0|0,0:0|0:0,0:0:0:0:
83,111,175461,2,0,L|95:206,1,80.750001540184,8|0,0:0|0:0,0:0:0:0:
76,273,175778,1,0,0:0:0:0:
76,273,175883,6,0,L|210:255,1,95,4|0,0:0|0:0,0:0:0:0:
255,230,176306,1,8,0:0:0:0:
160,347,176517,1,0,0:0:0:0:
341,205,176728,2,0,P|290:206|247:240,1,95,0|0,0:0|0:0,0:0:0:0:
396,329,177151,2,0,B|467:334,1,71.2500027179719,8|0,0:0|0:0,0:0:0:0:
467,334,178630,1,0,0:0:0:0:
384,287,178841,2,0,L|312:291,1,71.2500027179719,0|0,0:0|0:0,0:0:0:0:
226,345,179263,6,0,B|220:290|220:290|244:234|244:234|233:161,1,190,4|8,0:0|0:0,0:0:0:0:
289,89,179897,1,0,0:0:0:0:
155,190,180109,2,0,P|246:241|314:178,1,170.999994781494,0|8,0:0|0:0,0:0:0:0:
195,58,180742,1,0,0:0:0:0:
386,149,180954,6,0,L|375:35,2,113.999996520996,0|0|8,0:0|0:0|0:0,0:0:0:0:
457,265,181587,2,0,P|360:283|280:284,1,170.999994781494,2|0,0:0|0:0,0:0:0:0:
181,235,182221,1,10,0:0:0:0:
312,198,182432,1,0,0:0:0:0:
101,319,182644,6,0,P|146:330|185:357,1,85.4999973907472,6|0,0:0|0:0,0:0:0:0:
370,267,183066,2,0,P|328:285|278:283,1,85.4999973907472,8|0,0:0|0:0,0:0:0:0:
355,125,183489,2,0,L|444:131,1,85.4999973907472
205,88,183911,1,8,0:0:0:0:
205,88,184334,5,4,0:0:0:0:
183,187,184545,1,0,0:0:0:0:
297,45,184756,1,8,0:0:0:0:
109,108,184968,2,0,P|135:210|132:287,1,170.999994781494,2|0,0:0|0:0,0:0:0:0:
285,128,185601,2,0,P|285:85|296:44,1,85.4999973907472,10|2,0:0|0:0,0:0:0:0:
345,212,186024,1,4,0:0:0:0:
345,212,186447,5,8,0:0:0:0:
438,239,186658,1,2,0:0:0:0:
285,293,186869,2,0,P|324:309|372:308,1,85.4999973907472,2|0,0:0|0:0,0:0:0:0:
237,368,187292,2,0,L|102:355,1,128.249996086121,8|0,0:0|0:0,0:0:0:0:
80,347,187714,5,0,0:0:0:0:
210,242,187925,1,0,0:0:0:0:
62,214,188137,1,8,0:0:0:0:
163,356,188348,1,2,0:0:0:0:
322,238,188559,2,0,L|310:322,1,85.4999973907472,2|0,0:0|0:0,0:0:0:0:
210,242,188982,2,0,P|163:167|175:77,1,170.999994781494,8|4,0:0|0:0,0:0:0:0:
249,58,189616,1,0,0:0:0:0:
119,27,189827,5,8,0:0:0:0:
249,58,190038,1,0,0:0:0:0:
84,110,190249,2,0,L|97:237,1,128.249996086121
109,252,190672,2,0,P|68:238|10:243,1,85.4999973907472,8|0,0:0|0:0,0:0:0:0:
207,191,191094,5,6,0:0:0:0:
231,203,191200,1,2,0:0:0:0:
256,210,191306,1,2,0:0:0:0:
283,209,191411,1,2,0:0:0:0:
307,198,191517,5,6,0:0:0:0:
331,185,191623,1,2,0:0:0:0:
329,215,191728,1,2,0:0:0:0:
328,251,191834,1,2,0:0:0:0:
325,279,191939,6,0,L|331:352,1,56.9999982604981,6|0,0:0|0:0,0:0:0:0:
415,238,192151,2,0,L|410:181,1,56.9999982604981,2|2,0:0|0:0,0:0:0:0:
226,108,192362,6,0,L|230:164,3,56.9999982604981,4|0|0|0,0:0|0:0|0:0|0:0,0:0:0:0:
232,97,192785,6,0,P|174:179|99:112,1,227.999993041992,4|8,0:0|0:0,0:0:0:0:
148,47,193418,1,0,0:0:0:0:
402,95,193630,2,0,B|350:106|350:106|225:97,1,170.999994781494,0|8,0:0|0:0,0:0:0:0:
182,276,194263,1,0,0:0:0:0:
137,192,194475,6,0,P|81:205|24:204,2,113.999996520996,0|0|8,0:0|0:0|0:0,0:0:0:0:
237,200,195109,2,0,B|270:235|280:284|280:284|265:333|215:375,1,190,2|0,0:0|0:0,0:0:0:0:
139,314,195742,1,8,0:0:0:0:
333,202,195954,1,0,0:0:0:0:
132,221,196165,6,0,P|177:232|216:259,1,95,4|0,0:0|0:0,0:0:0:0:
62,349,196587,2,0,L|32:249,1,95,8|0,0:0|0:0,0:0:0:0:
233,69,197010,2,0,L|228:164,1,95,0|0,0:0|0:0,0:0:0:0:
89,56,197432,1,8,0:0:0:0:
89,56,197855,5,4,0:0:0:0:
228,163,198066,1,0,0:0:0:0:
32,221,198278,1,8,0:0:0:0:
297,101,198489,2,0,P|211:79|132:142,1,190,2|0,0:0|0:0,0:0:0:0:
329,226,199123,2,0,P|371:225|424:208,1,95,10|2,0:0|0:0,0:0:0:0:
480,150,199545,1,4,0:0:0:0:
480,150,199968,5,8,0:0:0:0:
363,89,200179,1,0,0:0:0:0:
350,316,200390,2,0,P|330:265|329:223,1,95,0|0,0:0|0:0,0:0:0:0:
289,9,200813,2,0,P|267:68|276:152,1,142.5,8|0,0:0|0:0,0:0:0:0:
287,159,201235,5,0,0:0:0:0:
170,289,201447,1,0,0:0:0:0:
153,163,201658,1,8,0:0:0:0:
269,334,201869,1,0,0:0:0:0:
60,314,202080,2,0,P|60:271|79:217,1,95
176,67,202503,2,0,P|238:135|226:227,1,190,8|4,0:0|0:0,0:0:0:0:
363,192,203137,1,0,0:0:0:0:
153,163,203348,5,8,0:0:0:0:
322,97,203559,1,0,0:0:0:0:
355,335,203770,2,0,L|364:191,1,142.5
360,183,204193,2,0,P|392:210|446:226,1,95,8|0,0:0|0:0,0:0:0:0:
361,99,204616,5,6,0:0:0:0:
321,108,204721,1,2,0:0:0:0:
291,135,204827,1,2,0:0:0:0:
277,171,204932,1,2,0:0:0:0:
281,212,205038,5,14,0:0:0:0:
303,245,205144,1,2,0:0:0:0:
338,264,205249,1,2,0:0:0:0:
378,266,205355,1,2,0:0:0:0:
405,250,205461,6,0,L|475:249,1,56.9999982604981,6|2,0:0|0:0,0:0:0:0:
269,321,205672,2,0,L|212:321,1,56.9999982604981,2|2,0:0|0:0,0:0:0:0:
60,198,205883,6,0,L|175:198,1,113.999996520996,8|0,0:0|0:0,0:0:0:0:
255,138,206306,5,0,0:0:0:0:
