osu file format v14

[General]
AudioFilename: OOH-AHH.mp3
AudioLeadIn: 0
PreviewTime: 53335
Countdown: 0
SampleSet: Soft
StackLeniency: 0.7
Mode: 0
LetterboxInBreaks: 0
WidescreenStoryboard: 0

[Editor]
DistanceSpacing: 1
BeatDivisor: 4
GridSize: 8
TimelineZoom: 1.599999

[Metadata]
Title:Like OOH-AHH
TitleUnicode:OOH-AHH하게
Artist:TWICE
ArtistUnicode:트와이스
Creator:Heart Attack
Version:Hard
Source:
Tags:THE STORY BEGINS JYP entertainment 나연 정연 모모 사나 지효 미나 다현 채영 쯔위 Sana Nayeon Momo Dahyun Mina Jeongyeon Jihyo Chaeyeong Tzuyu K-pop Kpop
BeatmapID:1063770
BeatmapSetID:499853

[Difficulty]
HPDrainRate:5
CircleSize:4
OverallDifficulty:6
ApproachRate:7
SliderMultiplier:1.4
SliderTickRate:1

[Events]
//Background and Video events
Video,-32,"twice ooh ahh mv.avi"
0,0,"BG.jpg",0,0
//Break Periods
2,81329,87096
2,150731,163152
//Storyboard Layer 0 (Background)
//Storyboard Layer 1 (Fail)
//Storyboard Layer 2 (Pass)
//Storyboard Layer 3 (Foreground)
//Storyboard Sound Samples

[TimingPoints]
109,422.535211267606,4,2,1,50,1,0
11939,-100,4,2,1,50,0,0
40671,-100,4,2,1,60,0,0
52925,-133.333333333333,4,2,1,60,0,0
53770,-100,4,2,1,60,0,0
54193,-83.3333333333333,4,2,1,80,0,1
66023,-133.333333333333,4,2,1,80,0,1
67713,-83.3333333333333,4,2,1,80,0,1
80813,-133.333333333333,4,2,1,60,0,1
81235,-100,4,2,1,40,0,0
82502,-133.333333333333,4,2,1,80,0,0
82925,-100,4,2,1,60,0,0
87995,-133.333333333333,4,2,1,50,0,0
89263,-100,4,2,1,50,0,0
109967,-100,4,2,1,60,0,0
122221,-133.333333333333,4,2,1,60,0,0
123065,-83.3333333333333,4,2,1,80,0,0
123489,-83.3333333333333,4,2,1,80,0,1
135320,-83.3333333333333,4,2,1,80,0,1
137009,-83.3333333333333,4,2,1,80,0,1
150531,-100,4,2,1,40,0,0
165320,-100,4,2,1,70,0,0
179263,-83.3333333333333,4,2,1,80,0,1
191094,-83.3333333333333,4,2,1,80,0,1
192785,-83.3333333333333,4,2,1,80,0,1
206306,-83.3333333333333,4,2,1,80,0,0

[Colours]
Combo1 : 255,255,128
Combo2 : 0,128,255
Combo3 : 176,0,0
Combo4 : 64,0,128

[HitObjects]
406,88,11939,6,0,L|357:93,3,35,2|2|2|2,0:0|0:0|0:0|0:0,0:0:0:0:
340,82,12362,6,0,L|291:87,3,35,2|2|2|2,0:0|0:0|0:0|0:0,0:0:0:0:
274,77,12785,6,0,L|225:82,3,35,2|2|2|2,0:0|0:0|0:0|0:0,0:0:0:0:
208,71,13207,6,0,L|159:76,3,35,2|0|2|2,0:0|0:0|0:0|0:0,0:0:0:0:
142,66,13630,6,0,L|152:162,1,70,2|0,0:0|0:0,0:0:0:0:
142,226,14052,2,0,P|199:210|226:178,1,70,0|0,0:0|0:0,0:0:0:0:
271,267,14475,2,0,P|305:263|339:270,1,70,2|0,0:0|0:0,0:0:0:0:
418,315,14897,2,0,L|425:227,1,70,0|0,0:0|0:0,0:0:0:0:
363,189,15320,6,0,P|431:194|487:154,1,140,2|2,0:0|0:0,0:0:0:0:
409,107,15954,1,0,0:0:0:0:
318,108,16165,2,0,P|278:100|245:81,1,70,2|0,0:0|0:0,0:0:0:0:
170,47,16587,2,0,L|180:140,1,70,4|0,0:0|0:0,0:0:0:0:
153,204,17010,6,0,L|163:297,1,70,6|0,0:0|0:0,0:0:0:0:
224,338,17432,1,0,0:0:0:0:
224,338,17644,1,0,0:0:0:0:
313,322,17855,2,0,P|294:276|254:248,1,70,2|0,0:0|0:0,0:0:0:0:
359,217,18278,1,0,0:0:0:0:
448,203,18489,1,0,0:0:0:0:
359,217,18700,6,0,P|365:173|390:133,1,70,0|0,0:0|0:0,0:0:0:0:
402,127,19017,1,2,0:0:0:0:
402,127,19123,1,2,0:0:0:0:
438,43,19334,1,0,0:0:0:0:
438,43,19545,2,0,L|333:46,1,105,2|0,0:0|0:0,0:0:0:0:
306,72,19968,2,0,L|233:75,1,70,4|0,0:0|0:0,0:0:0:0:
151,41,20390,6,0,P|146:76|153:110,1,70,6|2,0:0|0:0,0:0:0:0:
178,140,20707,1,2,0:0:0:0:
178,140,20813,1,2,0:0:0:0:
188,232,21024,1,0,0:0:0:0:
188,232,21235,2,0,P|139:220|88:163,1,105,2|0,0:0|0:0,0:0:0:0:
85,155,21658,1,0,0:0:0:0:
120,69,21869,1,0,0:0:0:0:
178,140,22080,6,0,P|246:145|302:105,1,140,2|2,0:0|0:0,0:0:0:0:
376,157,22714,1,0,0:0:0:0:
387,247,22925,2,0,P|352:240|321:225,1,70,2|0,0:0|0:0,0:0:0:0:
244,274,23348,2,0,P|212:289|178:296,1,70,12|0,0:0|0:0,0:0:0:0:
91,325,23770,6,0,L|83:255,1,70,6|0,0:0|0:0,0:0:0:0:
101,165,24193,1,2,0:0:0:0:
42,92,24404,1,0,0:0:0:0:
101,165,24616,2,0,L|172:155,1,70,2|0,0:0|0:0,0:0:0:0:
246,104,25038,2,0,L|317:94,1,70,0|0,0:0|0:0,0:0:0:0:
401,73,25461,6,0,L|406:122,3,35,2|2|2|2,0:0|0:0|0:0|0:0,0:0:0:0:
395,139,25884,6,0,L|400:188,3,35,2|2|2|2,0:0|0:0|0:0|0:0,0:0:0:0:
390,205,26307,6,0,L|395:254,3,35,2|2|2|2,0:0|0:0|0:0|0:0,0:0:0:0:
384,271,26729,6,0,L|389:320,3,35,2|0|2|2,0:0|0:0|0:0|0:0,0:0:0:0:
379,337,27151,6,0,L|309:344,1,70,4|0,0:0|0:0,0:0:0:0:
226,362,27573,2,0,P|191:363|158:352,1,70,8|0,0:0|0:0,0:0:0:0:
53,258,27996,2,0,P|88:257|121:268,1,70
167,184,28418,1,8,0:0:0:0:
148,94,28630,1,0,0:0:0:0:
83,157,28841,5,0,0:0:0:0:
148,94,29052,1,0,0:0:0:0:
232,127,29263,2,0,P|293:120|361:48,1,140,8|0,0:0|0:0,0:0:0:0:
260,38,29897,1,0,0:0:0:0:
349,69,30109,2,0,P|392:66|421:51,1,70,8|0,0:0|0:0,0:0:0:0:
465,130,30531,6,0,L|457:302,1,140,4|8,0:0|0:0,0:0:0:0:
440,359,31165,1,0,0:0:0:0:
364,308,31376,2,0,P|330:297|295:297,1,70,0|0,0:0|0:0,0:0:0:0:
228,352,31799,2,0,L|208:284,1,70,8|0,0:0|0:0,0:0:0:0:
117,297,32221,6,0,L|180:161,1,140,4|8,0:0|0:0,0:0:0:0:
259,206,32855,1,0,0:0:0:0:
345,178,33066,2,0,P|379:178|413:188,1,70,0|0,0:0|0:0,0:0:0:0:
437,276,33489,2,0,P|402:275|368:266,1,70,8|0,0:0|0:0,0:0:0:0:
293,317,33911,6,0,L|196:320,1,70,4|0,0:0|0:0,0:0:0:0:
143,273,34334,2,0,P|112:255|90:228,1,70,8|0,0:0|0:0,0:0:0:0:
222,230,34756,2,0,P|265:204|281:180,1,70
280,99,35179,1,8,0:0:0:0:
200,143,35390,1,0,0:0:0:0:
280,99,35601,5,0,0:0:0:0:
363,134,35813,1,2,0:0:0:0:
355,225,36024,2,0,P|362:293|413:339,1,140,8|0,0:0|0:0,0:0:0:0:
439,252,36658,1,0,0:0:0:0:
355,225,36869,2,0,P|322:238|288:239,1,70,8|0,0:0|0:0,0:0:0:0:
219,179,37292,6,0,L|205:274,1,70,4|0,0:0|0:0,0:0:0:0:
119,232,37714,2,0,L|132:322,1,70,8|0,0:0|0:0,0:0:0:0:
197,361,38137,2,0,P|231:360|265:350,1,70,0|0,0:0|0:0,0:0:0:0:
343,303,38559,2,0,L|350:372,1,70,8|0,0:0|0:0,0:0:0:0:
432,331,38982,6,0,P|460:259|429:189,1,140,0|8,0:0|0:0,0:0:0:0:
351,209,39616,1,0,0:0:0:0:
267,238,39827,2,0,P|232:237|198:227,1,70,0|0,0:0|0:0,0:0:0:0:
179,142,40249,2,0,P|213:142|247:153,1,70,12|0,0:0|0:0,0:0:0:0:
322,102,40672,5,4,0:0:0:0:
412,92,40883,1,0,0:0:0:0:
321,102,41094,2,0,P|341:156|359:173,1,70,8|0,0:0|0:0,0:0:0:0:
437,182,41517,2,0,P|425:215|395:244,1,70,8|0,0:0|0:0,0:0:0:0:
340,308,41939,2,0,P|320:280|311:246,1,70,8|0,0:0|0:0,0:0:0:0:
220,250,42362,5,8,0:0:0:0:
208,258,42785,5,8,0:0:0:0:
197,266,43207,5,8,0:0:0:0:
184,274,43630,6,0,P|176:217|181:176,1,70,12|0,0:0|0:0,0:0:0:0:
232,133,44052,6,0,P|200:119|166:113,2,70,8|0|8,0:0|0:0|0:0,0:0:0:0:
316,96,44686,1,0,0:0:0:0:
388,149,44897,2,0,P|402:116|403:81,1,70,8|0,0:0|0:0,0:0:0:0:
316,96,45320,2,0,P|302:128|301:163,1,70,8|0,0:0|0:0,0:0:0:0:
359,232,45742,6,0,L|428:227,2,70,8|0|8,0:0|0:0|0:0,0:0:0:0:
277,273,46376,1,0,0:0:0:0:
195,314,46587,2,0,L|125:318,1,70,8|0,0:0|0:0,0:0:0:0:
36,295,47010,2,0,P|26:240|56:168,1,105,12|0,0:0|0:0,0:0:0:0:
40,147,47432,6,0,P|100:151|183:124,1,140,8|8,0:0|0:0,0:0:0:0:
235,196,48066,1,0,0:0:0:0:
327,211,48278,2,0,P|357:225|383:249,1,70,8|0,0:0|0:0,0:0:0:0:
420,152,48700,2,0,P|454:151|488:141,1,70,8|0,0:0|0:0,0:0:0:0:
427,12,49123,6,0,L|380:81,1,70,8|0,0:0|0:0,0:0:0:0:
291,27,49545,2,0,L|290:97,1,70,8|0,0:0|0:0,0:0:0:0:
201,119,49968,2,0,L|221:209,1,70,8|0,0:0|0:0,0:0:0:0:
133,224,50390,2,0,L|174:297,1,70,8|0,0:0|0:0,0:0:0:0:
245,329,50813,6,0,P|279:321|314:297,1,70,8|0,0:0|0:0,0:0:0:0:
377,241,51235,1,8,0:0:0:0:
468,247,51447,1,0,0:0:0:0:
377,241,51658,2,0,L|382:151,1,70,8|0,0:0|0:0,0:0:0:0:
382,80,52080,2,0,L|288:75,1,70,8|0,0:0|0:0,0:0:0:0:
226,84,52503,5,6,0:0:0:0:
228,110,52609,1,2,0:0:0:0:
230,136,52714,1,2,0:0:0:0:
231,162,52820,1,2,0:0:0:0:
234,185,52925,6,0,L|230:216,3,26.2500010013581,6|2|0|2,0:0|0:0|0:0|0:0,0:0:0:0:
212,240,53348,6,0,L|201:279,3,26.2500010013581,6|2|0|2,0:0|0:0|0:0|0:0,0:0:0:0:
187,292,53770,6,0,P|144:291|170:325,1,105,4|0,0:0|0:0,0:0:0:0:
219,323,54193,6,0,P|307:307|397:319,1,167.999994873047,4|8,0:0|0:0,0:0:0:0:
468,353,54827,1,0,0:0:0:0:
480,262,55038,2,0,B|474:197|474:197|487:147|487:147|479:96,1,167.999994873047,0|8,0:0|0:0,0:0:0:0:
409,35,55672,1,0,0:0:0:0:
342,98,55883,6,0,P|320:62|316:20,2,83.9999974365235,0|0|8,0:0|0:0|0:0,0:0:0:0:
380,182,56517,2,0,B|288:210|312:150|217:176,1,167.999994873047,2|0,0:0|0:0,0:0:0:0:
136,223,57151,1,8,0:0:0:0:
159,312,57362,1,0,0:0:0:0:
242,352,57573,6,0,L|325:349,1,83.9999974365235,6|0,0:0|0:0,0:0:0:0:
417,331,57996,2,0,L|411:241,1,83.9999974365235,8|0,0:0|0:0,0:0:0:0:
366,163,58418,2,0,P|407:169|448:163,1,83.9999974365235
406,81,58841,1,8,0:0:0:0:
406,81,59263,6,0,P|365:75|324:81,1,83.9999974365235
245,123,59686,1,8,0:0:0:0:
178,61,59897,2,0,P|158:141|209:207,1,167.999994873047,2|0,0:0|0:0,0:0:0:0:
298,212,60531,2,0,P|308:253|309:295,1,83.9999974365235,10|2,0:0|0:0,0:0:0:0:
393,355,60954,6,0,L|400:271,1,83.9999974365235,4|0,0:0|0:0,0:0:0:0:
428,189,61376,1,8,0:0:0:0:
454,100,61587,1,2,0:0:0:0:
454,100,61799,2,0,P|411:100|371:114,1,83.9999974365235,2|0,0:0|0:0,0:0:0:0:
294,67,62221,2,0,P|234:86|173:72,1,125.999996154785,8|0,0:0|0:0,0:0:0:0:
136,45,62644,5,0,0:0:0:0:
83,120,62855,1,0,0:0:0:0:
131,198,63066,2,0,P|90:210|49:208,1,83.9999974365235,8|2,0:0|0:0,0:0:0:0:
138,298,63489,2,0,P|182:297|225:313,1,83.9999974365235,0|0,0:0|0:0,0:0:0:0:
272,381,63911,2,0,P|264:299|310:228,1,167.999994873047,8|4,0:0|0:0,0:0:0:0:
396,204,64545,1,0,0:0:0:0:
453,130,64756,6,0,L|462:46,1,83.9999974365235,8|0,0:0|0:0,0:0:0:0:
369,39,65179,2,0,P|361:101|315:142,1,125.999996154785,0|0,0:0|0:0,0:0:0:0:
269,137,65601,2,0,L|276:233,1,83.9999974365235,8|0,0:0|0:0,0:0:0:0:
295,313,66024,5,6,0:0:0:0:
321,311,66130,1,2,0:0:0:0:
347,309,66235,1,2,0:0:0:0:
373,308,66341,1,2,0:0:0:0:
394,307,66447,6,0,L|398:281,3,26.2500010013581,6|2|2|2,0:0|0:0|0:0|0:0,0:0:0:0:
417,259,66869,6,0,L|421:233,3,26.2500010013581,6|2|2|2,0:0|0:0|0:0|0:0,0:0:0:0:
442,212,67292,6,0,L|446:186,3,26.2500010013581,4|0|0|0,0:0|0:0|0:0|0:0,0:0:0:0:
459,158,67714,6,0,B|435:128|435:128|388:140|343:126|343:126|314:165,1,167.999994873047,4|8,0:0|0:0,0:0:0:0:
273,234,68348,1,0,0:0:0:0:
219,309,68559,2,0,P|185:239|235:150,1,167.999994873047,0|8,0:0|0:0,0:0:0:0:
286,97,69193,1,0,0:0:0:0:
219,161,69404,6,0,L|103:169,2,83.9999974365235,0|0|8,0:0|0:0|0:0,0:0:0:0:
307,189,70038,2,0,P|372:133|359:42,1,167.999994873047,2|0,0:0|0:0,0:0:0:0:
283,17,70672,1,8,0:0:0:0:
197,50,70883,1,0,0:0:0:0:
198,142,71094,6,0,P|152:130|110:91,1,83.9999974365235,4|0,0:0|0:0,0:0:0:0:
40,66,71517,2,0,L|45:157,1,83.9999974365235,8|0,0:0|0:0,0:0:0:0:
117,208,71939,2,0,L|112:299,1,83.9999974365235,0|0,0:0|0:0,0:0:0:0:
187,349,72362,1,8,0:0:0:0:
187,349,72785,6,0,P|228:354|269:345,1,83.9999974365235,4|0,0:0|0:0,0:0:0:0:
309,260,73207,1,8,0:0:0:0:
241,195,73418,2,0,P|221:275|268:344,1,167.999994873047,2|0,0:0|0:0,0:0:0:0:
347,372,74052,2,0,L|430:363,1,83.9999974365235,10|2,0:0|0:0,0:0:0:0:
491,293,74475,6,0,P|501:252|498:210,1,83.9999974365235,4|0,0:0|0:0,0:0:0:0:
438,140,74897,1,8,0:0:0:0:
356,183,75109,1,0,0:0:0:0:
356,183,75320,2,0,P|315:197|273:197,1,83.9999974365235,0|0,0:0|0:0,0:0:0:0:
200,144,75742,2,0,P|186:204|205:264,1,125.999996154785,8|0,0:0|0:0,0:0:0:0:
242,293,76165,5,0,0:0:0:0:
333,304,76376,1,0,0:0:0:0:
242,293,76587,2,0,P|201:280|160:282,1,83.9999974365235,8|0,0:0|0:0,0:0:0:0:
70,306,77010,2,0,P|69:264|82:224,1,83.9999974365235,0|0,0:0|0:0,0:0:0:0:
158,171,77432,2,0,P|73:89|80:32,1,167.999994873047,8|4,0:0|0:0,0:0:0:0:
163,74,78066,1,0,0:0:0:0:
237,129,78278,6,0,P|281:138|323:135,1,83.9999974365235,8|0,0:0|0:0,0:0:0:0:
409,117,78700,2,0,P|401:179|355:220,1,125.999996154785,0|0,0:0|0:0,0:0:0:0:
315,244,79123,2,0,L|231:244,1,83.9999974365235,8|0,0:0|0:0,0:0:0:0:
132,227,79545,5,6,0:0:0:0:
134,253,79651,1,2,0:0:0:0:
136,279,79756,1,2,0:0:0:0:
139,305,79862,1,2,0:0:0:0:
144,334,79968,6,0,L|197:326,3,41.9999987182618,6|2|2|2,0:0|0:0|0:0|0:0,0:0:0:0:
211,311,80390,6,0,L|264:303,3,41.9999987182618,6|2|2|2,0:0|0:0|0:0|0:0,0:0:0:0:
277,288,80813,6,0,L|369:276,1,78.7500030040742,4|0,0:0|0:0,0:0:0:0:
344,258,87996,6,0,P|361:222|370:184,2,78.7500030040742,0|0|0,0:0|0:0|0:0,0:0:0:0:
228,339,89052,1,0,0:0:0:0:
174,271,89263,2,0,L|178:201,1,70,0|0,0:0|0:0,0:0:0:0:
143,125,89686,6,0,L|140:90,3,35,2|2|2|2,0:0|0:0|0:0|0:0,0:0:0:0:
133,76,90109,2,0,L|202:78,1,70,10|2,0:0|0:0,0:0:0:0:
276,99,90531,2,0,L|374:94,1,70,0|0,0:0|0:0,0:0:0:0:
362,100,90848,1,0,0:0:0:0:
361,104,90954,2,0,P|340:133|333:167,1,70,8|0,0:0|0:0,0:0:0:0:
365,252,91376,5,2,0:0:0:0:
338,253,91482,1,2,0:0:0:0:
312,255,91587,1,2,0:0:0:0:
286,257,91693,1,2,0:0:0:0:
259,259,91799,2,0,L|164:253,1,70,10|0,0:0|0:0,0:0:0:0:
125,309,92221,2,0,P|108:261|117:210,1,70,0|0,0:0|0:0,0:0:0:0:
157,177,92644,2,0,P|174:141|175:102,1,70,8|0,0:0|0:0,0:0:0:0:
145,34,93066,6,0,L|284:43,1,140,0|8,0:0|0:0,0:0:0:0:
363,74,93700,1,0,0:0:0:0:
447,42,93911,2,0,P|444:110|398:161,1,140,0|10,0:0|0:0,0:0:0:0:
314,149,94545,1,0,0:0:0:0:
259,213,94756,6,0,L|180:217,1,70,0|0,0:0|0:0,0:0:0:0:
100,238,95179,1,8,0:0:0:0:
189,216,95390,2,0,P|166:180|57:160,1,140,0|0,0:0|0:0,0:0:0:0:
14,210,96024,2,0,L|17:279,1,70,12|0,0:0|0:0,0:0:0:0:
87,326,96447,6,0,L|156:323,1,70,4|0,0:0|0:0,0:0:0:0:
230,283,96869,2,0,P|264:281|297:292,1,70,0|0,0:0|0:0,0:0:0:0:
373,329,97292,2,0,B|383:296|383:296|375:259,1,70,4|0,0:0|0:0,0:0:0:0:
347,182,97714,2,0,B|337:149|337:149|344:112,1,70,0|0,0:0|0:0,0:0:0:0:
398,49,98137,5,0,0:0:0:0:
317,24,98348,1,0,0:0:0:0:
241,60,98559,2,0,B|195:64|195:64|101:51,1,140,0|4,0:0|0:0,0:0:0:0:
55,121,99193,1,0,0:0:0:0:
105,188,99404,2,0,P|118:220|120:261,1,70,0|0,0:0|0:0,0:0:0:0:
49,302,99827,6,0,L|221:310,1,140,0|2,0:0|0:0,0:0:0:0:
272,335,100461,1,0,0:0:0:0:
320,266,100672,2,0,P|286:255|251:255,1,70,4|2,0:0|0:0,0:0:0:0:
188,308,101094,2,0,L|197:379,1,70,0|0,0:0|0:0,0:0:0:0:
272,335,101517,6,0,L|297:193,1,140,0|8,0:0|0:0,0:0:0:0:
353,135,102151,1,0,0:0:0:0:
434,115,102362,2,0,P|433:149|423:183,1,70,2|2,0:0|0:0,0:0:0:0:
403,220,102679,1,2,0:0:0:0:
403,220,102785,2,0,P|394:253|393:288,1,70,0|0,0:0|0:0,0:0:0:0:
338,352,103207,6,0,L|251:344,1,70,0|0,0:0|0:0,0:0:0:0:
187,366,103630,2,0,P|185:331|196:298,1,70,0|0,0:0|0:0,0:0:0:0:
274,269,104052,2,0,P|253:240|224:221,1,70,4|0,0:0|0:0,0:0:0:0:
141,236,104475,2,0,P|141:200|154:168,1,70,0|0,0:0|0:0,0:0:0:0:
228,139,104897,5,0,0:0:0:0:
228,57,105109,1,0,0:0:0:0:
304,100,105320,2,0,P|368:122|431:95,1,140,8|4,0:0|0:0,0:0:0:0:
366,39,105954,1,0,0:0:0:0:
431,95,106165,2,0,P|444:128|445:162,1,70
459,247,106587,6,0,L|389:236,1,70,0|0,0:0|0:0,0:0:0:0:
329,178,107010,2,0,L|259:188,1,70,0|0,0:0|0:0,0:0:0:0:
188,239,107432,2,0,P|177:205|176:170,1,70,8|0,0:0|0:0,0:0:0:0:
235,109,107855,2,0,L|228:40,1,70
147,38,108278,6,0,L|150:-12,2,35,2|2|2,0:0|0:0|0:0,0:0:0:0:
100,107,108700,1,2,0:0:0:0:
101,125,108806,1,2,0:0:0:0:
102,142,108911,1,2,0:0:0:0:
103,160,109017,1,2,0:0:0:0:
104,179,109123,6,0,L|98:229,2,46.6666666666667,0|0|0,0:0|0:0|0:0,0:0:0:0:
174,254,109545,6,0,L|181:305,2,46.6666666666667,0|0|0,0:0|0:0|0:0,0:0:0:0:
202,175,109968,6,0,P|237:178|270:191,1,70,12|0,0:0|0:0,0:0:0:0:
354,191,110390,2,0,P|346:157|326:128,1,70,8|0,0:0|0:0,0:0:0:0:
441,203,110813,2,0,P|430:237|401:271,1,70,8|0,0:0|0:0,0:0:0:0:
512,145,111235,2,0,P|492:117|483:83,1,70,8|0,0:0|0:0,0:0:0:0:
399,79,111658,5,8,0:0:0:0:
387,87,112080,5,8,0:0:0:0:
376,95,112503,5,8,0:0:0:0:
367,105,112925,6,0,P|333:114|298:114,1,70,4|0,0:0|0:0,0:0:0:0:
229,174,113348,6,0,P|197:160|163:154,2,70,8|0|8,0:0|0:0|0:0,0:0:0:0:
282,247,113982,1,0,0:0:0:0:
351,305,114193,2,0,P|365:272|366:237,1,70,8|0,0:0|0:0,0:0:0:0:
318,167,114616,2,0,P|319:132|333:100,1,70,8|0,0:0|0:0,0:0:0:0:
412,70,115038,6,0,L|481:65,2,70,8|0|8,0:0|0:0|0:0,0:0:0:0:
341,24,115672,1,0,0:0:0:0:
263,57,115883,2,0,L|193:61,1,70,8|0,0:0|0:0,0:0:0:0:
114,90,116306,2,0,P|101:140|111:191,1,105,12|0,0:0|0:0,0:0:0:0:
112,231,116728,6,0,B|178:206|178:206|253:208,1,140,8|8,0:0|0:0,0:0:0:0:
325,254,117362,1,0,0:0:0:0:
405,212,117573,2,0,L|408:142,1,70,8|0,0:0|0:0,0:0:0:0:
384,62,117996,2,0,P|350:72|315:73,1,70,8|0,0:0|0:0,0:0:0:0:
242,40,118418,5,8,0:0:0:0:
160,57,118630,1,0,0:0:0:0:
83,23,118841,2,0,P|77:58|82:93,1,70,8|0,0:0|0:0,0:0:0:0:
146,146,119263,2,0,L|154:215,1,70,8|0,0:0|0:0,0:0:0:0:
239,269,119686,2,0,L|243:200,1,70,8|0,0:0|0:0,0:0:0:0:
241,115,120109,6,0,P|275:107|310:83,1,70,8|0,0:0|0:0,0:0:0:0:
387,116,120531,1,8,0:0:0:0:
387,116,120742,1,0,0:0:0:0:
372,199,120954,2,0,L|368:268,1,70,8|0,0:0|0:0,0:0:0:0:
304,323,121376,2,0,L|210:318,1,70,8|0,0:0|0:0,0:0:0:0:
159,266,121799,5,6,2:0:0:0:
160,240,121904,1,2,2:0:0:0:
162,214,122010,1,2,2:0:0:0:
164,188,122116,1,2,2:0:0:0:
167,158,122221,6,0,L|170:132,3,26.2500010013581,6|2|2|2,2:0|2:0|2:0|2:0,0:0:0:0:
175,100,122644,6,0,L|177:72,3,26.2500010013581,6|2|2|0,2:0|2:0|2:0|0:0,0:0:0:0:
187,57,123066,6,0,B|246:74|246:74|323:57,1,125.999996154785,4|0,0:0|0:0,0:0:0:0:
333,44,123489,6,0,P|324:127|413:166,1,167.999994873047,4|8,0:0|0:0,0:0:0:0:
476,143,124123,1,0,0:0:0:0:
402,90,124334,2,0,B|251:164,1,167.999994873047,0|8,0:0|0:0,0:0:0:0:
158,159,124968,1,0,0:0:0:0:
69,131,125179,6,0,P|47:95|43:53,2,83.9999974365235,0|0|8,0:0|0:0|0:0,0:0:0:0:
137,68,125813,2,0,B|187:77|187:77|258:60|258:60|301:69,1,167.999994873047,2|0,0:0|0:0,0:0:0:0:
390,96,126447,1,8,0:0:0:0:
434,176,126658,1,0,0:0:0:0:
361,233,126869,6,0,L|278:236,1,83.9999974365235,6|0,0:0|0:0,0:0:0:0:
184,228,127292,2,0,L|190:311,1,83.9999974365235,8|0,0:0|0:0,0:0:0:0:
277,236,127714,2,0,L|270:152,1,83.9999974365235,0|0,0:0|0:0,0:0:0:0:
225,71,128137,1,8,0:0:0:0:
225,71,128559,6,0,P|184:64|134:76,1,83.9999974365235,4|0,0:0|0:0,0:0:0:0:
80,140,128982,1,8,0:0:0:0:
76,232,129193,2,0,B|172:204|144:264|239:232,1,167.999994873047,2|0,0:0|0:0,0:0:0:0:
318,184,129827,2,0,P|358:174|400:175,1,83.9999974365235,10|2,0:0|0:0,0:0:0:0:
470,236,130249,6,0,L|454:318,1,83.9999974365235,4|0,0:0|0:0,0:0:0:0:
364,339,130672,1,8,0:0:0:0:
304,267,130883,1,2,0:0:0:0:
304,267,131094,2,0,P|344:253|386:253,1,83.9999974365235,2|0,0:0|0:0,0:0:0:0:
323,163,131517,2,0,P|263:182|202:168,1,125.999996154785,8|0,0:0|0:0,0:0:0:0:
175,130,131939,5,0,0:0:0:0:
259,93,132151,1,0,0:0:0:0:
175,130,132362,2,0,P|153:94|117:74,1,83.9999974365235,8|2,0:0|0:0,0:0:0:0:
92,163,132785,2,0,L|101:246,1,83.9999974365235,2|0,0:0|0:0,0:0:0:0:
22,294,133207,2,0,P|104:286|185:337,1,167.999994873047,8|4,0:0|0:0,0:0:0:0:
252,278,133841,1,0,0:0:0:0:
336,315,134052,6,0,L|345:231,1,83.9999974365235,8|0,0:0|0:0,0:0:0:0:
430,196,134475,2,0,P|388:150|327:142,1,125.999996154785,0|0,0:0|0:0,0:0:0:0:
285,164,134897,2,0,P|244:173|202:172,1,83.9999974365235,8|0,0:0|0:0,0:0:0:0:
117,136,135320,5,6,0:0:0:0:
119,162,135425,1,2,0:0:0:0:
121,188,135531,1,2,0:0:0:0:
122,214,135637,1,2,0:0:0:0:
123,235,135742,6,0,L|164:242,3,41.9999987182618,6|2|2|2,0:0|0:0|0:0|0:0,0:0:0:0:
190,267,136165,6,0,L|231:274,3,41.9999987182618,6|2|2|2,0:0|0:0|0:0|0:0,0:0:0:0:
257,301,136587,6,0,L|298:308,3,41.9999987182618,4|0|0|0,0:0|0:0|0:0|0:0,0:0:0:0:
337,333,137010,6,0,P|388:290|388:182,1,167.999994873047,4|8,0:0|0:0,0:0:0:0:
486,182,137644,1,0,0:0:0:0:
300,235,137855,2,0,P|266:165|316:76,1,167.999994873047,0|8,0:0|0:0,0:0:0:0:
392,76,138489,1,0,0:0:0:0:
353,159,138700,6,0,L|237:167,2,83.9999974365235,0|0|8,0:0|0:0|0:0,0:0:0:0:
445,158,139334,2,0,B|455:212|455:212|435:331,1,167.999994873047,2|0,0:0|0:0,0:0:0:0:
344,333,139968,1,8,0:0:0:0:
253,352,140179,1,0,0:0:0:0:
253,352,140390,6,0,L|169:348,1,83.9999974365235,4|0,0:0|0:0,0:0:0:0:
76,343,140813,2,0,L|68:259,1,83.9999974365235,8|0,0:0|0:0,0:0:0:0:
88,169,141235,2,0,P|129:163|170:172,1,83.9999974365235,0|0,0:0|0:0,0:0:0:0:
247,223,141658,1,8,0:0:0:0:
247,223,142080,6,0,P|288:228|329:219,1,83.9999974365235,4|0,0:0|0:0,0:0:0:0:
410,174,142503,1,8,0:0:0:0:
473,104,142714,2,0,P|393:84|324:131,1,167.999994873047,2|0,0:0|0:0,0:0:0:0:
242,94,143348,2,0,P|203:102|148:89,1,83.9999974365235,10|2,0:0|0:0,0:0:0:0:
73,60,143770,6,0,L|83:143,1,83.9999974365235,4|0,0:0|0:0,0:0:0:0:
91,235,144193,1,8,0:0:0:0:
164,178,144404,1,0,0:0:0:0:
240,229,144616,2,0,P|282:228|322:214,1,83.9999974365235,0|0,0:0|0:0,0:0:0:0:
387,151,145038,2,0,P|373:211|392:271,1,125.999996154785,8|0,0:0|0:0,0:0:0:0:
429,298,145461,5,0,0:0:0:0:
464,209,145672,1,0,0:0:0:0:
429,298,145883,2,0,L|345:295,1,83.9999974365235,8|0,0:0|0:0,0:0:0:0:
270,240,146306,2,0,P|257:279|258:321,1,83.9999974365235,0|0,0:0|0:0,0:0:0:0:
165,329,146728,2,0,P|97:289|81:201,1,167.999994873047,8|4,0:0|0:0,0:0:0:0:
177,229,147362,1,0,0:0:0:0:
227,146,147573,6,0,P|185:134|143:136,1,83.9999974365235,8|0,0:0|0:0,0:0:0:0:
274,236,147996,2,0,P|315:190|325:122,1,125.999996154785
311,91,148418,2,0,L|394:87,1,83.9999974365235,8|0,0:0|0:0,0:0:0:0:
488,67,148841,5,6,0:0:0:0:
482,95,148947,1,2,0:0:0:0:
477,120,149052,1,2,0:0:0:0:
470,145,149158,1,2,0:0:0:0:
465,170,149263,6,0,L|415:175,3,41.9999987182618,6|2|2|2,0:0|0:0|0:0|0:0,0:0:0:0:
403,200,149686,6,0,L|353:205,3,41.9999987182618,6|2|2|2,0:0|0:0|0:0|0:0,0:0:0:0:
347,231,150109,6,0,L|255:239,1,83.9999974365235,4|0,0:0|0:0,0:0:0:0:
186,213,150531,5,0,0:0:0:0:
256,192,164052,12,0,164897,0:0:0:0:
345,137,165109,5,0,0:0:0:0:
269,151,165320,2,0,L|199:143,1,70,8|0,0:0|0:0,0:0:0:0:
133,103,165742,6,0,P|158:166|140:233,1,140,2|2,0:0|0:0,0:0:0:0:
89,290,166376,1,0,0:0:0:0:
152,332,166587,2,0,L|256:338,1,105,2|2,0:0|0:0,0:0:0:0:
293,359,167010,2,0,L|376:364,1,70,8|0,0:0|0:0,0:0:0:0:
444,343,167432,6,0,P|399:291|331:286,1,140,4|8,0:0|0:0,0:0:0:0:
273,226,168066,1,0,0:0:0:0:
248,306,168278,2,0,P|208:313|143:299,1,105,0|0,0:0|0:0,0:0:0:0:
108,284,168700,2,0,P|75:277|38:279,1,70,8|0,0:0|0:0,0:0:0:0:
63,193,169123,6,0,L|68:123,1,70,4|0,0:0|0:0,0:0:0:0:
127,63,169545,1,0,0:0:0:0:
206,100,169756,1,0,0:0:0:0:
273,49,169968,2,0,P|320:28|372:27,1,105,0|0,0:0|0:0,0:0:0:0:
409,47,170390,2,0,P|442:58|481:60,1,70,8|0,0:0|0:0,0:0:0:0:
456,152,170813,5,0,0:0:0:0:
456,152,170918,1,0,0:0:0:0:
456,152,171024,1,0,0:0:0:0:
456,152,171130,1,0,0:0:0:0:
456,152,171235,6,0,L|395:149,3,35
391,165,171658,6,0,L|330:162,3,35,0|2|2|2,0:0|0:0|0:0|0:0,0:0:0:0:
317,181,172080,6,0,L|247:177,1,70,8|0,0:0|0:0,0:0:0:0:
184,119,172503,6,0,P|135:71|63:67,1,140,12|0,0:0|0:0,0:0:0:0:
8,134,173137,1,0,0:0:0:0:
96,151,173348,2,0,L|101:260,1,105,2|0,0:0|0:0,0:0:0:0:
131,285,173770,2,0,L|127:368,1,70,8|0,0:0|0:0,0:0:0:0:
211,344,174193,6,0,B|268:336|268:336|287:324|287:324|369:316,1,140,4|8,0:0|0:0,0:0:0:0:
424,350,174827,1,0,0:0:0:0:
498,312,175038,2,0,P|460:278|386:277,1,105,0|0,0:0|0:0,0:0:0:0:
427,233,175461,2,0,P|434:198|432:163,1,70,8|0,0:0|0:0,0:0:0:0:
378,99,175883,6,0,L|308:94,1,70,4|0,0:0|0:0,0:0:0:0:
224,101,176306,1,8,0:0:0:0:
152,55,176517,1,0,0:0:0:0:
224,101,176728,2,0,P|245:148|244:200,1,105,0|0,0:0|0:0,0:0:0:0:
225,238,177151,2,0,P|190:235|157:224,1,70,8|0,0:0|0:0,0:0:0:0:
170,307,178630,1,0,0:0:0:0:
246,330,178841,2,0,P|283:310|344:305,1,105,0|0,0:0|0:0,0:0:0:0:
379,329,179263,6,0,P|336:275|353:182,1,167.999994873047,4|8,0:0|0:0,0:0:0:0:
421,244,179897,1,0,0:0:0:0:
494,201,180109,2,0,P|533:114|484:41,1,167.999994873047,0|8,0:0|0:0,0:0:0:0:
421,63,180742,1,0,0:0:0:0:
364,136,180954,6,0,P|328:157|287:162,2,83.9999974365235,0|0|8,0:0|0:0|0:0,0:0:0:0:
295,73,181587,2,0,P|219:98|198:189,1,167.999994873047,2|0,0:0|0:0,0:0:0:0:
250,249,182221,1,8,0:0:0:0:
338,224,182432,1,0,0:0:0:0:
250,249,182644,6,0,L|167:252,1,83.9999974365235,6|0,0:0|0:0,0:0:0:0:
83,281,183066,2,0,P|77:322|88:362,1,83.9999974365235,8|0,0:0|0:0,0:0:0:0:
166,252,183489,2,0,P|171:210|159:168,1,83.9999974365235,0|0,0:0|0:0,0:0:0:0:
124,88,183911,1,8,0:0:0:0:
124,88,184334,6,0,P|164:79|206:86,1,83.9999974365235,4|0,0:0|0:0,0:0:0:0:
282,138,184756,1,8,0:0:0:0:
351,197,184968,2,0,P|368:132|306:48,1,167.999994873047,2|0,0:0|0:0,0:0:0:0:
282,137,185601,2,0,P|266:176|266:218,1,83.9999974365235,10|2,0:0|0:0,0:0:0:0:
331,284,186024,6,0,L|418:290,1,83.9999974365235,4|0,0:0|0:0,0:0:0:0:
492,248,186447,1,8,0:0:0:0:
512,163,186658,1,2,0:0:0:0:
512,163,186869,2,0,P|470:162|431:177,1,83.9999974365235,2|0,0:0|0:0,0:0:0:0:
427,77,187292,2,0,P|367:96|306:82,1,125.999996154785,8|0,0:0|0:0,0:0:0:0:
272,57,187714,5,0,0:0:0:0:
209,113,187925,1,0,0:0:0:0:
117,97,188137,2,0,L|132:179,1,83.9999974365235,8|2,0:0|0:0,0:0:0:0:
214,212,188559,2,0,P|212:260|197:298,1,83.9999974365235,2|0,0:0|0:0,0:0:0:0:
117,329,188982,2,0,L|284:335,1,167.999994873047,8|4,0:0|0:0,0:0:0:0:
370,300,189616,1,0,0:0:0:0:
449,252,189827,6,0,L|458:168,1,83.9999974365235,8|0,0:0|0:0,0:0:0:0:
468,76,190249,2,0,P|426:30|365:22,1,125.999996154785,0|0,0:0|0:0,0:0:0:0:
326,48,190672,2,0,P|285:57|243:56,1,83.9999974365235,8|0,0:0|0:0,0:0:0:0:
150,55,191094,5,6,0:0:0:0:
149,80,191200,1,2,0:0:0:0:
147,105,191306,1,2,0:0:0:0:
146,131,191411,1,2,0:0:0:0:
143,155,191517,6,0,L|184:162,3,41.9999987182618,6|2|2|2,0:0|0:0|0:0|0:0,0:0:0:0:
206,181,191939,6,0,L|247:188,3,41.9999987182618,6|0|2|2,0:0|0:0|0:0|0:0,0:0:0:0:
268,208,192362,6,0,L|309:215,3,41.9999987182618,4|0|0|0,0:0|0:0|0:0|0:0,0:0:0:0:
334,235,192785,6,0,B|443:255|443:255|367:274,1,167.999994873047,4|8,0:0|0:0,0:0:0:0:
325,334,193418,1,0,0:0:0:0:
232,328,193630,2,0,B|169:322|169:322|119:335|119:335|66:329,1,167.999994873047,0|8,0:0|0:0,0:0:0:0:
9,255,194263,1,0,0:0:0:0:
62,179,194475,6,0,P|95:152|148:142,2,83.9999974365235,0|0|8,0:0|0:0|0:0,0:0:0:0:
139,230,195109,2,0,B|250:248|250:248|304:238,1,167.999994873047,2|0,0:0|0:0,0:0:0:0:
371,175,195742,1,8,0:0:0:0:
449,126,195954,1,0,0:0:0:0:
449,126,196165,6,0,L|453:210,1,83.9999974365235,4|0,0:0|0:0,0:0:0:0:
468,298,196587,2,0,L|384:306,1,83.9999974365235,8|0,0:0|0:0,0:0:0:0:
302,286,197010,2,0,P|260:287|221:304,1,83.9999974365235,0|0,0:0|0:0,0:0:0:0:
150,342,197432,1,8,0:0:0:0:
150,342,197855,6,0,P|126:306|117:265,1,83.9999974365235,4|0,0:0|0:0,0:0:0:0:
146,184,198278,1,8,0:0:0:0:
207,115,198489,2,0,P|127:95|57:155,1,167.999994873047,2|0,0:0|0:0,0:0:0:0:
146,184,199123,2,0,P|199:202|252:200,1,83.9999974365235,10|2,0:0|0:0,0:0:0:0:
296,141,199545,6,0,L|401:139,1,83.9999974365235,4|0,0:0|0:0,0:0:0:0:
469,162,199968,1,8,0:0:0:0:
469,162,200179,1,0,0:0:0:0:
501,248,200390,2,0,P|499:290|477:333,1,83.9999974365235,0|0,0:0|0:0,0:0:0:0:
411,267,200813,2,0,P|350:253|291:271,1,125.999996154785,8|0,0:0|0:0,0:0:0:0:
268,304,201235,5,0,0:0:0:0:
359,335,201447,1,0,0:0:0:0:
268,304,201658,2,0,L|184:301,1,83.9999974365235,8|0,0:0|0:0,0:0:0:0:
112,248,202080,2,0,P|99:287|100:329,1,83.9999974365235,0|0,0:0|0:0,0:0:0:0:
198,219,202503,2,0,P|278:201|325:134,1,167.999994873047,8|4,0:0|0:0,0:0:0:0:
288,59,203137,1,0,0:0:0:0:
370,60,203348,6,0,P|413:53|452:66,1,83.9999974365235,8|0,0:0|0:0,0:0:0:0:
406,137,203770,2,0,L|419:275,1,125.999996154785,0|0,0:0|0:0,0:0:0:0:
428,308,204193,2,0,P|386:319|345:312,1,83.9999974365235,8|0,0:0|0:0,0:0:0:0:
261,345,204616,5,6,0:0:0:0:
257,313,204721,1,2,0:0:0:0:
254,282,204827,1,2,0:0:0:0:
251,251,204932,1,2,0:0:0:0:
247,219,205038,6,2,L|190:210,3,41.9999987182618,6|2|2|2,0:0|0:0|0:0|0:0,0:0:0:0:
188,195,205461,6,2,L|132:169,3,41.9999987182618,6|2|2|2,0:0|0:0|0:0|0:0,0:0:0:0:
145,149,205883,6,0,P|140:107|153:67,1,83.9999974365235,4|0,0:0|0:0,0:0:0:0:
229,117,206306,5,0,0:0:0:0:
