osu file format v14

[General]
AudioFilename: OOH-AHH.mp3
AudioLeadIn: 0
PreviewTime: 53335
Countdown: 0
SampleSet: Soft
StackLeniency: 0.7
Mode: 0
LetterboxInBreaks: 0
WidescreenStoryboard: 0

[Editor]
DistanceSpacing: 1.1
BeatDivisor: 4
GridSize: 8
TimelineZoom: 1.599999

[Metadata]
Title:Like OOH-AHH
TitleUnicode:OOH-AHH하게
Artist:TWICE
ArtistUnicode:트와이스
Creator:Heart Attack
Version:Easy
Source:
Tags:THE STORY BEGINS JYP entertainment 나연 정연 모모 사나 지효 미나 다현 채영 쯔위 Sana Nayeon Momo Dahyun Mina Jeongyeon Jihyo Chaeyeong Tzuyu K-pop Kpop
BeatmapID:1123698
BeatmapSetID:499853

[Difficulty]
HPDrainRate:2
CircleSize:3
OverallDifficulty:2
ApproachRate:2
SliderMultiplier:0.8
SliderTickRate:1

[Events]
//Background and Video events
Video,-32,"twice ooh ahh mv.avi"
0,0,"BG.jpg",0,0
//Break Periods
2,83125,86436
2,150731,160802
//Storyboard Layer 0 (Background)
//Storyboard Layer 1 (Fail)
//Storyboard Layer 2 (Pass)
//Storyboard Layer 3 (Foreground)
//Storyboard Sound Samples

[TimingPoints]
109,422.535211267606,4,2,1,50,1,0
11939,-100,4,2,1,50,0,0
54193,-100,4,2,1,80,0,1
81235,-100,4,2,1,40,0,0
82925,-100,4,2,1,60,0,0
87995,-100,4,2,1,50,0,0
109967,-100,4,2,1,60,0,0
123489,-100,4,2,1,80,0,1
148841,-100,4,2,1,80,0,0
150530,-100,4,2,1,40,0,0
165741,-100,4,2,1,70,0,0
179263,-100,4,2,1,80,0,1
206306,-100,4,2,1,40,0,0

[Colours]
Combo1 : 255,255,128
Combo2 : 0,128,255
Combo3 : 176,0,0
Combo4 : 64,0,128

[HitObjects]
135,153,11939,6,0,L|126:58,2,80,2|2|2,0:0|0:0|0:0,0:0:0:0:
177,229,13207,1,2,0:0:0:0:
143,310,13630,6,0,P|203:313|262:230,1,160,2|2,0:0|0:0,0:0:0:0:
225,160,14897,1,0,0:0:0:0:
235,72,15320,2,0,B|173:75|144:127|144:127|114:131|90:153,1,160,2|2,0:0|0:0,0:0:0:0:
149,217,16587,1,4,0:0:0:0:
231,258,17010,6,0,B|311:242|311:242|343:262|393:251,1,160,6|2,0:0|0:0,0:0:0:0:
359,168,18278,1,0,0:0:0:0:
401,90,18700,2,0,P|323:89|272:148,1,160,0|2,0:0|0:0,0:0:0:0:
190,183,19968,1,4,0:0:0:0:
191,270,20390,6,0,B|137:271|110:221|110:221|93:248|61:260,1,160,6|2,0:0|0:0,0:0:0:0:
36,173,21658,1,0,0:0:0:0:
115,135,22080,2,0,P|199:105|265:138,1,160,2|2,0:0|0:0,0:0:0:0:
313,202,23348,1,12,0:0:0:0:
397,227,23770,6,0,P|335:287|254:270,1,160,6|2,0:0|0:0,0:0:0:0:
193,230,25038,1,0,0:0:0:0:
240,155,25461,2,0,P|113:194|129:290,1,240,6|0,0:0|0:0,0:0:0:0:
198,319,27151,6,0,P|243:336|275:361,2,80,4|8|0,0:0|0:0|0:0,0:0:0:0:
119,281,28418,1,8,0:0:0:0:
65,210,28841,2,0,P|59:163|62:116,2,80,0|8|0,0:0|0:0|0:0,0:0:0:0:
119,281,30109,1,8,0:0:0:0:
202,252,30531,6,0,P|240:190|228:105,1,160,4|0,0:0|0:0,0:0:0:0:
158,54,31799,1,8,0:0:0:0:
72,77,32221,2,0,P|34:139|46:224,1,160,4|0,0:0|0:0,0:0:0:0:
115,278,33489,1,8,0:0:0:0:
197,247,33911,6,0,P|215:211|225:173,2,80,4|8|0,0:0|0:0|0:0,0:0:0:0:
115,278,35178,1,8,0:0:0:0:
75,199,35601,2,0,P|37:184|-2:176,2,80,0|8|0,0:0|0:0|0:0,0:0:0:0:
115,278,36869,1,8,0:0:0:0:
192,320,37292,6,0,P|240:330|286:327,1,80,4|8,0:0|0:0,0:0:0:0:
353,300,38137,2,0,P|364:259|361:208,1,80,0|8,0:0|0:0,0:0:0:0:
301,159,38982,2,0,P|254:151|216:128,1,80,0|8,0:0|0:0,0:0:0:0:
171,66,39827,1,0,0:0:0:0:
139,148,40249,1,12,0:0:0:0:
132,235,40672,6,0,P|135:285|149:322,1,80,4|8,0:0|0:0,0:0:0:0:
229,342,41517,2,0,P|276:343|316:353,1,80,8|8,0:0|0:0,0:0:0:0:
393,328,42362,2,0,P|429:340|484:340,2,80,8|8|8,0:0|0:0|0:0,0:0:0:0:
335,265,43630,1,12,0:0:0:0:
395,200,44052,6,0,P|403:157|403:106,2,80,8|8|8,0:0|0:0|0:0,0:0:0:0:
335,265,45320,1,8,0:0:0:0:
252,294,45742,2,0,L|166:289,1,80,8|8,0:0|0:0,0:0:0:0:
106,348,46587,2,0,P|87:301|88:261,1,80,8|12,0:0|0:0,0:0:0:0:
125,193,47432,6,0,L|40:183,2,80,8|8|8,0:0|0:0|0:0,0:0:0:0:
210,173,48700,1,8,0:0:0:0:
248,252,49123,2,0,P|275:276|315:295,2,80,8|8|8,0:0|0:0|0:0,0:0:0:0:
210,173,50390,1,8,0:0:0:0:
275,114,50813,6,0,P|316:102|368:107,1,80,8|8,0:0|0:0,0:0:0:0:
441,82,51658,2,0,P|442:122|426:160,1,80,8|8,0:0|0:0,0:0:0:0:
452,246,52503,2,0,B|398:261|357:218|357:218|341:268|316:289|316:289|288:278|270:243,1,240,6|4,0:0|0:0,0:0:0:0:
272,167,54193,6,0,P|233:176|203:202,1,80,4|8,0:0|0:0,0:0:0:0:
128,249,55038,2,0,L|135:329,1,80,0|8,0:0|0:0,0:0:0:0:
218,355,55883,1,0,0:0:0:0:
304,369,56306,2,0,P|375:333|389:249,1,160,8|8,0:0|0:0,0:0:0:0:
305,277,57573,6,0,P|256:286|210:278,1,80,6|8,0:0|0:0,0:0:0:0:
180,207,58418,2,0,P|218:198|258:201,1,80,0|8,0:0|0:0,0:0:0:0:
343,177,59263,2,0,P|384:184|437:175,2,80,4|8|2,0:0|0:0|0:0,0:0:0:0:
262,141,60531,1,10,0:0:0:0:
184,98,60954,6,0,P|175:149|186:194,1,80,4|8,0:0|0:0,0:0:0:0:
238,240,61799,2,0,P|276:249|316:246,1,80,2|8,0:0|0:0,0:0:0:0:
382,187,62644,2,0,L|375:91,2,80,0|8|0,0:0|0:0|0:0,0:0:0:0:
437,255,63911,1,8,0:0:0:0:
491,323,64334,5,4,0:0:0:0:
437,255,64756,2,0,B|394:275|358:265|358:265|308:245|269:268,1,160,8|8,0:0|0:0,0:0:0:0:
259,349,66024,2,0,B|198:328|192:270|192:270|149:300|149:300|121:259|122:219,1,240,6|4,0:0|0:0,0:0:0:0:
157,147,67714,6,0,P|187:121|225:112,1,80,4|8,0:0|0:0,0:0:0:0:
307,146,68559,2,0,P|358:150|401:137,1,80,0|8,0:0|0:0,0:0:0:0:
466,108,69404,1,0,0:0:0:0:
511,183,69827,2,0,B|486:195|462:194|462:194|479:257|442:300,1,160,8|8,0:0|0:0,0:0:0:0:
359,321,71094,6,0,L|263:314,1,80,4|8,0:0|0:0,0:0:0:0:
204,268,71939,2,0,L|108:261,1,80,0|8,0:0|0:0,0:0:0:0:
45,301,72784,2,0,P|38:260|47:207,2,80,4|8|2,0:0|0:0|0:0,0:0:0:0:
122,343,74052,1,10,0:0:0:0:
200,304,74475,6,0,P|209:253|198:208,1,80,4|8,0:0|0:0,0:0:0:0:
154,152,75320,2,0,P|195:143|225:120,1,80,0|8,0:0|0:0,0:0:0:0:
287,58,76165,2,0,P|321:43|376:50,2,80,0|8|0,0:0|0:0|0:0,0:0:0:0:
340,127,77432,1,8,0:0:0:0:
397,194,77855,5,4,0:0:0:0:
441,269,78277,2,0,B|398:289|353:271|353:271|309:301|273:282,1,160,8|8,0:0|0:0,0:0:0:0:
208,325,79545,2,0,B|185:266|232:217|232:217|307:146|274:98,1,240,6|4,0:0|0:0,0:0:0:0:
219,46,81235,5,0,0:0:0:0:
151,102,81658,1,0,0:0:0:0:
115,182,82080,2,0,L|121:233,2,40
60,112,82925,1,0,0:0:0:0:
122,111,87996,6,0,L|126:36,2,60,0|0|0,0:0|0:0|0:0,0:0:0:0:
145,195,89052,2,0,L|142:240,1,40,0|0,0:0|0:0,0:0:0:0:
94,308,89686,6,0,P|182:311|223:255,1,160,2|0,0:0|0:0,0:0:0:0:
272,186,90954,1,8,0:0:0:0:
359,195,91376,2,0,B|347:246|310:264|310:264|334:295|385:297,1,160,2|0,0:0|0:0,0:0:0:0:
452,258,92644,1,8,0:0:0:0:
495,181,93066,6,0,L|486:100,1,80,0|8,0:0|0:0,0:0:0:0:
400,81,93911,2,0,L|408:162,1,80,0|10,0:0|0:0,0:0:0:0:
371,240,94756,1,0,0:0:0:0:
319,311,95179,2,0,P|258:339|168:332,1,160,8|12,0:0|0:0,0:0:0:0:
97,277,96447,6,0,P|61:258|23:248,2,80,4|0|4,0:0|0:0|0:0,0:0:0:0:
165,331,97714,1,0,0:0:0:0:
217,260,98137,2,0,P|223:213|220:166,2,80,0|0|4,0:0|0:0|0:0,0:0:0:0:
165,331,99405,1,0,0:0:0:0:
86,291,99827,6,0,P|46:223|59:145,1,160,0|4,0:0|0:0,0:0:0:0:
139,111,101095,1,0,0:0:0:0:
206,167,101517,2,0,P|283:179|351:140,1,160,0|2,0:0|0:0,0:0:0:0:
401,67,102785,1,0,0:0:0:0:
313,56,103207,6,0,L|219:51,2,80,0|0|4,0:0|0:0|0:0,0:0:0:0:
401,67,104474,1,0,0:0:0:0:
454,137,104897,2,0,P|469:175|477:214,2,80,0|8|4,0:0|0:0|0:0,0:0:0:0:
401,67,106165,1,0,0:0:0:0:
338,128,106588,6,0,P|328:176|331:222,1,80
351,291,107433,2,0,P|311:292|273:305,1,80,8|0,0:0|0:0,0:0:0:0:
191,337,108278,2,0,P|144:329|106:306,1,80,2|2,0:0|0:0,0:0:0:0:
70,240,109123,1,0,0:0:0:0:
77,152,109545,1,0,0:0:0:0:
138,89,109968,6,0,P|176:77|216:76,1,80,12|8,0:0|0:0,0:0:0:0:
296,112,110813,2,0,P|335:120|375:120,1,80,8|8,0:0|0:0,0:0:0:0:
462,107,111658,2,0,P|474:71|474:16,2,80,8|8|8,0:0|0:0|0:0,0:0:0:0:
407,176,112926,1,4,0:0:0:0:
437,258,113348,6,0,P|444:297|446:337,2,80,8|8|8,0:0|0:0|0:0,0:0:0:0:
349,246,114616,1,8,0:0:0:0:
271,287,115038,2,0,L|185:282,1,80,8|8,0:0|0:0,0:0:0:0:
107,254,115883,2,0,P|88:207|89:167,1,80,8|12,0:0|0:0,0:0:0:0:
142,109,116728,6,0,L|152:24,2,80,8|8|8,0:0|0:0|0:0,0:0:0:0:
175,190,117996,1,8,0:0:0:0:
232,256,118419,2,0,L|241:335,2,80,8|8|8,0:0|0:0|0:0,0:0:0:0:
260,172,119686,1,8,0:0:0:0:
312,101,120109,6,0,P|353:89|405:94,1,80,8|8,0:0|0:0,0:0:0:0:
475,68,120954,2,0,P|474:108|460:146,1,80,8|8,0:0|0:0,0:0:0:0:
410,217,121799,2,0,B|354:233|332:221|332:221|295:202|254:211|254:211|215:221|171:191,1,240,6|4,2:0|0:0,0:0:0:0:
112,137,123489,6,0,P|86:106|77:68,1,80,4|8,0:0|0:0,0:0:0:0:
165,70,124334,2,0,L|252:74,1,80,0|8,0:0|0:0,0:0:0:0:
322,115,125179,1,0,0:0:0:0:
320,203,125602,2,0,P|391:167|405:83,1,160,8|8,0:0|0:0,0:0:0:0:
352,23,126869,6,0,P|312:20|273:28,1,80,6|8,0:0|0:0,0:0:0:0:
202,81,127714,2,0,P|164:90|124:87,1,80,0|8,0:0|0:0,0:0:0:0:
45,128,128559,2,0,P|38:87|47:34,2,80,4|8|2,0:0|0:0|0:0,0:0:0:0:
105,191,129827,1,10,0:0:0:0:
174,245,130250,6,0,P|225:254|270:243,1,80,4|8,0:0|0:0,0:0:0:0:
334,216,131095,2,0,P|373:212|412:221,1,80,2|8,0:0|0:0,0:0:0:0:
471,287,131940,2,0,L|476:366,2,80,0|8|2,0:0|0:0|0:0,0:0:0:0:
496,202,133207,1,8,0:0:0:0:
453,124,133630,5,4,0:0:0:0:
387,65,134052,2,0,B|322:54|322:54|210:64,1,160,8|8,0:0|0:0,0:0:0:0:
140,59,135320,2,0,B|141:98|166:130|166:130|168:174|168:174|197:227|166:299,1,240,6|4,0:0|0:0,0:0:0:0:
99,341,137010,6,0,P|128:366|167:375,1,80,4|8,0:0|0:0,0:0:0:0:
246,336,137855,2,0,P|285:328|324:333,1,80,0|8,0:0|0:0,0:0:0:0:
409,356,138700,1,0,0:0:0:0:
473,295,139123,2,0,B|431:262|387:272|387:272|370:253|322:247,1,160,8|8,0:0|0:0,0:0:0:0:
241,275,140390,6,0,P|202:284|162:283,1,80,4|8,0:0|0:0,0:0:0:0:
92,229,141235,2,0,P|82:190|83:150,1,80,0|8,0:0|0:0,0:0:0:0:
139,82,142080,2,0,P|143:42|136:3,2,80,4|8|2,0:0|0:0|0:0,0:0:0:0:
172,163,143348,1,10,0:0:0:0:
233,226,143771,6,0,P|284:235|329:224,1,80,4|8,0:0|0:0,0:0:0:0:
370,165,144616,2,0,P|393:196|401:235,1,80,0|8,0:0|0:0,0:0:0:0:
388,322,145461,2,0,L|477:314,2,80,0|8|0,0:0|0:0|0:0,0:0:0:0:
305,291,146728,1,8,0:0:0:0:
221,317,147151,5,4,0:0:0:0:
145,361,147573,2,0,B|125:319|143:274|143:274|68:258,1,160,8|8,0:0|0:0,0:0:0:0:
83,171,148841,2,0,B|174:190|174:190|244:131|314:184,1,240,6|4,0:0|0:0,0:0:0:0:
249,245,150531,5,0,0:0:0:0:
256,192,162362,12,0,164052,0:0:0:0:
130,115,165320,5,8,0:0:0:0:
134,202,165742,6,0,B|197:193|216:130|216:130|259:131|259:131|285:108|285:108|347:113,1,240,2|8,0:0|0:0,0:0:0:0:
412,77,167432,2,0,B|426:116|409:161|409:161|430:209|430:209|412:250|425:291|425:291|421:320,1,240,4|8,0:0|0:0,0:0:0:0:
341,343,169123,5,4,0:0:0:0:
255,362,169545,2,0,P|223:366|158:361,2,80,0|0|8,0:0|0:0|0:0,0:0:0:0:
279,277,170813,2,0,B|278:232|267:197|267:197|302:195|331:187|331:187|338:155|336:122|336:122|323:114|310:110,1,240,0|8,0:0|0:0,0:0:0:0:
235,63,172503,6,0,B|221:100|226:124|226:124|182:144|126:121|126:121|104:176|116:202,1,240,12|8,0:0|0:0,0:0:0:0:
76,273,174193,2,0,B|115:287|160:270|160:270|191:302|191:302|212:239|280:256,1,240,4|8,0:0|0:0,0:0:0:0:
346,308,175884,5,4,0:0:0:0:
426,342,176306,2,0,P|465:344|505:339,2,80,8|0|8,0:0|0:0|0:0,0:0:0:0:
427,353,179263,6,0,L|334:350,1,80,4|8,0:0|0:0,0:0:0:0:
258,333,180108,2,0,P|247:295|251:253,1,80,0|8,0:0|0:0,0:0:0:0:
317,197,180953,1,0,0:0:0:0:
405,199,181376,2,0,P|369:128|281:116,1,160,8|8,0:0|0:0,0:0:0:0:
219,155,182643,6,0,P|170:164|124:156,1,80,6|8,0:0|0:0,0:0:0:0:
95,84,183488,2,0,P|133:75|173:78,1,80,0|8,0:0|0:0,0:0:0:0:
261,78,184333,2,0,P|268:37|259:-16,2,80,4|8|2,0:0|0:0|0:0,0:0:0:0:
227,159,185601,1,10,0:0:0:0:
191,239,186024,6,0,P|182:290|193:335,1,80,4|8,0:0|0:0,0:0:0:0:
258,367,186869,2,0,P|296:376|336:373,1,80,2|8,0:0|0:0,0:0:0:0:
417,338,187714,2,0,L|496:343,2,80,0|8|2,0:0|0:0|0:0,0:0:0:0:
346,285,188981,1,8,0:0:0:0:
258,291,189404,5,4,0:0:0:0:
176,324,189826,2,0,B|163:271|190:235|190:235|169:168,1,160,8|8,0:0|0:0,0:0:0:0:
133,91,191094,2,0,B|184:74|223:99|223:99|265:91|265:91|276:125|311:126|345:102|325:70,1,240,6|4,0:0|0:0,0:0:0:0:
413,55,192784,6,0,L|407:137,1,80,4|8,0:0|0:0,0:0:0:0:
474,191,193630,2,0,L|468:273,1,80,0|8,0:0|0:0,0:0:0:0:
385,297,194474,1,0,0:0:0:0:
314,364,194897,2,0,P|293:290|334:213,1,160,8|8,0:0|0:0,0:0:0:0:
395,162,196164,6,0,P|402:122|398:83,1,80,4|8,0:0|0:0,0:0:0:0:
322,38,197009,2,0,L|242:43,1,80,0|8,0:0|0:0,0:0:0:0:
164,84,197854,2,0,P|157:43|166:-10,2,80,4|8|2,0:0|0:0|0:0,0:0:0:0:
222,150,199122,1,10,0:0:0:0:
278,217,199545,6,0,P|282:256|273:295,1,80,4|8,0:0|0:0,0:0:0:0:
195,336,200390,2,0,P|156:327|123:303,1,80,0|8,0:0|0:0,0:0:0:0:
115,216,201235,2,0,L|26:224,2,80,0|8|0,0:0|0:0|0:0,0:0:0:0:
197,246,202502,1,8,0:0:0:0:
123,303,202925,5,4,0:0:0:0:
206,340,203347,2,0,B|266:326|266:326|306:334|306:334|375:319,1,160,8|8,0:0|0:0,0:0:0:0:
442,358,204615,2,0,B|465:299|418:250|418:250|374:200|406:120,1,240,6|8,0:0|0:0,0:0:0:0:
448,60,206306,5,0,0:0:0:0:
