osu file format v14

[General]
AudioFilename: audio.mp3
AudioLeadIn: 0
PreviewTime: 66512
Countdown: 0
SampleSet: Soft
StackLeniency: 0.4
Mode: 0
LetterboxInBreaks: 0
EpilepsyWarning: 1
WidescreenStoryboard: 1

[Editor]
Bookmarks: 400,17095,33791,50486,67182,83878,100573,117269,133965,142313,154834,171530,188226
DistanceSpacing: 0.4
BeatDivisor: 6
GridSize: 4
TimelineZoom: 1.4

[Metadata]
Title:LOVE FOOLISH
TitleUnicode:LOVE FOOLISH
Artist:TWICE
ArtistUnicode:트와이스
Creator:Skymin
Version:SANI'S INSANE
Source:
Tags:korean pop kpop k-pop 8th mini album feel special jyp entertainment sana jihyo dahyun nayeon jeongyeon chaeyoung momo mina tzuyu 나연 정연 모모 사나 지효 미나 다현 채영 쯔위 hannody Sani_
BeatmapID:2766225
BeatmapSetID:1280040

[Difficulty]
HPDrainRate:6
CircleSize:4.6
OverallDifficulty:8
ApproachRate:9
SliderMultiplier:2.3
SliderTickRate:1

[Events]
//Background and Video events
0,0,"briB.xjM1X6OQ_1583142246MCLX9SHUN8AREFP2T7G65DYZ3JQ4KW.jpg",0,0
//Break Periods
2,8947,12321
2,134165,141713
//Storyboard Layer 0 (Background)
//Storyboard Layer 1 (Fail)
//Storyboard Layer 2 (Pass)
//Storyboard Layer 3 (Foreground)
//Storyboard Layer 4 (Overlay)
//Storyboard Sound Samples

[TimingPoints]
400,521.739130434782,4,2,1,50,1,0
400,-125,4,2,1,50,0,0
660,-125,4,2,1,15,0,0
921,-333.333333333333,4,2,1,50,0,0
1443,-142.857142857143,4,2,1,50,0,0
1639,-333.333333333333,4,2,1,15,0,0
1704,-333.333333333333,4,2,1,50,0,0
1769,-125,4,2,1,50,0,0
1834,-333.333333333334,4,2,1,50,0,0
2486,-125,4,2,1,50,0,0
2617,-125,4,2,1,15,0,0
2747,-125,4,2,1,50,0,0
3139,-125,4,2,1,15,0,0
3269,-125,4,2,1,50,0,0
5095,-333.333333333333,4,2,1,30,0,0
5617,-142.857142857143,4,2,1,50,0,0
5813,-142.857142857143,4,2,1,15,0,0
5878,-142.857142857143,4,2,1,50,0,0
6008,-333.333333333333,4,2,1,50,0,0
6660,-125,4,2,1,50,0,0
6791,-125,4,2,1,15,0,0
6921,-125,4,2,1,50,0,0
7313,-125,4,2,1,15,0,0
7443,-125,4,2,1,50,0,0
7704,-125,4,2,1,35,0,0
7834,-125,4,2,1,25,0,0
8226,-125,4,2,1,35,0,0
8356,-125,4,2,1,25,0,0
8747,-125,4,2,1,50,0,0
9986,-125,4,2,1,15,0,0
10052,-125,4,2,1,50,0,0
10965,-125,4,2,1,15,0,0
11095,-125,4,2,1,50,0,0
11486,-125,4,2,1,15,0,0
11617,-125,4,2,1,50,0,0
13378,-125,4,2,1,30,0,0
13443,-125,4,2,1,50,0,0
13573,-125,4,2,1,30,0,0
13704,-125,4,2,1,50,0,0
13834,-125,4,2,1,30,0,0
13965,-125,4,2,1,40,0,0
14421,-125,4,2,1,20,0,0
14486,-125,4,2,1,40,0,0
14617,-125,4,2,1,20,0,0
14747,-125,4,2,1,40,0,0
14878,-125,4,2,1,20,0,0
15008,-125,4,2,1,30,0,0
15465,-125,4,2,1,10,0,0
15530,-125,4,2,1,30,0,0
15660,-125,4,2,1,10,0,0
15791,-125,4,2,1,30,0,0
16052,-125,4,2,0,40,0,0
17095,-100,4,2,1,60,0,0
18008,-100,4,2,1,45,0,0
18139,-100,4,2,1,60,0,0
18399,-100,4,2,1,45,0,0
18660,-100,4,2,1,60,0,0
18791,-100,4,2,1,45,0,0
18921,-100,4,2,1,60,0,0
19052,-100,4,2,1,45,0,0
19182,-100,4,2,1,60,0,0
21139,-100,4,2,1,70,0,0
21530,-333.333333333333,4,2,1,70,0,0
22052,-111.111111111111,4,2,1,70,0,0
22182,-111.111111111111,4,2,1,45,0,0
22313,-111.111111111111,4,2,1,60,0,0
22573,-100,4,2,1,60,0,0
23617,-333.333333333333,4,2,1,60,0,0
24399,-133.333333333333,4,2,1,70,0,0
24530,-133.333333333333,4,2,1,30,0,0
24660,-133.333333333333,4,2,1,70,0,0
24921,-100,4,2,1,70,0,0
25443,-100,4,2,1,70,0,0
29878,-333.333333333333,4,2,1,70,0,0
30660,-133.333333333333,4,2,1,70,0,0
30921,-100,4,2,1,70,0,0
31965,-333.333333333333,4,2,1,70,0,0
32486,-333.333333333333,4,2,1,50,0,0
32878,-100,4,2,1,50,0,0
33008,-100,4,2,1,80,0,0
33269,-66.6666666666667,4,2,1,80,0,0
33791,-100,4,2,1,70,0,0
40052,-200,4,2,1,70,0,0
42139,-100,4,2,1,70,0,0
46313,-66.6666666666667,4,2,1,100,0,0
49443,-133.333333333333,4,2,1,100,0,0
49965,-45.4545454545455,4,2,1,50,0,0
50486,-66.6666666666667,4,2,1,100,0,1
51008,-285.714285714284,4,2,1,70,0,0
51530,-83.3333333333333,4,2,1,70,0,0
51921,-166.666666666667,4,2,1,70,0,0
52573,-83.3333333333333,4,2,1,70,0,0
54660,-66.6666666666667,4,2,1,100,0,1
55182,-285.714285714284,4,2,1,70,0,0
55704,-83.3333333333333,4,2,1,70,0,0
56095,-166.666666666667,4,2,1,70,0,0
56747,-83.3333333333333,4,2,1,70,0,0
58834,-66.6666666666667,4,2,1,100,0,1
59356,-285.714285714284,4,2,1,70,0,0
59878,-83.3333333333333,4,2,1,70,0,0
60269,-166.666666666667,4,2,1,70,0,0
60921,-83.3333333333333,4,2,1,70,0,0
63008,-66.6666666666667,4,2,1,100,0,1
63530,-285.714285714284,4,2,1,70,0,0
64052,-83.3333333333333,4,2,1,70,0,0
64443,-166.666666666667,4,2,1,70,0,0
65095,-83.3333333333333,4,2,1,70,0,0
66139,-52.6315789473684,4,2,1,70,0,0
67182,-66.6666666666667,4,2,1,100,0,1
67704,-83.3333333333333,4,2,1,100,0,1
68226,-83.3333333333333,4,2,1,100,0,1
71356,-66.6666666666667,4,2,1,100,0,1
71878,-83.3333333333333,4,2,1,100,0,1
74486,-66.6666666666667,4,2,1,100,0,0
75008,-45.4545454545455,4,2,1,100,0,0
75530,-83.3333333333333,4,2,1,100,0,1
79704,-66.6666666666667,4,2,1,100,0,1
80226,-83.3333333333333,4,2,1,100,0,1
82834,-133.333333333333,4,2,1,100,0,1
83878,-94.3396226415094,4,2,1,50,0,0
85313,-94.3396226415094,4,2,1,80,0,0
85443,-94.3396226415094,4,2,1,50,0,0
85965,-217.391304347826,4,2,1,50,0,0
86226,-217.391304347826,4,2,1,80,0,0
86356,-217.391304347826,4,2,1,50,0,0
86486,-217.391304347826,4,2,1,80,0,0
86878,-217.391304347826,4,2,1,50,0,0
87008,-131.578947368421,4,2,1,70,0,0
88052,-94.3396226415094,4,2,1,50,0,0
92226,-100,4,2,1,70,0,0
93791,-200,4,2,1,70,0,0
94313,-100,4,2,1,70,0,0
95878,-200,4,2,1,70,0,0
96399,-100,4,2,1,70,0,0
100508,-100,4,2,1,30,0,0
100573,-100,4,2,1,70,0,0
106834,-200,4,2,1,70,0,0
108921,-100,4,2,1,70,0,0
113095,-66.6666666666667,4,2,1,70,0,0
116226,-133.333333333333,4,2,1,70,0,0
116747,-100,4,2,1,70,0,0
117269,-66.6666666666667,4,2,1,90,0,1
117791,-83.3333333333333,4,2,1,90,0,1
121443,-66.6666666666667,4,2,1,90,0,1
121965,-83.3333333333333,4,2,1,90,0,1
124573,-83.3333333333333,4,2,1,90,0,0
125617,-83.3333333333333,4,2,1,90,0,1
129791,-66.6666666666667,4,2,1,90,0,1
130313,-83.3333333333333,4,2,1,90,0,1
132921,-66.6666666666667,4,2,1,90,0,1
133965,-133.333333333333,4,2,3,60,0,0
142313,-133.333333333333,4,2,1,60,0,0
154052,-62.5,4,2,1,60,0,0
154834,-66.6666666666667,4,2,1,90,0,1
155356,-83.3333333333333,4,2,1,90,0,1
159008,-66.6666666666667,4,2,1,90,0,1
159530,-83.3333333333333,4,2,1,90,0,1
162139,-83.3333333333333,4,2,1,90,0,0
163182,-83.3333333333333,4,2,1,90,0,1
167356,-66.6666666666667,4,2,1,90,0,1
167878,-83.3333333333333,4,2,1,90,0,1
170486,-166.666666666667,4,2,1,90,0,1
171008,-100,4,2,1,90,0,0
171530,-66.6666666666667,4,2,1,100,0,1
172052,-285.714285714284,4,2,1,70,0,0
172573,-83.3333333333333,4,2,1,70,0,0
172965,-166.666666666667,4,2,1,70,0,0
173617,-83.3333333333333,4,2,1,70,0,0
175704,-66.6666666666667,4,2,1,100,0,1
176226,-285.714285714284,4,2,1,70,0,0
176747,-83.3333333333333,4,2,1,70,0,0
177139,-166.666666666667,4,2,1,70,0,0
177791,-83.3333333333333,4,2,1,70,0,0
179356,-83.3333333333333,4,2,1,50,0,0
179878,-66.6666666666667,4,2,1,100,0,1
180399,-285.714285714284,4,2,1,70,0,0
180921,-83.3333333333333,4,2,1,70,0,0
181313,-166.666666666667,4,2,1,70,0,0
181965,-83.3333333333333,4,2,1,70,0,0
184052,-66.6666666666667,4,2,1,100,0,1
184573,-285.714285714284,4,2,1,70,0,0
185095,-83.3333333333333,4,2,1,70,0,0
185486,-166.666666666667,4,2,1,70,0,0
186139,-83.3333333333333,4,2,1,70,0,0
187182,-166.666666666667,4,2,1,70,0,0
187704,-133.333333333333,4,2,1,70,0,0
187965,-66.6666666666667,4,2,1,70,0,1
188095,-66.6666666666667,4,2,1,5,0,1
188226,-100,4,2,1,5,0,0

[Colours]
Combo1 : 255,168,96
Combo2 : 213,157,113
Combo3 : 255,251,98
Combo4 : 255,117,117

[HitObjects]
360,260,400,6,0,B|384:224|384:224|372:128,1,138,0|0,3:2|0:0,0:2:0:0:
400,52,921,6,0,P|372:44|344:52,1,51.7499984207154,2|0,0:2|0:0,0:0:0:0:
296,112,1443,2,0,L|208:116,1,80.499997543335,0|0,3:2|0:2,0:2:0:0:
169,187,1834,6,0,B|193:199|193:199|241:195,1,68.9999978942872,2|0,0:2|0:0,0:0:0:0:
324,216,2486,6,0,L|304:312,1,92,0|2,3:2|0:2,0:2:0:0:
236,196,3008,2,0,L|216:292,1,92,0|2,3:2|0:2,0:2:0:0:
120,188,3530,5,0,3:2:0:0:
76,173,3660,1,2,0:2:0:0:
76,127,3791,1,2,0:2:0:0:
120,113,3921,1,2,0:2:0:0:
120,188,4052,5,2,0:2:0:0:
76,173,4182,1,2,0:2:0:0:
76,127,4313,1,0,0:2:0:0:
120,113,4443,1,2,0:2:0:0:
152,152,4573,6,0,B|176:196|176:196|152:288,1,138,0|0,3:2|0:0,0:2:0:0:
108,356,5095,6,0,P|128:368|160:368,1,51.7499984207154,2|0,0:2|0:0,0:0:0:0:
240,304,5617,2,0,L|320:300,1,80.499997543335,0|0,3:2|0:2,0:2:0:0:
396,256,6008,6,0,B|408:288|408:288|400:332,1,68.9999978942872,2|0,0:2|0:0,0:0:0:0:
320,212,6660,6,0,L|336:112,1,92,0|2,3:2|0:2,0:2:0:0:
236,212,7182,2,0,L|252:112,1,92,0|2,3:2|0:2,0:2:0:0:
132,48,7704,5,2,0:2:0:0:
175,62,7834,1,0,0:2:0:0:
175,108,7965,1,0,0:2:0:0:
131,122,8095,1,0,0:2:0:0:
132,48,8226,5,2,0:2:0:0:
175,62,8356,1,0,0:2:0:0:
175,108,8487,1,0,0:2:0:0:
131,122,8617,1,0,0:2:0:0:
104,84,8747,5,6,3:2:0:0:
256,192,12921,12,10,16052,0:0:0:0:
276,212,17095,6,0,B|316:212|320:180|356:160|388:200|380:224|340:220,1,115,2|0,3:2|0:0,0:0:0:0:
264,112,17617,2,0,B|224:112|220:144|184:164|152:124|160:100|200:104,1,115,2|2,3:2|0:0,0:0:0:0:
276,212,18139,2,0,P|294:265|274:317,1,115,2|2,3:2|0:0,0:0:0:0:
196,260,18530,1,0,0:0:0:0:
196,260,18660,2,0,B|116:260|160:296|80:296,1,115,2|2,3:2|0:0,0:0:0:0:
16,148,19182,6,0,L|0:264,1,115,2|2,3:2|0:0,0:0:0:0:
106,181,19704,2,0,L|90:297,1,115,0|0,3:0|0:0,0:0:0:0:
88,92,20226,2,0,B|140:80|140:80|204:92,1,115,0|0,3:2|0:0,0:0:0:0:
280,48,20617,1,0,0:0:0:0:
280,48,20747,6,0,B|332:60|332:60|396:48,1,115,2|0,3:2|0:0,0:0:0:0:
460,132,21139,2,0,B|408:120|408:120|344:132,1,115,2|0,0:2|0:0,0:0:0:0:
312,216,21530,6,0,L|320:280,1,51.7499984207154,2|0,0:2|0:0,0:0:0:0:
325,318,22052,2,0,L|318:266,1,51.7499984207154,2|0,0:2|0:0,0:0:0:0:
260,144,22313,6,0,B|212:132|212:132|160:144,1,103.499996841431,0|2,3:0|0:0,0:0:0:0:
64,120,22704,1,0,0:0:0:0:
64,120,22834,6,0,B|32:140|32:164|40:188|32:204|-4:184|16:160,1,115,2|0,3:2|0:0,0:0:0:0:
110,185,23226,2,0,B|142:165|142:141|134:117|142:101|178:121|158:145,1,115,2|0,0:0|0:0,0:0:0:0:
64,120,23617,6,0,L|51:30,1,86.249997367859,2|0,0:0|0:0,0:0:0:0:
60,36,24399,6,0,L|73:122,1,86.249997367859,0|2,3:2|0:0,0:0:0:0:
88,276,24791,1,0,0:0:0:0:
88,276,24921,6,0,P|104:256|140:244,1,57.5,2|0,0:3|0:0,0:0:0:0:
216,284,25182,2,0,P|244:304|256:356,1,57.5,2|0,0:0|0:0,0:0:0:0:
348,372,25443,6,0,L|360:312,1,57.5,0|0,3:2|0:0,0:0:0:0:
444,264,25704,2,0,L|456:324,1,57.5,2|0,0:0|0:0,0:0:0:0:
316,240,25965,2,0,L|328:180,1,57.5,10|0,0:0|0:0,0:0:0:0:
412,132,26226,2,0,L|424:192,1,57.5,2|0,0:2|0:0,0:0:0:0:
300,112,26486,6,0,L|176:104,1,115,0|2,3:2|0:2,0:2:0:0:
124,40,26878,1,0,0:2:0:0:
124,40,27008,2,0,B|96:64|96:80|120:124|68:128|60:96|76:84,1,115,10|2,3:2|0:2,0:2:0:0:
48,224,27530,6,0,B|112:224|88:256|164:256,1,115,0|0,3:2|0:0,0:0:0:0:
48,232,28052,2,0,B|112:232|88:264|164:264,1,115,8|0,0:0|0:0,0:0:0:0:
320,348,28573,2,0,B|352:300|352:300|328:236,1,115,2|0,3:2|0:0,0:0:0:0:
248,176,28965,1,0,0:0:0:0:
248,176,29095,6,0,B|216:224|216:224|240:288,1,115,10|0,0:0|0:0,0:0:0:0:
331,246,29486,2,0,B|363:198|363:198|339:134,1,115,2|0,0:0|0:0,0:0:0:0:
268,80,29878,6,0,B|220:80|240:56|188:56,1,86.249997367859,2|0,0:2|0:0,0:0:0:0:
188,48,30660,2,0,B|240:48|220:72|268:72,1,86.249997367859,0|0,3:2|0:0,0:0:0:0:
84,16,31182,6,0,B|104:4|120:24|120:24|108:112,1,115,10|0,3:2|0:0,0:0:0:0:
214,137,31573,2,0,B|194:149|178:129|178:129|190:41,1,115
64,152,31965,6,0,P|80:164|108:168,1,34.4999989471436,2|8,0:0|3:2,0:0:0:0:
93,167,32747,6,0,L|105:195,1,17.2499994735718
168,248,33008,5,2,0:0:0:0:
184,224,33139,1,0,0:0:0:0:
248,156,33269,5,10,3:2:0:0:
268,184,33399,1,0,0:0:0:0:
344,256,33530,5,2,0:0:0:0:
364,228,33660,1,2,0:0:0:0:
464,184,33791,6,2,B|456:144|412:136|376:160|384:208|384:208|404:308,1,230,6|8,3:2|0:0,0:0:0:0:
340,376,34443,1,0,0:0:0:0:
340,376,34573,2,0,L|276:368,1,57.5,2|0,0:0|0:0,0:0:0:0:
216,317,34834,6,0,B|180:309|176:273|192:237|244:241|244:241|352:257,1,230,0|8,3:2|0:0,0:0:0:0:
144,360,35617,6,0,P|104:368|76:352,1,57.5,2|2,0:0|0:0,0:0:0:0:
24,296,35878,1,2,3:2:0:0:
24,296,36008,2,8,L|40:228,1,57.5,2|0,0:0|0:0,0:0:0:0:
64,144,36269,2,8,L|84:276,2,115,2|2|2,0:0|0:0|0:0,0:0:0:0:
192,28,37052,6,0,B|264:28|224:60|308:60,1,115,2|0,0:0|0:0,0:0:0:0:
376,4,37443,2,0,P|404:24|416:72,1,57.5,8|0,0:0|0:0,0:0:0:0:
496,96,37704,2,0,P|480:136|456:152,1,57.5,2|0,0:0|0:0,0:0:0:0:
396,192,37965,6,2,B|420:156|468:168|488:208|460:248|460:248|400:316,1,230,2|8,3:2|0:0,0:0:0:0:
312,292,38617,1,0,0:0:0:0:
312,292,38747,2,0,B|284:280|284:280|256:288,1,57.5
172,320,39008,6,2,B|114:254|114:254|86:214|106:174|154:162|178:198,1,230,2|8,3:2|0:0,0:0:0:0:
276,64,39791,1,2,0:0:0:0:
396,192,40052,5,0,3:2:0:0:
396,192,40182,2,0,L|428:120,1,57.5,2|0,0:0|0:0,0:0:0:0:
308,192,40573,5,8,3:2:0:0:
308,192,40704,2,0,L|284:136,1,57.5,2|0,0:0|0:0,0:0:0:0:
352,264,41095,5,0,3:2:0:0:
352,264,41226,2,0,L|352:344,1,57.5,2|0,0:0|0:0,0:0:0:0:
308,192,41617,5,10,0:0:0:0:
440,288,41878,5,2,0:0:0:0:
264,356,42139,6,2,B|240:328|200:336|224:356|168:376|144:348,1,115,6|0,3:2|0:0,0:0:0:0:
64,288,42530,1,0,0:0:0:0:
64,288,42660,2,0,B|88:316|128:308|104:288|160:268|184:296,1,115,8|2,0:0|0:0,0:0:0:0:
96,212,43052,1,0,0:0:0:0:
96,212,43182,5,0,3:0:0:0:
88,180,43313,1,0,0:0:0:0:
80,152,43443,1,0,0:0:0:0:
72,124,43573,1,0,0:0:0:0:
60,40,43704,6,0,B|136:40|104:80|184:80,1,115,8|2,0:0|0:0,0:0:0:0:
316,24,44226,5,2,3:2:0:0:
316,24,44356,2,8,L|376:32,1,57.5,2|0,0:0|0:0,0:0:0:0:
464,64,44617,2,8,L|340:84,2,115,2|2|2,0:0|0:0|0:0,0:0:0:0:
508,220,45399,6,0,B|456:264|504:280|444:316,1,115,2|0,0:0|0:0,0:0:0:0:
376,368,45791,2,0,P|348:352|328:320,1,57.5,10|0,0:0|0:0,0:0:0:0:
244,316,46052,2,0,P|244:292|264:252,1,57.5,2|0,3:2|3:0,3:0:0:0:
320,196,46313,6,0,B|236:232|236:232|204:244|164:216|176:188,1,172.5,0|2,3:2|0:0,0:0:0:0:
173,198,46704,2,0,B|257:162|257:162|289:150|329:178|317:206,1,172.5,0|2,3:2|0:0,0:0:0:0:
148,124,47095,6,0,L|240:88,1,86.2500032901765,10|0,0:0|0:0,0:0:0:0:
376,64,47356,6,0,B|356:112|356:112|380:128|408:168|396:228,1,172.500006580353,2|0,3:2|0:0,0:0:0:0:
340,350,47747,2,0,B|360:302|360:302|336:286|308:246|320:186,1,172.500006580353,2|0,3:2|0:0,0:0:0:0:
476,217,48139,6,0,P|440:233|392:213,1,86.2500032901765,10|0,0:0|0:0,0:0:0:0:
228,92,48399,5,2,3:2:0:0:
200,84,48530,1,0,0:0:0:0:
144,24,48660,5,0,0:2:0:0:
116,32,48791,1,2,3:2:0:0:
32,44,48921,5,0,0:0:0:0:
12,68,49052,1,0,0:0:0:0:
32,148,49182,5,8,0:0:0:0:
32,148,49443,6,0,P|60:188|64:132,1,129.375004935265,4|2,0:0|0:0,0:0:0:0:
40,224,49965,1,10,0:0:0:0:
200,84,50226,1,4,0:3:0:0:
116,328,50486,6,0,B|164:356|228:328|192:308|256:296|292:328|292:328|280:376|260:384|232:376,1,258.75000987053,6|0,3:2|0:0,0:0:0:0:
156,256,51008,2,0,B|148:228|148:228|160:188,1,60.3749981575013,10|0,0:1|0:0,0:0:0:0:
200,84,51530,6,0,B|232:60|252:60|288:80|264:92|304:100|320:52|308:32|272:28|256:60,1,137.999995788574,2|2,3:1|0:0,0:0:0:0:
244,156,51921,2,0,B|212:180|192:180|156:160|180:148|140:140|124:188|136:208|172:212|188:180,1,137.999995788574,2|0,0:0|0:0,0:0:0:0:
200,84,52573,6,0,P|160:76|128:84,1,68.9999978942872,2|0,3:1|0:0,0:0:0:0:
324,152,52834,2,0,P|364:160|396:152,1,68.9999978942872,2|0,0:0|0:0,0:0:0:0:
200,92,53095,6,0,P|160:84|128:92,1,68.9999978942872,10|0,0:1|0:0,0:0:0:0:
324,160,53356,2,0,P|364:168|396:160,1,68.9999978942872,2|0,0:2|0:0,0:0:0:0:
483,87,53617,5,2,3:1:0:0:
479,115,53747,1,2,0:0:0:0:
396,188,53878,5,2,0:0:0:0:
391,162,54008,1,2,0:0:0:0:
477,231,54139,5,14,0:0:0:0:
469,259,54269,1,2,0:0:0:0:
404,320,54400,5,2,0:0:0:0:
396,296,54530,1,2,0:0:0:0:
480,352,54660,6,0,B|404:300|328:344|328:344|288:400|200:376,1,258.75000987053,4|0,3:2|0:0,0:0:0:0:
252,244,55182,2,0,L|256:308,1,60.3749981575013,10|0,0:1|0:0,0:0:0:0:
268,148,55704,6,0,B|224:148|196:176|196:176|176:152|144:148,1,137.999995788574,2|2,3:1|0:0,0:0:0:0:
12,224,56095,2,0,B|56:224|84:196|84:196|104:220|136:224,1,137.999995788574,2|0,0:0|0:0,0:0:0:0:
24,140,56747,6,0,B|44:108|40:72|40:72|64:40|104:44,1,137.999995788574,2|0,3:1|0:0,0:0:0:0:
104,40,57139,2,0,B|176:32|144:92|228:88,1,137.999995788574,2|0,0:1|0:0,0:0:0:0:
232,84,57530,2,2,L|308:72,1,68.9999978942872,2|0,2:1|0:0,2:0:0:0:
460,64,57791,5,10,2:0:0:0:
452,72,57921,1,2,0:0:0:0:
444,80,58052,2,0,L|424:8,1,68.9999978942872,2|2,0:0|0:0,0:0:0:0:
312,168,58313,5,8,0:0:0:0:
340,180,58443,1,2,0:0:0:0:
372,192,58573,2,0,L|388:120,1,68.9999978942872,2|2,0:0|0:0,0:0:0:0:
432,348,58834,6,0,B|472:340|480:292|452:252|388:268|388:268|288:292,1,258.75000987053,6|0,3:2|0:0,0:0:0:0:
208,336,59356,2,0,P|192:304|200:272,1,60.3749981575013,10|0,0:1|0:0,0:0:0:0:
280,380,59878,6,0,L|136:372,1,137.999995788574,2|0,3:1|0:0,0:0:0:0:
57,288,60269,2,0,L|201:280,1,137.999995788574,2|0,0:0|0:0,0:0:0:0:
120,176,60921,6,0,B|108:208|108:208|120:248,1,68.9999978942872,2|0,3:1|0:0,0:0:0:0:
224,156,61182,2,0,B|236:124|236:124|224:84,1,68.9999978942872
112,176,61443,6,0,B|100:208|100:208|112:248,1,68.9999978942872,10|0,0:1|0:0,0:0:0:0:
216,156,61704,2,0,B|228:124|228:124|216:84,1,68.9999978942872,2|0,0:2|0:0,0:0:0:0:
120,8,61965,5,2,3:1:0:0:
124,20,62226,2,0,L|108:56,2,34.4999989471436,2|0|0,0:3|0:0|0:0,0:0:0:0:
208,64,62486,5,14,0:0:0:0:
224,88,62616,1,2,0:0:0:0:
306,137,62747,5,2,0:0:0:0:
324,116,62877,1,2,0:0:0:0:
439,84,63008,6,0,B|415:44|375:48|339:68|351:132|351:132|375:248,1,258.75000987053,4|0,3:2|0:0,0:0:0:0:
408,316,63530,2,0,P|388:324|348:316,1,60.3749981575013,10|0,0:1|0:0,0:0:0:0:
180,204,64052,6,0,B|272:200|224:256|316:256,1,137.999995788574,2|0,3:1|0:0,0:0:0:0:
188,288,64443,2,0,B|96:292|144:236|52:236,1,137.999995788574,2|0,0:0|0:0,0:0:0:0:
52,320,65095,1,0,3:2:0:0:
173,135,65356,6,0,L|181:215,1,68.9999978942872,2|0,0:1|0:1,0:1:0:0:
108,72,65617,2,0,L|32:48,1,68.9999978942872,10|0,0:1|0:1,0:1:0:0:
224,60,65878,2,0,L|292:36,1,68.9999978942872,2|0,0:1|0:1,0:1:0:0:
440,0,66139,5,10,3:1:0:0:
464,36,66269,1,0,1:0:0:0:
468,80,66399,1,8,3:0:0:0:
456,124,66530,1,8,3:2:0:0:
376,184,66660,5,4,1:3:0:0:
364,228,66791,1,0,0:0:0:0:
368,272,66921,1,8,3:3:0:0:
392,308,67051,1,0,0:0:0:0:
472,364,67182,6,0,B|276:336|276:336|208:392,1,258.75000987053,6|0,1:1|0:3,0:0:0:0:
96,320,67704,6,0,B|160:340|160:340|216:292,1,137.999995788574,8|2,0:0|0:0,0:0:0:0:
136,240,68095,1,0,0:0:0:0:
136,240,68226,2,0,B|112:104|112:104|164:48,1,206.999993682861,2|0,1:0|0:0,0:0:0:0:
152,52,68747,2,2,B|105:102|105:102|129:238,1,206.999993682861,10|0,0:1|2:0,2:0:0:0:
232,332,69269,6,0,L|164:320,1,68.9999978942872,2|0,1:1|0:0,0:0:0:0:
61,226,69530,2,0,L|129:238,1,68.9999978942872,2|0,0:1|0:0,0:0:0:0:
232,332,69791,6,0,L|252:252,1,68.9999978942872,10|0,0:1|0:0,0:0:0:0:
145,171,70052,2,0,L|125:251,1,68.9999978942872,2|0,0:1|0:0,0:0:0:0:
252,88,70313,5,2,1:1:0:0:
248,19,70443,1,2,0:0:0:0:
317,15,70573,1,2,0:0:0:0:
320,84,70704,1,2,0:0:0:0:
248,68,70834,5,10,0:1:0:0:
263,14,70965,1,0,0:0:0:0:
316,30,71095,1,2,0:1:0:0:
301,83,71226,1,0,0:0:0:0:
168,64,71356,6,0,B|164:20|116:0|64:24|68:92|68:92|84:236,1,258.75000987053,6|0,1:1|0:3,0:0:0:0:
24,256,71878,6,0,B|104:240|72:300|156:284,1,137.999995788574,8|2,0:0|0:0,0:0:0:0:
236,216,72269,1,0,0:0:0:0:
236,216,72399,2,0,B|208:240|208:240|276:260|276:260|344:248|344:248|308:216,1,206.999993682861,2|0,1:0|0:0,0:0:0:0:
320,220,72921,2,2,B|342:240|342:240|274:252|274:252|206:232|206:232|234:208,1,206.999993682861,10|0,0:1|2:0,2:0:0:0:
335,154,73443,6,0,B|335:186|335:186|319:222,1,68.9999978942872,2|0,1:1|0:0,0:0:0:0:
234,208,73704,2,0,B|234:176|234:176|250:140,1,68.9999978942872,2|0,0:1|0:0,0:0:0:0:
416,48,73965,6,0,B|416:80|416:80|400:116,1,68.9999978942872,10|0,0:1|0:0,0:0:0:0:
208,80,74226,2,0,B|208:48|208:48|224:12,1,68.9999978942872,2|0,0:1|0:0,0:0:0:0:
308,80,74486,5,2,0:2:0:0:
300,64,74617,1,0,0:0:0:0:
316,57,74747,1,0,0:0:0:0:
323,72,74878,1,0,0:0:0:0:
264,88,75008,5,2,0:2:0:0:
294,18,75139,1,0,0:0:0:0:
364,49,75269,1,0,0:0:0:0:
333,118,75399,1,0,0:0:0:0:
168,144,75530,5,6,1:2:0:0:
155,152,75791,6,0,B|103:136|95:112|95:112|103:136|67:188,1,137.999995788574,2|8,0:2|0:2,0:2:0:0:
142,264,76313,1,2,0:0:0:0:
272,336,76573,6,0,P|256:312|208:296,1,68.9999978942872,2|0,1:2|0:2,0:2:0:0:
364,360,76834,2,0,P|392:376|436:376,1,68.9999978942872,2|0,0:2|0:2,0:0:0:0:
444,168,77095,6,0,L|412:328,1,137.999995788574,10|0,0:2|0:0,0:0:0:0:
352,232,77486,1,2,0:2:0:0:
336,140,77617,5,2,1:2:0:0:
348,136,77878,6,0,B|368:96|340:64|340:64|288:60|268:96,1,137.999995788574,2|10,0:2|0:2,0:2:0:0:
232,192,78399,1,2,0:2:0:0:
152,68,78660,5,2,1:2:0:0:
143,92,78791,1,0,0:2:0:0:
135,116,78921,1,2,0:3:0:0:
127,140,79052,1,0,0:2:0:0:
70,73,79182,5,10,0:2:0:0:
62,97,79313,1,0,0:2:0:0:
54,121,79443,1,2,0:2:0:0:
46,145,79574,1,0,0:2:0:0:
128,140,79704,6,0,B|80:20|80:20|40:168,1,258.75000987053,6|0,1:2|0:0,0:2:0:0:
99,231,80226,6,0,P|167:235|207:291,1,137.999995788574,8|2,0:2|0:2,0:0:0:0:
31,335,80617,1,0,0:2:0:0:
31,335,80747,2,0,B|7:187|7:187|47:143,1,206.999993682861,2|0,1:2|0:2,0:0:0:0:
52,148,81269,2,2,B|13:190|13:190|37:338,1,206.999993682861,10|0,0:2|0:2,0:2:0:0:
140,368,81791,6,0,L|128:288,1,68.9999978942872,2|0,1:2|0:2,0:2:0:0:
195,219,82052,2,0,L|207:299,1,68.9999978942872,2|0,0:2|0:0,0:2:0:0:
276,352,82313,2,0,B|308:336|352:348|332:360|372:376|408:360,1,137.999995788574,8|2,0:2|2:2,0:0:0:0:
484,304,82704,1,0,2:2:0:0:
484,304,82834,6,0,L|468:216,1,86.2500032901765,10|0,0:2|0:0,0:0:0:0:
380,292,83226,1,0,0:2:0:0:
380,292,83356,2,0,L|364:204,1,86.2500032901765,10|0,0:2|3:2,0:2:0:0:
364,207,83878,6,0,B|332:191|288:203|308:215|272:232|232:215,1,121.900000186005,0|0,3:1|0:0,0:0:0:0:
172,184,84269,1,0,0:0:0:0:
172,184,84399,1,0,0:0:0:0:
368,80,84660,6,0,B|336:96|292:84|312:72|276:55|236:72,1,121.900000186005,4|0,3:0|0:0,0:0:0:0:
176,103,85051,1,0,0:0:0:0:
176,103,85181,1,0,0:0:0:0:
16,176,85443,2,0,L|20:132,1,40.6333333953349,0|0,3:0|0:0,0:0:0:0:
96,160,85704,1,0,0:0:0:0:
112,296,85965,6,0,L|168:292,1,52.8999982241822,0|2,0:0|0:0,0:0:0:0:
380,296,86486,2,0,L|324:292,1,52.8999982241822,0|0,3:2|0:0,0:0:0:0:
196,204,87008,5,2,0:0:0:0:
224,180,87139,1,0,0:0:0:0:
264,180,87269,1,0,0:0:0:0:
296,208,87399,1,0,0:0:0:0:
208,289,87530,6,0,L|148:293,1,43.6999994665527,12|0,0:0|0:0,0:0:0:0:
283,289,87791,2,0,L|343:293,1,43.6999994665527,8|0,3:0|0:0,0:0:0:0:
436,212,88052,6,0,L|404:336,1,121.900000186005,0|0,3:1|0:0,0:0:0:0:
326,291,88443,1,0,0:0:0:0:
326,291,88573,1,0,0:0:0:0:
432,136,88834,6,0,L|400:12,1,121.900000186005,2|0,3:2|0:0,0:0:0:0:
322,57,89225,1,0,0:0:0:0:
322,57,89355,1,0,0:0:0:0:
209,22,89617,5,0,3:0:0:0:
185,14,89747,1,0,0:0:0:0:
161,17,89878,2,0,L|166:68,1,40.6333333953349
92,48,90139,6,0,B|68:60|60:84|64:112|88:128|88:128|164:176,1,182.850000279007
228,299,90660,6,0,B|252:287|260:263|256:235|232:219|232:219|156:171,1,182.850000279007,0|0,3:0|0:0,0:0:0:0:
64,216,91182,6,0,B|62:232|52:245|52:245|60:253|64:273,1,60.9500000930023,10|0,0:0|0:0,0:0:0:0:
144,320,91443,2,0,B|146:304|156:291|156:291|148:283|144:263,1,60.9500000930023,10|0,0:2|0:0,0:0:0:0:
108,140,91704,6,0,L|161:174,1,60.9500000930023,8|0,0:0|0:0,0:0:0:0:
235,259,91965,2,0,L|227:303,2,40.6333333953349,0|0|0,3:0|3:0|3:0,3:0:0:0:
308,216,92226,6,0,B|376:216|376:216|416:216|452:192|452:144,1,172.5,0|0,3:0|0:0,0:0:0:0:
372,88,92747,2,0,L|384:172,1,57.5,10|0,0:2|0:0,0:0:0:0:
308,216,93008,2,0,L|320:300,1,57.5,2|0,0:2|0:0,0:0:0:0:
256,352,93269,2,0,B|172:344|172:344|168:348|168:348|72:340,1,172.5,2|0,3:2|0:2,0:2:0:0:
24,276,93791,5,10,0:0:0:0:
24,276,93921,2,0,P|16:248|28:212,1,57.5,2|0,0:0|0:0,0:0:0:0:
100,172,94313,6,0,L|-24:160,1,115,0|2,3:0|0:0,0:0:0:0:
32,80,94704,1,0,0:0:0:0:
32,80,94834,2,0,L|156:92,1,115,10|2,0:0|0:0,0:0:0:0:
320,64,95356,2,0,B|320:24|304:16|292:16|292:16|240:16|240:16|228:16|212:24|212:64,1,172.5,2|0,3:2|0:0,0:0:0:0:
264,136,95878,5,10,0:0:0:0:
264,136,96008,2,0,B|272:148|268:168|264:164|260:180|268:200,1,57.5,2|0,0:0|0:0,0:0:0:0:
404,252,96399,6,0,B|432:248|432:248|476:280,1,57.5,0|0,3:0|0:0,0:0:0:0:
428,356,96660,1,2,0:0:0:0:
428,356,96791,2,0,B|400:360|400:360|356:328,1,57.5,2|8,0:0|0:0,0:0:0:0:
300,276,97052,2,0,P|276:264|248:276,1,57.5,2|0,0:0|0:0,0:0:0:0:
176,348,97313,6,0,P|227:327|248:268,1,115,2|2,0:0|0:0,0:0:0:0:
121,225,97704,2,0,L|159:267,1,57.5,2|0,0:0|0:0,0:0:0:0:
252,168,97965,2,0,L|213:210,2,57.5,10|2|2,0:0|0:0|0:0,0:0:0:0:
160,268,98486,6,0,L|88:188,1,57.5,0|0,3:0|0:0,0:0:0:0:
56,160,98747,1,2,0:0:0:0:
56,160,98878,2,0,B|48:132|48:132|60:100,1,57.5,2|8,0:0|0:0,0:0:0:0:
156,76,99139,2,0,B|164:104|164:104|152:136,1,57.5,2|0,0:0|0:0,0:0:0:0:
121,225,99399,6,0,P|81:253|16:244,1,115,2|2,0:0|0:0,0:0:0:0:
56,160,99791,2,0,B|48:132|48:132|60:100,1,57.5,0|0,3:0|0:0,0:0:0:0:
156,76,100052,2,0,B|164:104|164:104|152:136,2,57.5,10|2|2,0:0|0:0|0:0,0:0:0:0:
156,76,100573,6,0,B|124:56|132:16|168:-4|216:16|216:16|316:60,1,230,6|8,3:2|0:0,0:0:0:0:
360,128,101226,1,0,0:0:0:0:
360,128,101356,2,0,B|368:156|368:156|356:188,1,57.5,2|0,0:0|0:0,0:0:0:0:
332,272,101617,6,0,B|364:292|356:332|320:352|272:332|272:332|172:288,1,230,0|8,3:0|0:0,0:0:0:0:
32,180,102399,6,0,P|24:148|36:120,1,57.5,2|2,0:0|0:0,0:0:0:0:
88,52,102660,1,2,3:2:0:0:
88,52,102791,2,0,L|160:60,1,57.5,2|0,0:0|0:0,0:0:0:0:
216,116,103052,2,8,P|200:60|228:8,2,115,2|2|2,0:0|0:0|0:0,0:0:0:0:
392,84,103834,6,0,L|276:72,1,115,2|0,0:0|0:0,0:0:0:0:
223,172,104226,2,0,L|215:112,1,57.5,8|0,0:0|0:0,0:0:0:0:
304,212,104486,2,0,L|312:152,1,57.5,2|0,0:0|0:0,0:0:0:0:
232,248,104747,6,2,B|216:208|172:208|136:236|152:284|152:284|184:368,1,230,2|8,3:2|0:0,0:0:0:0:
272,336,105399,1,0,0:0:0:0:
272,336,105530,2,0,B|300:332|300:332|328:336,1,57.5
420,364,105791,6,2,B|451:282|451:282|467:234|431:206|387:206|371:246,1,230,2|8,3:2|0:0,0:0:0:0:
276,72,106573,1,2,0:0:0:0:
232,248,106834,5,0,3:2:0:0:
232,248,106965,2,0,P|256:240|280:216,1,57.5,2|0,0:0|0:0,0:0:0:0:
164,164,107356,5,8,3:2:0:0:
164,164,107486,2,0,P|188:176|220:172,1,57.5,2|0,0:0|0:0,0:0:0:0:
168,52,107878,5,0,3:2:0:0:
168,52,108008,2,0,P|176:76|208:100,1,57.5,2|0,0:0|0:0,0:0:0:0:
240,16,108399,5,10,0:0:0:0:
96,88,108660,5,2,0:0:0:0:
240,16,108921,6,0,B|296:8|296:8|360:24,1,115,4|0,3:2|0:0,0:0:0:0:
452,112,109313,1,0,0:0:0:0:
452,112,109443,2,0,B|396:120|396:120|332:104,1,115,8|2,0:0|0:0,0:0:0:0:
416,196,109834,1,0,0:0:0:0:
416,196,109965,5,0,3:0:0:0:
465,211,110095,1,0,0:0:0:0:
465,263,110226,1,0,0:0:0:0:
415,279,110356,1,0,0:0:0:0:
384,236,110486,6,0,B|308:236|340:276|260:276,1,115,8|2,0:0|0:0,0:0:0:0:
108,240,111008,5,2,3:2:0:0:
108,240,111139,2,8,L|180:228,1,57.5,2|0,0:0|0:0,0:0:0:0:
224,164,111399,2,8,L|100:156,2,115,2|2|2,0:0|0:0|0:0,0:0:0:0:
385,237,112182,6,0,L|377:121,1,115,2|0,0:0|0:0,0:0:0:0:
380,24,112573,2,0,P|352:24|328:40,1,57.5,10|0,0:0|0:0,0:0:0:0:
252,64,112834,2,0,P|260:92|284:112,1,57.5,2|0,3:2|3:0,3:0:0:0:
385,237,113095,6,0,B|417:221|413:189|392:168|337:185|337:185|265:209,1,172.500006580353,0|2,3:2|0:0,0:0:0:0:
289,200,113486,2,0,B|257:216|261:248|282:269|337:252|337:252|409:228,1,172.500006580353,0|2,3:2|0:0,0:0:0:0:
232,148,113878,6,0,P|204:176|192:224,1,86.2500032901765,10|0,0:0|0:0,0:0:0:0:
340,360,114139,6,0,B|324:288|324:288|304:268|304:268|288:196,1,172.500006580353,2|0,3:2|0:0,0:0:0:0:
191,220,114530,2,0,B|206:288|206:288|226:308|226:308|242:380,1,172.500006580353,2|0,3:2|0:0,0:0:0:0:
288,199,114921,6,0,P|272:160|232:148,1,86.2500032901765,10|0,0:0|0:0,0:0:0:0:
80,240,115182,5,2,3:2:0:0:
57,216,115313,1,0,0:0:0:0:
61,132,115443,5,0,0:2:0:0:
84,108,115574,1,2,3:2:0:0:
172,112,115704,5,0,0:0:0:0:
195,136,115835,1,0,0:0:0:0:
191,220,115965,5,8,0:0:0:0:
168,244,116096,1,0,0:0:0:0:
124,180,116226,5,4,0:0:0:0:
352,144,116617,5,2,0:0:0:0:
352,144,116747,2,0,L|356:216,1,57.5,10|0,0:0|0:0,0:0:0:0:
252,296,117008,2,0,L|262:222,1,57.5,4|0,0:3|0:0,0:0:0:0:
432,224,117269,6,0,B|354:198|354:198|258:242|258:242|184:220,1,258.75000987053,6|0,1:1|0:3,0:0:0:0:
248,32,117791,6,0,B|276:68|276:68|248:156,1,137.999995788574,8|2,0:0|0:0,0:0:0:0:
184,296,118182,1,0,0:0:0:0:
184,296,118313,2,0,P|140:276|172:144,1,206.999993682861,2|0,1:1|0:0,0:0:0:0:
156,140,118834,2,2,P|104:224|176:304,1,206.999993682861,10|0,2:1|2:0,2:0:0:0:
252,340,119356,6,0,L|264:272,1,68.9999978942872,2|0,1:1|0:0,0:0:0:0:
368,264,119617,2,0,L|356:332,1,68.9999978942872,2|0,0:1|0:0,0:0:0:0:
263,272,119878,6,0,L|275:204,1,68.9999978942872,10|0,0:1|0:0,0:0:0:0:
379,196,120139,2,0,L|367:264,1,68.9999978942872,2|0,0:1|0:0,0:0:0:0:
256,124,120399,5,2,1:1:0:0:
252,55,120529,1,2,0:0:0:0:
321,51,120659,1,2,0:0:0:0:
324,120,120790,1,2,0:0:0:0:
252,104,120920,5,10,0:1:0:0:
267,50,121051,1,0,0:0:0:0:
320,66,121181,1,2,0:1:0:0:
305,119,121312,1,0,0:0:0:0:
184,68,121443,6,0,B|136:16|136:16|16:44|16:44|0:108,1,258.75000987053,6|0,1:1|0:3,0:0:0:0:
104,232,121965,6,0,P|132:164|96:104,1,137.999995788574,8|2,0:0|0:0,0:0:0:0:
40,280,122356,1,0,0:0:0:0:
40,280,122486,2,0,B|84:316|84:316|236:292,1,206.999993682861,2|0,1:1|0:0,0:0:0:0:
232,300,123008,2,2,B|83:323|83:323|39:287,1,206.999993682861,10|0,2:1|2:0,2:0:0:0:
108,232,123530,6,0,L|180:220,1,68.9999978942872,2|0,1:1|0:0,0:0:0:0:
300,281,123791,2,0,L|228:293,1,68.9999978942872,2|0,0:1|0:0,0:0:0:0:
163,152,124052,6,0,L|179:240,1,68.9999978942872,10|0,0:1|0:0,0:0:0:0:
244,360,124313,2,0,L|228:272,1,68.9999978942872,2|0,0:1|0:0,0:0:0:0:
138,114,124573,5,10,0:1:0:0:
130,98,124704,1,0,0:0:0:0:
146,91,124834,1,0,0:0:0:0:
153,106,124965,1,0,0:0:0:0:
94,122,125095,5,8,0:2:0:0:
124,52,125226,1,0,0:0:0:0:
194,83,125356,1,0,0:0:0:0:
163,152,125486,1,0,0:0:0:0:
40,56,125617,5,6,1:2:0:0:
28,64,125878,6,0,B|20:144|20:144|56:200,1,137.999995788574,2|8,0:2|0:2,0:2:0:0:
163,152,126399,1,2,0:2:0:0:
52,304,126660,6,0,P|88:328|124:324,1,68.9999978942872,2|0,1:2|0:2,0:2:0:0:
200,368,126921,2,0,P|236:348|248:320,1,68.9999978942872,2|0,0:2|0:2,0:0:0:0:
212,232,127182,6,0,L|392:260,1,137.999995788574,10|0,0:2|0:0,0:0:0:0:
296,156,127573,1,2,0:2:0:0:
252,76,127704,5,2,1:2:0:0:
240,64,127965,6,0,P|216:24|120:28,1,137.999995788574,2|8,0:2|0:2,0:2:0:0:
16,112,128486,1,2,0:2:0:0:
44,248,128747,5,2,1:2:0:0:
53,224,128878,1,0,0:2:0:0:
61,200,129008,1,2,0:3:0:0:
69,176,129139,1,0,0:2:0:0:
128,236,129269,5,10,0:2:0:0:
136,212,129400,1,0,0:2:0:0:
144,188,129530,1,2,0:2:0:0:
152,164,129661,1,0,0:2:0:0:
69,176,129791,6,0,B|57:232|117:284|117:284|177:232|149:156,1,258.75000987053,6|0,1:2|0:0,0:2:0:0:
96,92,130313,6,0,P|40:92|-16:168,1,137.999995788574,8|2,0:2|0:2,0:0:0:0:
32,308,130704,1,0,0:2:0:0:
32,308,130834,2,0,B|56:340|92:360|92:360|228:344,1,206.999993682861,2|0,1:2|0:2,0:0:0:0:
216,352,131356,2,2,B|89:366|89:366|53:346|29:314,1,206.999993682861,10|0,2:2|2:2,2:2:0:0:
120,284,131878,6,0,L|208:276,1,68.9999978942872,2|0,1:2|0:2,1:2:0:0:
264,196,132139,2,0,L|176:188,1,68.9999978942872,2|0,0:2|0:0,0:2:0:0:
336,256,132399,2,0,P|356:192|328:128,1,137.999995788574,8|2,0:2|0:2,0:0:0:0:
97,61,132921,5,10,0:2:0:0:
129,53,133052,1,8,0:2:0:0:
165,57,133182,1,2,3:3:0:0:
189,81,133313,1,0,0:0:0:0:
269,101,133443,5,10,1:2:0:0:
297,121,133573,1,0,0:2:0:0:
329,129,133704,1,0,3:2:0:0:
365,129,133834,1,0,3:2:0:0:
436,164,133965,5,6,3:2:0:0:
276,72,142313,6,0,L|412:64,2,129.375004935265,0|0|0,3:0|0:0|0:0,0:0:0:0:
212,140,143356,2,0,L|80:132,2,129.375004935265,0|0|2,3:0|0:0|0:0,0:0:0:0:
300,256,144399,6,0,B|312:216|312:216|300:172,1,86.2500032901765,2|0,3:0|0:0,0:0:0:0:
216,228,144791,1,0,0:0:0:0:
216,228,144921,2,0,B|204:268|204:268|216:312,1,86.2500032901765,8|2,0:0|0:0,0:0:0:0:
288,360,145313,1,8,3:2:0:0:
288,360,145443,2,0,L|360:356,2,43.1250016450883,2|8|2,0:0|0:0|3:0,0:0:0:0:
104,384,145965,6,0,L|116:292,1,86.2500032901765,10|0,0:0|3:0,0:0:0:0:
56,240,146356,1,0,3:0:0:0:
56,240,146486,2,0,B|76:252|96:240|96:240|128:272|180:256,1,129.375004935265,2|0,3:2|0:0,0:0:0:0:
152,176,147008,2,0,B|144:132|144:132|160:80,1,86.2500032901765,8|2,0:0|3:0,0:0:0:0:
220,40,147399,1,10,0:0:0:0:
220,40,147530,2,0,L|280:48,1,43.1250016450883,0|8,0:0|0:0,0:0:0:0:
320,104,147791,2,0,L|380:96,1,43.1250016450883,10|0,0:0|0:0,0:0:0:0:
436,60,148052,1,8,0:0:0:0:
496,212,148313,6,0,L|476:292,1,43.1250016450883,2|10,3:0|0:0,0:0:0:0:
416,332,148573,5,0,0:0:0:0:
408,308,148704,1,8,0:0:0:0:
400,284,148834,2,0,L|384:232,1,43.1250016450883,10|0,0:0|0:0,0:0:0:0:
284,160,149095,5,8,0:0:0:0:
272,196,149226,1,0,0:0:0:0:
260,228,149356,2,0,L|244:280,1,43.1250016450883,0|8,3:0|0:0,0:0:0:0:
120,316,149617,6,0,L|108:352,2,21.5625008225441,8|0|0,0:0|0:0|0:0,0:0:0:0:
56,208,149878,2,0,L|64:260,1,43.1250016450883,10|0,0:0|0:0,0:0:0:0:
144,144,150139,6,0,L|136:176,2,21.5625008225441,10|0|0,0:0|0:0|0:0,0:0:0:0:
104,56,150399,2,0,L|96:24,2,21.5625008225441,10|0|0,0:0|0:0|0:0,0:0:0:0:
192,78,150660,5,6,0:0:0:0:
204,84,151182,6,0,L|296:78,1,86.2500032901765
396,68,151704,2,0,P|380:132|376:167,1,86.2500032901765
383,178,152095,1,0,0:0:0:0:
383,178,152747,5,0,0:0:0:0:
419,248,153008,1,0,0:0:0:0:
359,323,153269,1,0,0:0:0:0:
232,368,153530,1,0,0:0:0:0:
144,256,153791,5,0,0:0:0:0:
132,268,153921,1,0,0:0:0:0:
124,284,154052,1,0,0:0:0:0:
104,252,154182,1,0,0:0:0:0:
104,216,154313,5,10,0:1:0:0:
116,180,154443,1,0,0:0:0:0:
140,152,154573,1,2,0:1:0:0:
176,140,154704,1,0,0:0:0:0:
211,61,154834,6,0,B|152:43|199:-15|281:3|306:50|237:84|310:137|365:129,1,258.75000987053,6|0,1:2|0:3,0:0:0:0:
362,66,155356,2,0,B|353:56|339:34|339:34|367:75|346:152,1,137.999995788574,8|2,0:0|0:0,0:0:0:0:
296,218,155747,1,0,0:0:0:0:
296,218,155878,6,0,P|279:189|356:217,1,206.999993682861,2|2,1:1|0:0,0:0:0:0:
369,198,156399,2,2,P|386:227|309:199,1,206.999993682861,10|0,2:1|2:0,2:0:0:0:
457,249,156921,6,0,P|438:304|412:327,1,68.9999978942872,2|0,1:1|0:0,0:0:0:0:
219,229,157182,2,0,P|238:174|264:151,1,68.9999978942872,2|0,0:1|0:0,0:0:0:0:
431,311,157443,6,0,P|401:340|363:349,1,68.9999978942872,10|0,0:1|0:0,0:0:0:0:
244,166,157704,2,0,P|274:137|312:128,1,68.9999978942872,2|0,0:1|0:0,0:0:0:0:
195,294,157965,5,2,1:1:0:0:
170,306,158095,1,2,0:0:0:0:
142,308,158226,1,2,0:0:0:0:
114,302,158356,1,2,0:0:0:0:
43,224,158486,5,10,0:1:0:0:
67,211,158617,1,0,0:0:0:0:
94,210,158747,1,2,0:1:0:0:
121,214,158878,1,0,0:0:0:0:
42,321,159008,6,0,B|27:267|60:231|120:209|79:241|146:224|155:162|150:119|119:93,1,258.75000987053,6|0,1:1|0:3,0:0:0:0:
15,129,159530,2,0,P|65:158|50:118,1,137.999995788574,8|2,0:0|0:0,0:0:0:0:
8,29,159921,1,0,0:0:0:0:
8,29,160052,6,0,B|159:62|159:62|128:111,1,206.999993682861,2|2,1:1|0:0,0:0:0:0:
176,197,160573,2,2,B|25:164|25:164|56:115,1,206.999993682861,10|0,2:1|2:0,2:0:0:0:
231,48,161095,6,0,L|242:126,1,68.9999978942872,2|0,1:1|0:0,0:0:0:0:
304,254,161356,2,0,L|315:176,1,68.9999978942872,2|0,0:1|0:0,0:0:0:0:
338,46,161617,6,0,L|349:124,1,68.9999978942872,10|0,0:1|0:0,0:0:0:0:
413,219,161878,2,0,L|424:141,1,68.9999978942872,2|0,0:1|0:0,0:0:0:0:
499,284,162139,5,2,0:2:0:0:
491,295,162269,1,0,0:0:0:0:
484,306,162399,1,0,0:0:0:0:
477,318,162530,1,0,0:0:0:0:
413,219,162660,5,2,0:0:0:0:
406,245,162791,1,0,0:0:0:0:
399,271,162921,1,0,0:0:0:0:
393,298,163052,1,0,0:0:0:0:
304,254,163182,6,0,L|315:334,1,68.9999978942872,6|0,1:2|0:2,0:2:0:0:
313,322,163443,2,0,B|256:312|256:312|242:319|242:319|177:304,1,137.999995788574,2|8,0:2|0:2,0:2:0:0:
13,219,163965,6,0,L|63:268,1,68.9999978942872,2|0,0:0|0:0,0:0:0:0:
150,256,164226,2,0,L|104:329,1,68.9999978942872,2|0,1:2|0:2,0:2:0:0:
97,146,164486,5,2,0:2:0:0:
183,177,164617,1,0,0:2:0:0:
263,123,164747,2,0,B|384:123|318:193|461:195,1,206.999993682861,10|2,0:2|0:2,0:0:0:0:
438,44,165269,6,0,L|421:132,1,68.9999978942872,2|0,1:2|0:2,0:2:0:0:
424,111,165530,2,0,P|384:72|276:48,1,137.999995788574,0|8,0:2|0:2,0:2:0:0:
224,176,166052,6,0,P|252:150|266:113,1,68.9999978942872,2|0,0:2|0:0,0:0:0:0:
144,67,166313,5,2,1:2:0:0:
147,80,166443,1,0,0:2:0:0:
150,93,166573,1,2,0:3:0:0:
153,106,166704,1,0,0:2:0:0:
80,144,166834,5,10,0:2:0:0:
77,131,166964,1,0,0:2:0:0:
74,118,167094,1,2,0:2:0:0:
71,105,167225,1,0,0:2:0:0:
128,204,167356,6,0,B|79:228|72:286|122:341|212:321|151:239|267:263,1,258.75000987053,6|0,1:2|0:0,0:2:0:0:
259,326,167878,2,0,P|248:296|270:235,1,68.9999978942872,8|0,0:2|0:2,0:0:0:0:
368,195,168139,2,0,P|349:235|299:253,1,68.9999978942872,2|0,0:2|0:2,0:2:0:0:
222,176,168399,6,0,P|272:113|399:124,1,206.999993682861,2|0,1:2|0:2,0:0:0:0:
417,220,168921,2,2,B|299:224|349:155|217:176,1,206.999993682861,10|0,2:2|2:2,2:2:0:0:
139,60,169443,6,0,L|150:138,1,68.9999978942872,2|0,1:2|0:2,0:2:0:0:
80,3,169704,2,0,B|54:38|54:38|76:216,1,206.999993682861,2|0,0:2|0:2,0:2:0:0:
156,196,170226,2,0,L|147:121,1,68.9999978942872,2|0,0:2|0:2,0:2:0:0:
115,268,170486,6,0,B|183:264|161:297|218:300,1,103.499996841431,2|0,0:2|3:0,0:0:0:0:
296,264,171008,2,0,L|275:366,1,86.25,10|0,0:0|0:0,0:0:0:0:
296,354,171269,2,0,L|314:251,1,86.25,8|0,3:0|0:0,0:0:0:0:
401,247,171530,6,0,B|422:203|461:229|494:168|460:133|428:137|428:137|414:107|358:116|356:178,1,258.75000987053,6|0,3:2|0:0,0:0:0:0:
310,269,172052,2,0,L|305:204,1,60.3749981575013,10|0,0:1|0:0,0:0:0:0:
227,109,172573,6,0,P|264:66|288:127,1,137.999995788574,2|2,3:1|0:0,0:0:0:0:
220,100,172965,2,0,P|264:60|300:120,1,137.999995788574,2|0,0:0|0:0,0:0:0:0:
166,177,173617,6,0,L|91:166,1,68.9999978942872,2|0,3:1|0:0,0:0:0:0:
16,80,173878,2,0,L|98:72,1,68.9999978942872,2|0,0:0|0:0,0:0:0:0:
166,185,174139,6,0,L|91:174,1,68.9999978942872,10|0,0:1|0:0,0:0:0:0:
16,88,174400,2,0,L|98:80,1,68.9999978942872,2|0,0:2|0:0,0:0:0:0:
262,198,174660,5,2,3:1:0:0:
254,226,174791,1,2,0:0:0:0:
331,221,174921,5,2,0:0:0:0:
323,249,175052,1,2,0:0:0:0:
400,244,175182,5,14,0:0:0:0:
392,272,175313,1,2,0:0:0:0:
469,266,175443,5,2,0:0:0:0:
461,294,175574,1,2,0:0:0:0:
430,365,175704,6,0,P|458:273|486:105,1,258.75000987053,4|0,3:2|0:0,0:0:0:0:
432,36,176226,2,0,B|404:40|416:56|380:64,1,60.3749981575013,10|0,0:1|0:0,0:0:0:0:
240,40,176747,6,0,P|284:16|288:88,1,137.999995788574,2|2,3:1|0:0,0:0:0:0:
236,36,177139,2,0,P|296:16|308:80,1,137.999995788574,2|0,0:0|0:0,0:0:0:0:
152,24,177791,6,0,P|164:56|168:92,1,68.9999978942872
52,144,178052,2,0,P|60:112|80:76,1,68.9999978942872
163,20,178313,6,0,P|175:52|179:88,1,68.9999978942872,10|0,0:1|0:0,0:0:0:0:
63,140,178574,2,0,P|71:108|91:72,1,68.9999978942872
208,196,178834,5,2,3:1:0:0:
236,204,178965,1,0,0:0:0:0:
264,212,179095,1,2,0:0:0:0:
292,220,179226,1,0,0:0:0:0:
361,187,179356,5,2,3:1:0:0:
425,228,179486,1,0,0:0:0:0:
422,306,179617,1,2,0:0:0:0:
358,344,179747,1,0,0:0:0:0:
288,304,179878,6,0,B|192:288|172:344|192:360|120:400|52:376,1,258.75000987053,4|0,3:2|0:0,0:0:0:0:
80,224,180399,2,0,P|84:252|88:292,1,60.3749981575013,10|0,0:1|0:0,0:0:0:0:
195,257,180921,6,0,P|247:241|203:189,1,137.999995788574,2|0,3:1|0:0,0:0:0:0:
200,266,181313,2,0,P|256:238|216:182,1,137.999995788574,2|0,0:0|0:0,0:0:0:0:
136,88,181965,6,0,P|140:40|152:0,1,68.9999978942872,2|0,3:1|0:0,0:0:0:0:
272,0,182226,2,0,P|268:40|252:92,1,68.9999978942872
148,92,182486,6,0,P|152:44|164:4,1,68.9999978942872,10|0,0:1|0:0,0:0:0:0:
284,4,182747,2,0,P|280:44|264:96,1,68.9999978942872,2|0,0:2|0:0,0:0:0:0:
136,208,183008,5,2,3:1:0:0:
122,217,183269,2,0,L|78:209,2,34.4999989471436,2|0|0,0:3|0:0|0:0,0:0:0:0:
216,268,183530,5,14,0:0:0:0:
244,248,183660,1,2,0:0:0:0:
328,200,183791,5,2,0:0:0:0:
356,220,183921,1,2,0:0:0:0:
448,276,184052,6,0,B|432:332|392:320|352:304|368:256|368:256|416:136,1,258.75000987053,4|0,3:2|0:0,0:0:0:0:
484,84,184573,2,0,P|456:76|416:56,1,60.3749981575013,10|0,0:1|0:0,0:0:0:0:
316,0,185095,6,0,P|324:24|292:132,1,137.999995788574,2|0,3:1|0:0,0:0:0:0:
295,128,185486,2,0,P|287:104|319:-4,1,137.999995788574,2|0,0:0|0:0,0:0:0:0:
220,164,186139,6,0,B|140:164|168:220|96:220,1,137.999995788574,0|2,3:0|0:0,0:0:0:0:
216,244,186530,1,2,0:0:0:0:
216,244,186660,2,0,P|208:304|200:388,1,137.999995788574,8|2,0:0|0:0,0:0:0:0:
132,308,187052,1,2,0:0:0:0:
284,356,187182,6,0,P|344:348|416:336,1,103.499996841431,2|0,3:2|3:0,0:0:0:0:
484,260,187704,2,0,P|472:292|456:332,1,43.1250016450883,10|0,0:0|0:0,0:0:0:0:
372,160,187965,6,0,P|384:216|400:284,1,86.2500032901765,4|0,3:3|0:0,0:0:0:0:
