osu file format v14

[General]
AudioFilename: audio.mp3
AudioLeadIn: 0
PreviewTime: 86620
Countdown: 0
SampleSet: Soft
StackLeniency: 0.7
Mode: 0
LetterboxInBreaks: 0
WidescreenStoryboard: 1

[Editor]
Bookmarks: 110376
DistanceSpacing: 1.6
BeatDivisor: 4
GridSize: 32
TimelineZoom: 1.9

[Metadata]
Title:LIKEY
TitleUnicode:LIKEY
Artist:TWICE
ArtistUnicode:트와이스
Creator:ailv
Version:Tatan's Insane
Source:
Tags:kpop k-pop jyp comeback entertainment korea once sana jihyo dahyun nayeon anvil jeongyeon chaeyoung momo mina tzuyu 나연 정연 모모 사나 지효 미나 다현 채영 쯔위 -_Tatan_- aliv what is love 5th mini album
BeatmapID:1714760
BeatmapSetID:814038

[Difficulty]
HPDrainRate:5
CircleSize:4.2
OverallDifficulty:8
ApproachRate:9
SliderMultiplier:2.2
SliderTickRate:1

[Events]
//Background and Video events
0,0,"BG.jpg",0,0
//Break Periods
2,147637,152492
//Storyboard Layer 0 (Background)
//Storyboard Layer 1 (Fail)
//Storyboard Layer 2 (Pass)
//Storyboard Layer 3 (Foreground)
//Storyboard Sound Samples

[TimingPoints]
365,454.545454545455,4,2,69,60,1,0
14001,-71.4285714285714,4,2,69,60,0,0
14228,-76.9230769230769,4,2,69,60,0,0
14455,-83.3333333333333,4,2,69,60,0,0
14683,-90.9090909090909,4,2,69,60,0,0
14910,-76.9230769230769,4,2,69,80,0,0
28092,-133.333333333333,4,2,69,80,0,0
28433,-100,4,2,69,80,0,0
28546,-100,4,2,69,60,0,0
29455,-133.333333333333,4,2,69,60,0,0
44001,-100,4,2,69,60,0,0
58546,-166.666666666667,4,2,69,60,0,0
65819,-166.666666666667,4,2,69,70,0,0
73092,-76.9230769230769,4,2,69,80,0,0
87637,-76.9230769230769,4,2,69,80,0,0
101274,-76.9230769230769,4,2,69,60,0,0
102183,-133.333333333333,4,2,69,60,0,0
108546,-333.333333333333,4,2,69,60,0,0
109455,-133.333333333333,4,2,69,60,0,0
114910,-666.666666666667,4,2,69,60,0,0
116046,-76.9230769230769,4,2,69,60,0,0
116728,-133.333333333333,4,2,69,60,0,0
124001,-133.333333333333,4,2,69,70,0,0
131274,-76.9230769230769,4,2,69,80,0,0
145819,-66.6666666666667,4,2,69,60,0,0
153092,-200,4,2,69,50,0,0
154342,-200,4,2,69,60,0,0
154683,-200,4,2,69,70,0,0
160365,-1000,4,2,69,50,0,0
161728,-100,4,2,69,60,0,0
161955,-66.6666666666667,4,2,69,70,0,0
162183,-66.6666666666667,4,2,69,80,0,0
168546,-133.333333333333,4,2,69,80,0,0
169455,-142.857142857143,4,2,69,70,0,0
172637,-100,4,2,69,70,0,0
173092,-66.6666666666667,4,2,69,80,0,0
175819,-66.6666666666667,4,2,69,60,0,0
176274,-333.333333333333,4,2,69,80,0,0
176728,-66.6666666666667,4,2,69,80,0,0
191274,-333.333333333333,4,2,69,60,0,0
191728,-62.5,4,2,69,80,0,0
204001,-100,4,2,69,80,0,0
204455,-133.333333333333,4,2,69,80,0,0
204904,-71.4285714285714,4,2,69,80,0,0
204910,-71.4285714285714,4,2,69,70,0,0
205251,-71.4285714285714,4,2,69,70,0,0
205365,-71.4285714285714,4,2,69,70,0,0
205705,-71.4285714285714,4,2,69,70,0,0

[Colours]
Combo1 : 129,123,238
Combo2 : 234,150,245

[HitObjects]
80,127,14001,6,0,P|62:88|60:52,1,76.9999976501466,0|0,0:0|0:0,0:0:0:0:
142,76,14228,2,0,P|145:40|159:8,1,71.4999967269899,0|0,0:0|0:0,0:0:0:0:
222,65,14455,2,0,P|246:30|277:10,1,65.9999979858399,4|0,0:1|0:0,0:0:0:0:
296,93,14683,2,0,P|322:78|352:73,1,60.5000018463135,2|0,0:0|0:0,0:0:0:0:
356,166,14910,6,0,P|368:253|371:328,1,142.99999345398,6|2,1:2|1:2,0:0:0:0:
341,334,15251,1,0,0:0:0:0:
341,334,15365,2,0,P|305:334|273:318,1,71.4999967269899,8|0,0:1|0:0,0:0:0:0:
461,300,15592,2,0,P|461:336|446:368,1,71.4999967269899,2|0,0:0|0:0,0:0:0:0:
192,379,15819,6,0,P|176:345|175:293,1,71.4999967269899,2|0,0:0|0:0,0:0:0:0:
112,240,16046,2,0,P|146:224|198:223,1,71.4999967269899,2|0,1:2|0:0,0:0:0:0:
261,159,16274,2,0,P|277:193|278:245,1,71.4999967269899,8|0,0:1|0:0,0:0:0:0:
341,298,16501,2,0,P|307:314|255:315,1,71.4999967269899,2|0,0:0|0:0,0:0:0:0:
32,337,16728,6,0,P|119:316|189:310,1,142.99999345398,2|2,1:2|1:2,0:0:0:0:
9,240,17183,1,8,0:1:0:0:
125,176,17410,2,0,P|160:174|194:186,1,71.4999967269899,2|0,0:0|0:0,0:0:0:0:
434,217,17637,6,0,P|398:164|309:160,1,142.99999345398,2|2,0:0|1:2,0:0:0:0:
299,175,17978,1,0,0:0:0:0:
298,174,18092,2,0,P|293:209|301:243,1,71.4999967269899,8|0,0:1|0:0,0:0:0:0:
512,232,18319,2,0,P|510:197|493:166,1,71.4999967269899,2|0,0:0|0:0,0:0:0:0:
364,357,18546,6,0,P|302:341|195:361,1,142.99999345398,2|2,1:2|1:2,0:0:0:0:
458,292,19001,1,8,0:1:0:0:
301,243,19228,2,0,P|268:251|213:240,1,71.4999967269899,0|0,0:0|0:0,0:0:0:0:
96,316,19455,6,0,P|53:313|21:296,1,71.4999967269899,2|2,0:0|0:0,0:0:0:0:
83,236,19683,2,0,P|53:217|31:188,1,71.4999967269899,2|2,1:2|0:0,0:0:0:0:
113,162,19910,2,0,P|94:124|92:87,1,71.4999967269899,8|2,0:1|0:0,0:0:0:0:
175,112,20137,2,0,P|175:72|188:33,1,71.4999967269899
395,105,20365,6,0,P|355:78|256:99,1,142.99999345398,0|8,1:0|1:2,0:0:0:0:
459,179,20705,1,8,0:0:0:0:
459,179,20819,2,0,P|487:134|487:78,1,71.4999967269899,8|8,0:1|0:0,0:0:0:0:
332,301,21046,5,0,0:0:0:0:
332,301,21160,1,8,0:0:0:0:
332,301,21274,2,0,B|382:323|382:323|469:309,1,142.99999345398,2|0,1:2|0:0,0:0:0:0:
323,164,21728,2,0,B|309:252|309:252|331:302,1,142.99999345398,12|2,0:1|0:0,0:0:0:0:
125,352,22183,6,0,P|25:323|14:281,1,142.99999345398,2|2,1:2|1:2,0:0:0:0:
14,270,22524,1,0,0:0:0:0:
14,270,22637,2,0,P|19:223|50:193,1,71.4999967269899,8|0,0:1|0:0,0:0:0:0:
195,304,22865,2,0,P|215:347|204:388,1,71.4999967269899,2|0,0:0|0:0,0:0:0:0:
109,116,23092,6,0,P|103:151|109:187,1,71.4999967269899,2|0,0:0|0:0,0:0:0:0:
263,154,23319,2,0,P|228:148|193:154,1,71.4999967269899,2|0,1:2|0:0,0:0:0:0:
231,307,23546,2,0,P|237:272|232:237,1,71.4999967269899,8|0,0:1|0:0,0:0:0:0:
77,269,23774,2,0,P|112:275|147:269,1,71.4999967269899,2|0,0:0|0:0,0:0:0:0:
319,214,24001,6,0,P|396:197|486:232,1,142.99999345398,2|2,1:2|1:2,0:0:0:0:
231,307,24455,1,8,0:1:0:0:
347,366,24683,2,0,P|399:377|460:353,1,71.4999967269899,2|0,0:0|0:0,0:0:0:0:
500,214,24910,2,0,P|401:258|391:323,1,142.99999345398,2|2,0:0|1:2,0:0:0:0:
503,374,25251,1,0,0:0:0:0:
503,374,25365,2,0,P|493:327|431:286,1,71.4999967269899,8|0,0:1|0:0,0:0:0:0:
253,306,25592,2,0,P|300:281|319:211,1,71.4999967269899,2|0,0:0|0:0,0:0:0:0:
358,23,25819,6,0,L|379:182,1,142.99999345398,2|2,1:2|1:2,0:0:0:0:
403,188,26160,1,0,0:0:0:0:
403,188,26274,2,0,P|448:182|490:144,1,71.4999967269899,8|0,0:1|0:0,0:0:0:0:
333,256,26501,2,0,P|374:273|430:261,1,71.4999967269899
266,93,26728,6,0,P|248:61|222:37,1,71.4999967269899,2|2,0:0|0:0,0:0:0:0:
186,115,26955,2,0,P|155:96|120:88,1,71.4999967269899,2|2,1:2|0:0,0:0:0:0:
132,174,27183,2,0,P|95:172|62:183,1,71.4999967269899,8|2,0:1|0:0,0:0:0:0:
114,252,27410,2,0,P|80:266|54:290,1,71.4999967269899,0|0,0:0|0:0,0:0:0:0:
185,358,27637,5,0,1:0:0:0:
300,310,27865,1,8,1:2:0:0:
202,240,28092,2,0,P|178:304|198:383,1,123.750004720688,8|8,0:1|0:0,0:0:0:0:
237,187,29455,6,0,L|137:184,1,82.5000031471254,2|2,1:2|0:2,0:0:0:0:
126,55,29910,1,8,0:1:0:0:
251,96,30137,1,2,0:2:0:0:
90,129,30365,2,0,P|70:183|81:233,1,82.5000031471254,2|0,0:2|1:0,0:0:0:0:
157,288,30819,5,8,0:1:0:0:
237,187,31046,1,2,1:2:0:0:
270,315,31274,2,0,P|334:327|380:309,1,82.5000031471254,2|0,0:2|0:0,0:0:0:0:
410,255,31728,2,0,L|412:218,6,20.6250007867813,8|2|2|2|2|2|2,0:1|0:0|0:0|0:0|0:0|0:0|0:0,0:0:0:0:
493,295,32183,6,0,L|497:211,1,82.5000031471254,2|2,0:0|1:2,0:0:0:0:
461,77,32637,1,8,0:1:0:0:
355,162,32865,1,2,0:2:0:0:
355,162,32978,1,0,0:0:0:0:
355,162,33092,2,0,L|257:166,1,82.5000031471254,2|2,1:2|0:2,0:0:0:0:
142,142,33546,5,8,0:1:0:0:
159,10,33774,1,2,0:2:0:0:
59,96,34001,2,0,P|46:154|59:186,1,82.5000031471254,2|0,0:2|1:0,0:0:0:0:
176,246,34455,5,8,0:1:0:0:
142,142,34683,1,2,1:2:0:0:
44,315,34910,2,0,L|141:318,1,82.5000031471254,2|0,0:2|1:0,0:0:0:0:
196,246,35365,2,0,L|158:244,6,20.6250007867813,8|2|2|2|2|2|2,0:1|0:0|0:0|0:0|0:0|0:0|0:0,0:0:0:0:
285,266,35819,6,0,P|285:225|267:188,1,82.5000031471254,2|2,0:0|1:2,0:0:0:0:
267,188,36160,2,0,P|249:151|249:110,1,82.5000031471254,2|2,0:2|0:2,0:0:0:0:
248,110,36501,2,0,P|271:82|288:71,1,41.2500015735627,2|2,0:2|0:2,0:0:0:0:
384,99,36728,6,0,P|382:146|395:185,1,82.5000031471254,2|2,1:2|0:2,0:0:0:0:
504,261,37183,1,8,0:1:0:0:
388,329,37410,2,0,L|305:328,1,82.5000031471254,2|2,0:2|0:2,0:0:0:0:
305,328,37751,1,2,0:2:0:0:
412,255,38092,2,0,L|370:254,1,41.2500015735627,8|2,0:1|0:2,0:0:0:0:
219,160,38546,2,0,P|228:215|207:286,1,123.750004720688,2|0,0:2|0:0,0:0:0:0:
114,338,39001,2,0,L|85:341,6,20.6250007867813,8|2|2|2|2|2|2,0:1|0:0|0:0|0:0|0:0|0:0|0:0,0:0:0:0:
15,265,39455,5,2,0:0:0:0:
48,153,39683,2,0,L|102:148,1,41.2500015735627,2|0,1:2|0:0,0:0:0:0:
138,147,39910,1,8,0:1:0:0:
138,147,40024,1,2,0:2:0:0:
238,66,40251,1,2,0:2:0:0:
238,66,40365,2,0,L|150:57,1,82.5000031471254,2|2,1:2|0:2,0:0:0:0:
219,160,40819,2,0,L|264:153,1,41.2500015735627,8|0,0:1|0:0,0:0:0:0:
304,143,41046,1,2,0:2:0:0:
418,174,41274,2,0,P|434:219|428:264,1,82.5000031471254,2|0,0:2|1:0,0:0:0:0:
354,301,41728,6,0,P|311:286|225:316,1,123.750004720688,8|0,0:1|0:0,0:0:0:0:
203,335,42183,2,0,P|145:355|86:339,1,123.750004720688,2|0,0:2|0:0,0:0:0:0:
51,310,42637,1,8,0:2:0:0:
145,220,42865,5,10,0:2:0:0:
145,220,43092,2,0,L|139:276,1,41.2500015735627,10|0,0:2|0:0,0:0:0:0:
59,197,43319,1,2,1:2:0:0:
59,197,43433,2,0,L|67:109,1,82.5000031471254,2|2,0:0|0:2,0:0:0:0:
189,139,43887,1,2,0:2:0:0:
189,139,44001,2,0,P|228:154|352:129,1,165,6|0,1:2|1:0,0:0:0:0:
433,105,44455,6,0,P|438:132|429:168,1,55,8|0,0:1|0:0,0:0:0:0:
383,226,44683,2,0,P|378:253|384:291,1,55,2|0,1:2|0:0,0:0:0:0:
442,347,44910,2,0,P|395:316|329:317,1,110,2|2,0:0|0:0,0:0:0:0:
265,345,45251,1,2,0:0:0:0:
265,345,45365,2,0,P|217:354|196:351,1,55,8|0,0:1|0:0,0:0:0:0:
156,291,45592,2,0,P|108:282|87:285,1,55,2|0,0:0|0:0,0:0:0:0:
28,339,45819,6,0,P|20:236|32:214,1,110,2|0,1:2|0:0,0:0:0:0:
82,169,46160,1,0,1:0:0:0:
82,169,46274,2,0,L|132:165,6,27.5,8|2|2|2|2|0|2,0:1|0:0|0:0|0:0|1:2|0:0|0:0,0:0:0:0:
187,103,46728,2,0,P|206:147|197:211,1,110,2|2,0:0|0:0,0:0:0:0:
156,291,47069,2,0,P|201:280|228:285,1,55,2|8,0:0|0:1,0:0:0:0:
285,334,47296,2,0,P|330:345|357:340,1,55,0|0,0:0|0:0,0:0:0:0:
419,296,47524,6,0,P|431:236|412:180,1,110,0|0,0:0|0:0,0:0:0:0:
364,116,47865,2,0,P|404:101|441:105,1,55,2|0,0:0|1:0,0:0:0:0:
325,200,48092,2,0,P|292:172|276:138,1,55,8|0,0:1|0:0,0:0:0:0:
375,63,48319,2,0,P|370:105|349:136,1,55,2|0,1:2|0:0,0:0:0:0:
203,125,48546,2,0,P|252:81|307:78,1,110,2|0,0:0|0:0,0:0:0:0:
211,214,49001,6,0,L|134:222,1,55,8|0,0:1|0:0,0:0:0:0:
67,236,49228,1,2,0:0:0:0:
67,236,49342,1,2,0:0:0:0:
67,236,49455,1,2,1:2:0:0:
177,302,49683,1,0,0:0:0:0:
177,302,49796,1,2,1:2:0:0:
177,302,49910,2,0,L|217:298,6,27.5,8|2|2|2|2|2|2,0:1|0:0|0:0|0:0|1:2|0:0|0:0,0:0:0:0:
288,300,50365,5,2,0:0:0:0:
366,297,50592,2,0,P|360:266|342:242,1,55,2|0,0:0|0:0,0:0:0:0:
404,193,50819,2,0,P|380:172|350:166,1,55,8|0,0:1|0:0,0:0:0:0:
366,88,51046,2,0,P|334:87|308:101,1,55,2|0,0:0|0:0,0:0:0:0:
250,168,51274,6,0,P|199:178|134:151,1,110,2|2,1:2|0:0,0:0:0:0:
209,36,51615,1,0,1:0:0:0:
209,36,51728,2,0,L|205:105,1,55,8|2,0:1|0:0,0:0:0:0:
103,74,51955,1,2,1:2:0:0:
103,74,52069,2,0,P|155:65|218:105,1,110,2|0,0:0|0:0,0:0:0:0:
147,214,52410,6,0,L|145:156,1,55,2|2,0:0|0:0,0:0:0:0:
211,283,52637,2,0,P|162:307|109:300,1,110,8|2,0:1|0:0,0:0:0:0:
147,214,52978,1,0,0:0:0:0:
147,214,53092,2,0,P|179:192|212:188,1,55,2|0,1:2|0:0,0:0:0:0:
256,312,53319,2,0,P|221:294|200:268,1,55,2|2,0:0|1:2,0:0:0:0:
287,196,53546,2,0,L|281:233,6,27.5,8|2|2|2|2|2|2,0:1|0:0|0:0|0:0|1:2|0:0|0:0,0:0:0:0:
368,237,54001,6,0,P|392:266|399:302,1,55,2|0,0:0|0:0,0:0:0:0:
370,154,54228,2,0,P|407:161|436:184,1,55,2|0,0:0|0:0,0:0:0:0:
319,89,54455,2,0,P|352:70|389:70,1,55,8|0,0:1|0:0,0:0:0:0:
238,72,54683,2,0,P|252:37|279:13,1,55,0|0,0:0|0:0,0:0:0:0:
260,159,54910,6,0,P|203:172|142:168,1,110,2|2,1:2|0:0,0:0:0:0:
100,47,55251,1,0,1:0:0:0:
100,47,55365,2,0,P|131:62|153:93,1,55,8|0,0:1|0:0,0:0:0:0:
74,226,55592,1,2,1:2:0:0:
74,226,55705,2,0,P|62:151|77:116,1,110,2|0,0:0|0:0,0:0:0:0:
135,294,56046,2,0,P|94:314|61:311,1,55,2|0,0:0|0:0,0:0:0:0:
150,208,56274,2,0,P|176:213|199:228,1,55,8|0,0:1|0:0,0:0:0:0:
216,336,56501,1,2,0:0:0:0:
216,336,56615,1,0,0:0:0:0:
216,336,56728,6,0,L|331:333,1,110,10|10,1:2|0:0,0:0:0:0:
298,261,57069,1,2,1:2:0:0:
298,261,57183,2,0,L|270:261,6,27.5,8|2|2|0|10|2|2,0:1|0:0|0:0|0:0|1:2|0:0|0:0,0:0:0:0:
253,184,57637,6,0,P|216:203|201:221,1,55,10|0,0:0|0:0,0:0:0:0:
123,109,57865,2,0,P|148:119|168:137,1,55,2|0,0:0|0:0,0:0:0:0:
110,291,58092,2,0,P|94:241|109:178,1,110,2|2,0:0|0:0,0:0:0:0:
201,300,58546,6,0,L|194:368,1,65.9999979858399,10|2,0:0|0:0,0:0:0:0:
282,288,59001,2,0,L|275:356,1,65.9999979858399,10|0,0:0|0:0,0:0:0:0:
363,276,59455,2,0,L|356:344,1,65.9999979858399,8|2,0:0|0:0,0:0:0:0:
441,264,59910,1,10,0:0:0:0:
363,276,60137,1,2,0:0:0:0:
282,288,60365,6,0,L|214:295,1,65.9999979858399,10|2,0:0|0:0,0:0:0:0:
294,207,60819,2,0,L|226:214,1,65.9999979858399,10|0,0:0|0:0,0:0:0:0:
306,126,61274,2,0,L|238:133,1,65.9999979858399,8|2,0:0|0:0,0:0:0:0:
372,46,61728,1,10,0:0:0:0:
287,39,61955,1,0,0:0:0:0:
211,55,62183,6,0,L|143:62,1,65.9999979858399,10|2,0:0|0:0,0:0:0:0:
240,132,62637,2,0,L|172:139,1,65.9999979858399,10|2,0:0|0:0,0:0:0:0:
268,208,63092,2,0,L|200:215,1,65.9999979858399,10|2,0:0|0:0,0:0:0:0:
319,286,63546,1,10,0:0:0:0:
319,286,63774,2,0,L|176:301,1,131.99999597168,2|0,0:0|0:0,0:0:0:0:
136,207,64455,6,0,L|204:214,1,65.9999979858399,10|0,0:0|0:0,0:0:0:0:
121,127,64910,2,0,L|189:134,1,65.9999979858399,8|2,0:0|0:0,0:0:0:0:
106,47,65365,2,0,L|174:54,1,65.9999979858399,10|2,0:0|0:0,0:0:0:0:
345,113,65819,5,2,1:2:0:0:
263,84,66046,1,2,1:2:0:0:
279,170,66274,1,10,1:2:0:0:
361,199,66501,1,0,1:0:0:0:
345,113,66728,5,0,1:0:0:0:
278,170,66955,1,2,1:2:0:0:
361,199,67183,1,10,1:2:0:0:
427,142,67410,1,2,1:2:0:0:
344,112,67637,5,2,1:2:0:0:
361,199,67865,1,2,1:2:0:0:
443,227,68092,1,10,1:2:0:0:
427,140,68319,1,0,1:0:0:0:
361,199,68546,5,0,1:0:0:0:
443,227,68774,1,2,1:2:0:0:
509,170,69001,1,10,1:2:0:0:
427,140,69228,1,2,1:2:0:0:
382,331,69455,5,2,1:2:0:0:
341,344,69569,1,0,1:0:0:0:
303,344,69683,1,2,1:2:0:0:
266,324,69796,1,0,1:0:0:0:
242,291,69910,1,2,1:2:0:0:
236,249,70024,1,0,1:0:0:0:
250,209,70137,1,2,1:2:0:0:
279,181,70251,1,0,1:0:0:0:
317,169,70365,5,2,1:2:0:0:
364,136,70478,1,0,1:0:0:0:
377,82,70592,1,0,1:0:0:0:
350,34,70705,1,0,1:0:0:0:
297,17,70819,2,0,P|254:13|243:15,1,32.99999899292,2|0,1:2|1:0,0:0:0:0:
112,104,71046,1,2,1:2:0:0:
112,104,71728,6,0,P|95:134|95:172,1,65.9999979858399,0|0,0:0|0:0,0:0:0:0:
218,201,72183,2,0,P|200:172|167:152,1,65.9999979858399,0|0,0:0|0:0,0:0:0:0:
122,258,72637,1,4,0:1:0:0:
122,258,72865,1,0,0:0:0:0:
298,225,73092,6,0,P|266:208|231:205,1,71.4999967269899,6|0,1:2|0:0,0:0:0:0:
300,314,73319,2,0,P|335:311|368:294,1,71.4999967269899,0|0,1:0|0:0,0:0:0:0:
285,92,73546,2,0,P|269:159|306:234,1,142.99999345398,8|0,0:1|0:0,0:0:0:0:
440,230,73887,1,2,0:0:0:0:
440,230,74001,2,0,P|387:216|360:223,1,71.4999967269899,2|2,0:0|0:0,0:0:0:0:
374,364,74228,2,0,P|394:313|391:286,1,71.4999967269899,2|0,1:2|0:0,0:0:0:0:
512,226,74455,2,0,P|509:261|492:292,1,71.4999967269899,8|0,0:1|0:0,0:0:0:0:
280,291,74683,5,2,0:0:0:0:
280,291,74796,2,0,P|210:275|155:318,1,142.99999345398,2|0,0:0|0:0,0:0:0:0:
147,384,75137,2,0,P|160:351|149:298,1,71.4999967269899,2|0,1:2|0:0,0:0:0:0:
38,179,75365,1,8,0:1:0:0:
38,179,75819,6,0,P|35:214|48:247,1,71.4999967269899,2|2,0:0|0:0,0:0:0:0:
176,230,76046,2,0,P|146:209|111:204,1,71.4999967269899,2|0,1:2|0:0,0:0:0:0:
88,340,76274,2,0,P|153:366|220:341,1,142.99999345398,8|2,0:1|0:0,0:0:0:0:
409,315,76728,6,0,P|400:281|379:253,1,71.4999967269899,2|0,0:0|0:0,0:0:0:0:
315,181,76955,2,0,P|293:209|284:243,1,71.4999967269899,0|0,1:0|0:0,0:0:0:0:
503,127,77183,2,0,P|436:101|362:135,1,142.99999345398,8|0,0:1|0:0,0:0:0:0:
185,179,77524,1,2,0:0:0:0:
185,179,77637,2,0,P|252:205|326:171,1,142.99999345398,2|2,0:0|1:2,0:0:0:0:
147,98,78092,2,0,P|104:139|94:169,1,71.4999967269899,8|0,0:1|0:0,0:0:0:0:
177,322,78319,2,0,L|187:155,1,142.99999345398,2|2,0:0|0:0,0:0:0:0:
13,320,78774,6,0,P|72:336|106:325,1,71.4999967269899,10|8,1:2|0:0,0:0:0:0:
245,307,79001,2,0,P|209:307|177:321,1,71.4999967269899,8|0,0:1|1:0,0:0:0:0:
372,371,79228,1,0,0:0:0:0:
372,371,79342,1,0,0:0:0:0:
372,371,79455,2,0,L|365:258,1,71.4999967269899,8|0,0:0|0:0,0:0:0:0:
301,247,79683,2,0,L|306:176,1,71.4999967269899,10|8,0:0|0:0,0:0:0:0:
188,0,79910,5,8,0:1:0:0:
154,115,80137,1,2,0:0:0:0:
359,112,80365,6,0,P|322:96|278:105,1,71.4999967269899,2|0,1:2|0:0,0:0:0:0:
357,184,80592,2,0,P|392:179|420:158,1,71.4999967269899,0|0,1:0|0:0,0:0:0:0:
228,24,80819,2,0,P|194:71|215:166,1,142.99999345398,8|0,0:1|0:0,0:0:0:0:
246,252,81160,1,2,0:0:0:0:
246,252,81274,2,0,P|189:229|122:249,1,71.4999967269899,2|2,0:0|0:0,0:0:0:0:
247,343,81501,2,0,P|282:337|318:309,1,71.4999967269899,2|0,1:2|0:0,0:0:0:0:
271,187,81728,2,0,P|250:216|245:251,1,71.4999967269899,8|0,0:1|0:0,0:0:0:0:
468,229,81955,5,2,0:0:0:0:
468,229,82069,2,0,P|366:249|322:236,1,142.99999345398,2|0,0:0|0:0,0:0:0:0:
208,156,82410,2,0,P|242:165|271:187,1,71.4999967269899,0|0,1:0|0:0,0:0:0:0:
191,316,82637,1,8,0:1:0:0:
191,316,83092,6,0,P|188:281|201:248,1,71.4999967269899,2|2,0:0|0:0,0:0:0:0:
329,268,83319,2,0,P|299:289|264:294,1,71.4999967269899,2|0,1:2|0:0,0:0:0:0:
77,158,83546,2,0,P|142:132|209:157,1,142.99999345398,8|2,0:1|0:0,0:0:0:0:
371,105,84001,6,0,P|398:64|399:15,1,71.4999967269899,2|0,0:0|0:0,0:0:0:0:
283,110,84228,2,0,P|293:145|315:173,1,71.4999967269899,0|0,1:0|0:0,0:0:0:0:
512,222,84455,2,0,P|445:248|371:214,1,142.99999345398,8|0,0:1|0:0,0:0:0:0:
184,176,84796,1,2,0:0:0:0:
184,176,84910,2,0,P|251:150|325:184,1,142.99999345398,0|2,0:0|1:2,0:0:0:0:
145,258,85365,2,0,P|102:217|92:187,1,71.4999967269899,8|0,0:1|0:0,0:0:0:0:
175,34,85592,2,0,L|185:201,1,142.99999345398,2|2,0:0|0:0,0:0:0:0:
107,49,86046,6,0,P|166:33|200:44,1,71.4999967269899,0|0,1:0|0:0,0:0:0:0:
325,103,86274,2,0,P|289:103|257:89,1,71.4999967269899,8|0,0:1|0:0,0:0:0:0:
457,19,86501,5,0,0:0:0:0:
457,19,86615,1,2,1:2:0:0:
457,19,86728,2,0,L|450:132,1,71.4999967269899,2|8,0:0|0:1,0:0:0:0:
329,175,86955,2,0,L|324:104,1,71.4999967269899,2|0,1:2|0:0,0:0:0:0:
452,90,87183,2,0,L|445:203,1,71.4999967269899,4|0,0:1|0:0,0:0:0:0:
334,246,87410,2,0,L|329:175,1,71.4999967269899,2|0,0:0|0:0,0:0:0:0:
158,351,87637,6,0,P|146:264|143:189,1,142.99999345398,6|2,1:2|1:2,0:0:0:0:
173,183,87978,1,0,0:0:0:0:
173,183,88092,2,0,P|208:182|240:198,1,71.4999967269899,8|0,0:1|0:0,0:0:0:0:
53,217,88319,2,0,P|53:181|68:149,1,71.4999967269899,2|0,0:0|0:0,0:0:0:0:
328,46,88546,6,0,P|344:80|345:132,1,71.4999967269899,2|0,0:0|0:0,0:0:0:0:
408,185,88774,2,0,P|374:201|322:202,1,71.4999967269899,2|0,1:2|0:0,0:0:0:0:
259,266,89001,2,0,P|243:232|242:180,1,71.4999967269899,8|0,0:1|0:0,0:0:0:0:
179,127,89228,2,0,P|213:111|265:110,1,71.4999967269899,2|0,0:0|0:0,0:0:0:0:
487,87,89455,6,0,P|400:108|330:114,1,142.99999345398,2|2,1:2|1:2,0:0:0:0:
512,191,89910,1,8,0:1:0:0:
376,233,90137,2,0,P|328:238|295:248,1,71.4999967269899,2|0,0:0|0:0,0:0:0:0:
106,278,90365,6,0,P|142:331|232:295,1,142.99999345398,2|2,0:0|1:2,0:0:0:0:
230,303,90705,1,0,0:0:0:0:
231,304,90819,2,0,P|235:268|227:234,1,71.4999967269899,8|0,0:1|0:0,0:0:0:0:
30,244,91046,2,0,P|25:279|33:313,1,71.4999967269899,2|0,0:0|0:0,0:0:0:0:
180,131,91274,6,0,P|113:153|36:144,1,142.99999345398,2|2,1:2|1:2,0:0:0:0:
227,234,91728,1,8,0:1:0:0:
102,297,91955,2,0,P|66:302|32:313,1,71.4999967269899,0|0,0:0|0:0,0:0:0:0:
180,131,92183,6,0,P|183:88|200:56,1,71.4999967269899,2|2,0:0|0:0,0:0:0:0:
260,118,92410,2,0,P|279:88|308:66,1,71.4999967269899,2|2,1:2|0:0,0:0:0:0:
334,148,92637,2,0,P|372:129|409:127,1,71.4999967269899,8|2,0:1|0:0,0:0:0:0:
384,210,92865,2,0,P|424:210|463:223,1,71.4999967269899,0|0,0:0|0:0,0:0:0:0:
262,309,93092,6,0,P|302:336|401:315,1,142.99999345398,0|8,1:0|1:2,0:0:0:0:
202,240,93433,1,8,0:0:0:0:
202,240,93546,2,0,P|174:285|174:341,1,71.4999967269899,8|8,0:1|0:0,0:0:0:0:
324,113,93774,5,0,0:0:0:0:
324,113,93887,1,8,0:0:0:0:
324,113,94001,2,0,B|274:91|274:91|186:104,1,142.99999345398,2|0,1:2|0:0,0:0:0:0:
333,250,94455,2,0,B|347:162|347:162|325:112,1,142.99999345398,12|2,0:1|0:0,0:0:0:0:
150,46,94910,6,0,P|50:90|56:133,1,142.99999345398,2|2,1:2|1:2,0:0:0:0:
50,132,95251,1,0,0:0:0:0:
50,132,95365,2,0,P|49:178|57:224,1,71.4999967269899,8|0,0:1|0:0,0:0:0:0:
232,84,95592,2,0,P|233:38|225:-8,1,71.4999967269899,2|0,0:0|0:0,0:0:0:0:
85,287,95819,6,0,P|40:292|14:286,1,71.4999967269899,2|0,0:0|0:0,0:0:0:0:
166,319,96046,2,0,P|173:284|168:248,1,71.4999967269899,2|0,1:2|0:0,0:0:0:0:
206,164,96274,2,0,P|170:157|135:163,1,71.4999967269899,8|0,0:1|0:0,0:0:0:0:
53,131,96501,2,0,P|46:167|51:202,1,71.4999967269899,2|0,0:0|0:0,0:0:0:0:
306,247,96728,6,0,P|229:264|139:229,1,142.99999345398,2|2,1:2|1:2,0:0:0:0:
352,341,97183,1,8,0:1:0:0:
215,378,97410,2,0,P|163:382|102:391,1,71.4999967269899,2|0,0:0|0:0,0:0:0:0:
0,260,97637,6,0,P|99:216|109:151,1,142.99999345398,2|2,0:0|1:2,0:0:0:0:
96,173,97978,1,0,0:0:0:0:
96,173,98092,2,0,P|90:135|97:97,1,71.4999967269899,8|0,0:1|0:0,0:0:0:0:
368,26,98319,2,0,P|374:64|367:102,1,71.4999967269899,2|0,0:0|0:0,0:0:0:0:
159,55,98546,6,0,L|316:65,1,142.99999345398,2|2,1:2|1:2,0:0:0:0:
327,92,98887,1,0,0:0:0:0:
327,92,99001,2,0,P|333:130|326:168,1,71.4999967269899,8|0,0:1|0:0,0:0:0:0:
290,226,99228,2,0,P|284:262|290:297,1,71.4999967269899,0|0,0:0|0:0,0:0:0:0:
230,118,99455,6,0,P|212:86|186:62,1,71.4999967269899,2|2,0:0|0:0,0:0:0:0:
150,140,99683,2,0,P|119:121|84:113,1,71.4999967269899,2|2,1:2|0:0,0:0:0:0:
96,199,99910,2,0,P|59:197|26:208,1,71.4999967269899,8|2,0:1|0:0,0:0:0:0:
78,277,100137,2,0,P|44:291|18:315,1,71.4999967269899,0|0,0:0|0:0,0:0:0:0:
268,205,100365,5,0,1:0:0:0:
153,253,100592,1,8,1:2:0:0:
272,345,100819,2,0,P|281:269|261:190,1,142.99999345398,8|0,0:1|0:0,0:0:0:0:
274,48,101274,6,0,P|207:25|138:43,1,142.99999345398,2|0,0:2|0:0,0:0:0:0:
132,210,101728,2,0,P|200:228|267:205,1,142.99999345398,2|2,0:0|0:0,0:0:0:0:
393,158,102183,6,0,B|358:129|358:129|263:127,2,123.750004720688,2|0|10,1:2|1:0|0:0,0:0:0:0:
311,209,103092,2,0,L|215:206,1,82.5000031471254,2|2,0:0|0:0,0:0:0:0:
391,240,103546,2,0,P|393:151|393:151,1,82.5000031471254,8|2,0:0|0:0,0:0:0:0:
341,95,104001,6,0,B|312:129|312:129|310:208,2,123.750004720688,0|0|10,1:0|1:0|0:0,0:0:0:0:
475,159,104910,2,0,P|392:157|392:157,1,82.5000031471254,2|2,0:0|0:0,0:0:0:0:
310,208,105251,1,0,0:0:0:0:
310,208,105365,2,0,P|227:206|227:206,1,82.5000031471254,10|2,0:0|0:0,0:0:0:0:
196,319,105819,6,0,B|197:240|197:240|226:205,2,123.750004720688,2|0|10,1:2|1:0|0:0,0:0:0:0:
308,290,106615,1,2,0:0:0:0:
308,290,106728,2,0,P|309:207|309:207,1,82.5000031471254,2|2,0:0|0:0,0:0:0:0:
228,123,107183,2,0,L|226:205,1,82.5000031471254,10|0,0:0|0:0,0:0:0:0:
423,238,107637,6,0,B|388:209|388:209|293:207,2,123.750004720688,2|0|2,1:2|1:0|0:0,0:0:0:0:
351,288,108546,6,0,L|272:286,1,65.9999979858399,2|10,0:0|0:0,0:0:0:0:
422,237,109455,6,0,B|424:159|424:159|453:124,2,123.750004720688,0|0|10,1:0|1:0|0:0,0:0:0:0:
453,124,110365,2,0,P|370:122|370:122,1,82.5000031471254,0|0,0:0|0:0,0:0:0:0:
225,203,110819,2,0,L|308:205,1,82.5000031471254,10|2,0:0|0:0,0:0:0:0:
370,122,111274,6,0,B|335:93|335:93|257:91,2,123.750004720688,0|2|10,1:0|1:2|0:0,0:0:0:0:
305,287,112183,2,0,L|307:204,1,82.5000031471254,2|2,0:0|0:0,0:0:0:0:
371,39,112637,2,0,L|369:122,1,82.5000031471254,10|0,0:0|0:0,0:0:0:0:
225,203,113092,6,0,B|227:125|227:125|256:90,2,123.750004720688,0|0|10,1:0|1:0|0:0,0:0:0:0:
389,206,114001,2,0,L|306:204,1,82.5000031471254,2|2,0:0|0:0,0:0:0:0:
222,285,114455,2,0,L|305:287,1,82.5000031471254,10|2,0:0|0:0,0:0:0:0:
308,138,114910,6,0,L|306:205,1,65.9999979858399,2|2,0:0|0:0,0:0:0:0:
392,157,116046,6,0,P|392:119|373:81,1,71.4999967269899,2|0,0:0|0:0,0:0:0:0:
308,138,116274,2,0,P|284:108|245:92,1,71.4999967269899,2|0,0:0|0:0,0:0:0:0:
232,178,116501,2,0,P|195:171|154:183,1,71.4999967269899,2|0,0:0|0:0,0:0:0:0:
195,336,116728,6,0,L|200:236,1,82.5000031471254,10|2,0:0|0:0,0:0:0:0:
277,327,117183,2,0,L|282:227,1,82.5000031471254,10|0,0:0|0:0,0:0:0:0:
359,318,117637,2,0,L|364:218,1,82.5000031471254,8|2,0:0|0:0,0:0:0:0:
490,181,118092,1,10,0:0:0:0:
407,176,118319,1,2,0:0:0:0:
325,172,118546,6,0,L|225:167,1,82.5000031471254,10|2,0:0|0:0,0:0:0:0:
316,90,119001,2,0,L|216:85,1,82.5000031471254,10|0,0:0|0:0,0:0:0:0:
307,8,119455,2,0,L|207:3,1,82.5000031471254,8|2,0:0|0:0,0:0:0:0:
148,54,119910,1,10,0:0:0:0:
143,136,120137,1,0,0:0:0:0:
134,300,120365,6,0,L|139:200,1,82.5000031471254,10|2,0:0|0:0,0:0:0:0:
216,291,120819,2,0,L|221:191,1,82.5000031471254,10|2,0:0|0:0,0:0:0:0:
298,282,121274,2,0,L|303:182,1,82.5000031471254,10|2,0:0|0:0,0:0:0:0:
394,110,121728,1,10,0:0:0:0:
394,110,121955,2,0,L|385:274,1,165.000006294251,2|0,0:0|0:0,0:0:0:0:
233,354,122637,6,0,L|333:359,1,82.5000031471254,10|0,0:0|0:0,0:0:0:0:
215,277,123092,2,0,L|315:282,1,82.5000031471254,8|2,0:0|0:0,0:0:0:0:
196,194,123546,2,0,L|296:199,1,82.5000031471254,10|2,0:0|0:0,0:0:0:0:
342,131,124001,5,2,1:2:0:0:
369,221,124228,1,0,1:0:0:0:
278,198,124455,1,10,1:2:0:0:
305,287,124683,1,2,1:2:0:0:
342,131,124910,5,0,1:0:0:0:
278,198,125137,1,2,1:2:0:0:
432,152,125365,1,10,1:2:0:0:
369,221,125592,1,2,1:2:0:0:
342,131,125819,5,2,1:2:0:0:
305,287,126046,1,2,1:2:0:0:
459,241,126274,1,10,1:2:0:0:
432,152,126501,1,0,1:0:0:0:
369,221,126728,5,0,1:0:0:0:
305,287,126955,1,2,1:2:0:0:
459,241,127183,1,10,1:2:0:0:
342,131,127410,1,2,1:2:0:0:
301,341,127637,5,2,1:2:0:0:
260,354,127751,1,0,1:0:0:0:
222,354,127865,1,2,1:2:0:0:
185,334,127978,1,0,1:0:0:0:
161,301,128092,1,2,1:2:0:0:
155,259,128205,1,0,1:0:0:0:
169,219,128319,1,2,1:2:0:0:
198,191,128433,1,0,1:0:0:0:
236,179,128546,5,2,1:2:0:0:
283,146,128660,1,0,1:0:0:0:
296,92,128774,1,0,1:0:0:0:
269,44,128887,1,0,1:0:0:0:
216,27,129001,2,0,P|179:24|162:24,1,41.2500015735627,2|0,1:2|1:0,0:0:0:0:
37,81,129228,1,2,1:2:0:0:
144,98,129910,6,0,P|171:131|173:178,1,82.5000031471254,0|0,0:0|0:0,0:0:0:0:
47,228,130365,2,0,P|62:188|101:162,1,82.5000031471254,0|0,0:0|0:0,0:0:0:0:
131,256,130819,1,0,0:0:0:0:
131,256,131046,1,0,0:0:0:0:
56,345,131274,6,0,P|88:362|123:365,1,71.4999967269899,6|0,1:2|0:0,0:0:0:0:
198,236,131501,2,0,P|163:239|130:256,1,71.4999967269899,0|0,1:0|0:0,0:0:0:0:
316,384,131728,2,0,P|332:317|295:242,1,142.99999345398,8|0,0:1|0:0,0:0:0:0:
226,163,132069,1,2,0:0:0:0:
226,163,132183,2,0,P|279:177|306:170,1,71.4999967269899,2|2,0:0|0:0,0:0:0:0:
318,48,132410,2,0,P|279:86|271:113,1,71.4999967269899,2|0,1:2|0:0,0:0:0:0:
375,182,132637,2,0,P|360:129|341:109,1,71.4999967269899,8|0,0:1|0:0,0:0:0:0:
150,125,132865,5,2,0:0:0:0:
150,125,132978,2,0,P|220:141|275:98,1,142.99999345398,2|0,0:0|0:0,0:0:0:0:
90,15,133319,2,0,P|77:48|88:101,1,71.4999967269899,2|0,1:2|0:0,0:0:0:0:
198,257,133546,1,8,0:1:0:0:
198,257,134001,6,0,P|201:222|188:189,1,71.4999967269899,2|2,0:0|0:0,0:0:0:0:
60,206,134228,2,0,P|90:227|125:232,1,71.4999967269899,2|0,1:2|0:0,0:0:0:0:
210,85,134455,2,0,P|145:59|78:84,1,142.99999345398,8|2,0:1|0:0,0:0:0:0:
123,232,134910,6,0,P|132:266|153:294,1,71.4999967269899,2|0,0:0|0:0,0:0:0:0:
207,372,135137,2,0,P|229:344|238:310,1,71.4999967269899,0|0,1:0|0:0,0:0:0:0:
22,292,135365,2,0,P|89:318|163:284,1,142.99999345398,8|0,0:1|0:0,0:0:0:0:
336,235,135705,1,2,0:0:0:0:
336,235,135819,2,0,P|269:209|195:243,1,142.99999345398,2|2,0:0|1:2,0:0:0:0:
425,266,136274,2,0,P|422:219|403:185,1,71.4999967269899,8|0,0:1|0:0,0:0:0:0:
344,92,136501,2,0,L|334:259,1,142.99999345398,2|2,0:0|0:0,0:0:0:0:
396,33,136955,6,0,P|337:17|303:28,1,71.4999967269899,10|8,1:2|0:0,0:0:0:0:
200,89,137183,2,0,P|236:89|268:75,1,71.4999967269899,8|0,0:1|1:0,0:0:0:0:
81,32,137410,1,0,0:0:0:0:
81,32,137524,1,0,0:0:0:0:
81,32,137637,2,0,L|88:145,1,71.4999967269899,8|0,0:0|0:0,0:0:0:0:
11,173,137865,2,0,L|6:244,1,71.4999967269899,10|8,0:0|0:0,0:0:0:0:
59,376,138092,5,8,0:1:0:0:
153,272,138319,1,2,0:0:0:0:
5,244,138546,6,0,P|42:260|86:251,1,71.4999967269899,2|0,1:2|0:0,0:0:0:0:
130,155,138774,2,0,P|95:160|67:181,1,71.4999967269899,0|0,1:0|0:0,0:0:0:0:
207,354,139001,2,0,P|241:307|220:212,1,142.99999345398,8|0,0:1|0:0,0:0:0:0:
207,134,139342,1,2,0:0:0:0:
207,134,139455,2,0,P|264:157|331:137,1,71.4999967269899,2|2,0:0|0:0,0:0:0:0:
333,52,139683,2,0,P|298:58|262:86,1,71.4999967269899,2|0,1:2|0:0,0:0:0:0:
394,111,139910,2,0,P|415:82|420:47,1,71.4999967269899,8|0,0:1|0:0,0:0:0:0:
274,237,140137,5,2,0:0:0:0:
274,237,140251,2,0,P|376:217|420:230,1,142.99999345398,2|0,0:0|0:0,0:0:0:0:
389,333,140592,2,0,P|341:325|293:336,1,71.4999967269899,0|0,1:0|0:0,0:0:0:0:
106,362,140819,1,8,0:1:0:0:
106,362,141274,6,0,P|103:327|116:294,1,71.4999967269899,2|2,0:0|0:0,0:0:0:0:
244,314,141501,2,0,P|214:335|179:340,1,71.4999967269899,2|0,1:2|0:0,0:0:0:0:
51,198,141728,2,0,P|116:172|183:197,1,142.99999345398,8|2,0:1|0:0,0:0:0:0:
320,249,142183,6,0,P|347:290|348:339,1,71.4999967269899,2|0,0:0|0:0,0:0:0:0:
258,203,142410,2,0,P|268:168|290:140,1,71.4999967269899,0|0,1:0|0:0,0:0:0:0:
500,118,142637,2,0,P|433:92|359:126,1,142.99999345398,8|0,0:1|0:0,0:0:0:0:
127,200,142978,1,2,0:0:0:0:
127,200,143092,2,0,P|194:226|268:192,1,142.99999345398,0|2,0:0|1:2,0:0:0:0:
44,169,143546,2,0,P|36:212|46:244,1,71.4999967269899,8|0,0:1|0:0,0:0:0:0:
135,342,143774,6,0,L|125:175,1,142.99999345398,2|2,0:0|0:0,0:0:0:0:
337,82,144228,6,0,P|326:116|302:142,1,71.4999967269899,0|0,1:0|0:0,0:0:0:0:
249,223,144455,2,0,P|221:192|212:152,1,71.4999967269899,8|0,0:1|0:0,0:0:0:0:
179,67,144796,1,2,1:2:0:0:
179,67,144910,2,0,L|313:76,1,71.4999967269899,0|8,0:0|0:1,0:0:0:0:
426,129,145137,5,2,1:2:0:0:
250,225,145365,1,8,0:1:0:0:
434,269,145592,1,0,1:0:0:0:
138,60,153092,6,0,L|143:181,1,110,8|8,0:1|0:1,0:0:0:0:
125,69,154001,2,0,L|130:190,1,110,8|8,0:1|0:1,0:0:0:0:
258,131,154910,6,0,L|254:205,3,55,8|2|8|0,0:1|1:2|0:1|1:0,0:0:0:0:
271,137,155819,2,0,L|267:211,3,55,8|0|8|0,0:1|1:0|0:1|1:0,0:0:0:0:
391,199,156728,6,0,L|387:124,3,55,8|0|8|0,0:1|1:0|0:1|1:0,0:0:0:0:
405,192,157637,2,0,L|401:117,3,55,8|2|8|0,0:1|1:2|0:1|1:0,0:0:0:0:
302,289,158546,5,8,0:1:0:0:
266,317,158660,1,8,0:1:0:0:
220,319,158774,1,8,0:1:0:0:
183,291,158887,1,8,0:1:0:0:
170,247,159001,1,8,0:1:0:0:
187,205,159115,1,8,0:1:0:0:
227,181,159228,1,8,0:1:0:0:
272,187,159342,1,8,0:1:0:0:
305,226,159455,5,8,0:1:0:0:
270,261,159569,1,8,0:1:0:0:
227,285,159683,1,8,0:1:0:0:
179,295,159796,1,8,0:1:0:0:
130,290,159910,1,8,0:1:0:0:
84,272,160024,1,8,0:1:0:0:
46,240,160137,1,8,0:1:0:0:
46,240,160365,6,0,P|39:212|42:177,1,60.5,2|0,0:0|0:0,0:0:0:0:
60,350,161728,1,4,0:0:0:0:
60,350,161955,2,0,P|139:329|220:340,1,165.000006294251,2|4,0:0|1:0,0:0:0:0:
229,259,162410,6,0,P|218:304|229:369,1,82.5000031471254,2|2,1:2|0:0,0:0:0:0:
330,284,162637,2,0,P|331:242|321:203,1,82.5000031471254,8|2,0:1|0:0,0:0:0:0:
212,167,162865,1,2,0:0:0:0:
212,167,162978,1,2,0:0:0:0:
212,167,163092,2,0,L|90:172,1,82.5000031471254,2|0,0:0|0:0,0:0:0:0:
69,96,163319,2,0,L|151:92,1,82.5000031471254,2|0,1:2|0:0,0:0:0:0:
65,239,163546,1,8,0:1:0:0:
65,239,163660,2,0,P|33:178|86:84,1,165.000006294251,2|0,0:0|0:0,0:0:0:0:
165,55,164001,1,0,1:0:0:0:
294,163,164228,6,0,L|172:168,1,82.5000031471254,2|2,1:2|0:0,0:0:0:0:
259,73,164455,2,0,L|381:78,1,82.5000031471254,8|2,0:1|0:0,0:0:0:0:
332,232,164683,2,0,P|300:191|298:123,1,82.5000031471254,2|2,0:0|0:0,0:0:0:0:
436,80,164910,2,0,P|428:120|402:151,1,82.5000031471254,2|0,0:0|0:0,0:0:0:0:
248,57,165137,2,0,L|370:62,1,82.5000031471254,2|2,1:2|0:0,0:0:0:0:
189,154,165365,1,8,0:1:0:0:
189,154,165478,2,0,P|145:104|149:5,1,165.000006294251,0|0,0:0|0:0,0:0:0:0:
293,162,165819,6,0,L|286:262,1,82.5000031471254,2|2,1:2|0:0,0:0:0:0:
411,303,166046,2,0,L|405:220,1,82.5000031471254,2|2,1:2|0:0,0:0:0:0:
198,274,166274,2,0,P|247:328|335:323,1,165.000006294251,8|2,0:1|0:0,0:0:0:0:
207,194,166615,1,2,0:0:0:0:
207,194,166728,2,0,L|73:189,1,82.5000031471254,2|2,0:0|0:0,0:0:0:0:
25,273,166955,2,0,L|159:268,1,82.5000031471254,2|2,1:2|0:0,0:0:0:0:
59,31,167183,1,8,0:1:0:0:
59,31,167296,2,0,B|21:71|21:71|28:198,1,165.000006294251,2|2,0:0|0:0,0:0:0:0:
108,270,167637,6,0,P|110:228|123:190,1,82.5000031471254,10|2,1:2|0:0,0:0:0:0:
278,225,167865,2,0,P|241:243|200:251,1,82.5000031471254,10|10,0:0|0:0,0:0:0:0:
155,101,168092,2,0,P|189:123|216:154,1,82.5000031471254,10|10,0:0|0:0,0:0:0:0:
273,335,168319,2,0,L|155:328,1,82.5000031471254,2|2,0:0|0:0,0:0:0:0:
278,225,168546,1,2,0:0:0:0:
370,338,168774,1,2,0:0:0:0:
425,117,169001,5,10,0:0:0:0:
484,181,169152,1,2,0:0:0:0:
486,269,169304,1,2,0:0:0:0:
423,321,169455,6,0,L|305:314,1,115.49999647522,6|0,1:2|0:0,0:0:0:0:
278,225,169910,2,0,L|279:197,6,19.2499994125366,2|2|2|2|2|2|2,0:0|0:0|0:0|0:0|0:0|0:0|0:0,0:0:0:0:
156,146,170365,5,2,0:0:0:0:
206,79,170516,1,2,0:0:0:0:
290,89,170668,1,2,0:0:0:0:
190,223,170819,5,2,1:2:0:0:
106,213,170971,1,2,0:0:0:0:
73,135,171122,1,2,0:0:0:0:
240,156,171274,5,2,0:0:0:0:
273,232,171425,1,2,0:0:0:0:
222,300,171577,1,2,0:0:0:0:
144,119,171728,6,0,L|143:171,2,51.3333317667644,2|2|2,1:2|0:0|0:0,0:0:0:0:
126,306,172183,2,0,L|128:255,2,51.3333317667644,10|2|2,0:0|0:0|0:0,0:0:0:0:
112,131,172637,6,0,B|111:199|111:199|95:227|95:227|93:291,1,165,2|0,0:0|0:0,0:0:0:0:
256,281,173092,6,0,P|200:256|160:262,1,82.5000031471254,0|0,1:0|0:0,0:0:0:0:
335,346,173319,2,0,L|339:251,1,82.5000031471254,2|2,1:2|0:0,0:0:0:0:
280,117,173546,2,0,L|277:200,1,82.5000031471254,8|2,0:1|0:0,0:0:0:0:
443,149,173774,2,0,P|402:152|367:173,1,82.5000031471254,2|2,0:0|0:0,0:0:0:0:
420,384,174001,2,0,B|450:340|450:340|428:209,1,165.000006294251,2|0,0:0|0:0,0:0:0:0:
363,90,174342,2,0,L|367:191,1,82.5000031471254,2|8,0:0|0:1,0:0:0:0:
429,24,174569,2,0,P|374:-1|285:41,1,165.000006294251,2|2,0:0|0:0,0:0:0:0:
240,110,174910,6,0,P|205:149|158:155,1,82.5000031471254,10|10,1:2|0:0,0:0:0:0:
101,27,175137,2,0,P|139:40|163:73,1,82.5000031471254,10|2,1:2|0:0,0:0:0:0:
93,266,175365,2,0,B|68:231|68:231|85:105,1,165.000006294251,8|2,0:1|0:0,0:0:0:0:
296,304,175819,2,0,B|226:280|170:328|170:328|114:376|44:352,1,247.500009441376,2|2,0:0|0:0,0:0:0:0:
167,163,176274,6,0,L|159:219,1,49.4999984893799,4|0,0:1|0:0,0:0:0:0:
322,115,176728,6,0,L|223:108,1,82.5000031471254,6|0,1:2|0:0,0:0:0:0:
397,200,176955,2,0,L|479:205,1,82.5000031471254,0|0,1:0|0:0,0:0:0:0:
271,261,177183,2,0,L|105:249,1,165.000006294251,8|0,0:1|0:0,0:0:0:0:
16,284,177524,2,0,L|181:295,1,165.000006294251,2|2,0:0|0:0,0:0:0:0:
128,170,177865,2,0,P|88:167|42:193,1,82.5000031471254,2|0,1:2|0:0,0:0:0:0:
201,127,178092,2,0,P|172:98|120:89,1,82.5000031471254,8|0,0:1|0:0,0:0:0:0:
283,141,178319,2,0,P|279:101|245:60,1,82.5000031471254,2|0,0:0|0:0,0:0:0:0:
330,224,178546,6,0,L|325:329,1,82.5000031471254,2|0,1:2|0:0,0:0:0:0:
478,265,178774,2,0,L|474:182,1,82.5000031471254,0|0,1:0|0:0,0:0:0:0:
419,76,179001,2,0,L|254:66,1,165.000006294251,8|0,0:1|0:0,0:0:0:0:
155,92,179342,2,0,L|319:101,1,165.000006294251,2|2,0:0|0:0,0:0:0:0:
176,173,179683,2,0,P|136:176|90:150,1,82.5000031471254,2|0,1:2|0:0,0:0:0:0:
249,216,179910,2,0,P|220:245|168:254,1,82.5000031471254,8|0,0:1|0:0,0:0:0:0:
331,202,180137,2,0,P|327:242|293:283,1,82.5000031471254,2|0,0:0|0:0,0:0:0:0:
184,337,180365,6,0,L|179:224,1,82.5000031471254,2|0,0:0|0:0,0:0:0:0:
98,158,180592,2,0,L|94:240,1,82.5000031471254,0|0,1:0|0:0,0:0:0:0:
193,165,180819,2,0,L|357:155,1,165.000006294251,8|0,0:1|0:0,0:0:0:0:
457,181,181160,2,0,L|292:190,1,165.000006294251,2|2,0:0|0:0,0:0:0:0:
180,254,181501,2,0,P|216:271|257:268,1,82.5000031471254,2|0,1:2|0:0,0:0:0:0:
262,350,181728,2,0,P|301:339|330:310,1,82.5000031471254,8|0,0:1|0:0,0:0:0:0:
384,371,181955,2,0,P|407:337|411:297,1,82.5000031471254,2|0,0:0|0:0,0:0:0:0:
357,154,182183,6,0,L|350:270,1,82.5000031471254,2|0,0:0|0:0,0:0:0:0:
457,181,182410,2,0,L|450:98,1,82.5000031471254,0|0,1:0|0:0,0:0:0:0:
272,186,182637,2,0,L|262:350,1,165.000006294251,8|0,0:1|0:0,0:0:0:0:
237,251,182978,2,0,L|246:86,1,165.000006294251,2|0,1:2|1:0,0:0:0:0:
168,38,183319,2,0,P|151:74|154:115,1,82.5000031471254,2|0,0:0|0:0,0:0:0:0:
72,120,183546,2,0,P|83:159|112:188,1,82.5000031471254,8|0,0:1|0:0,0:0:0:0:
51,242,183774,2,0,P|85:265|125:269,1,82.5000031471254,2|0,0:0|0:0,0:0:0:0:
236,119,184001,6,0,L|125:114,1,82.5000031471254,2|0,1:2|0:0,0:0:0:0:
237,251,184228,2,0,L|348:246,1,82.5000031471254,0|0,1:0|0:0,0:0:0:0:
423,199,184455,2,0,L|257:206,1,165.000006294251,8|0,0:1|0:0,0:0:0:0:
200,291,184796,2,0,L|364:282,1,165.000006294251,2|2,0:0|0:0,0:0:0:0:
504,212,185137,2,0,P|499:171|477:137,1,82.5000031471254,2|0,1:2|0:0,0:0:0:0:
423,199,185365,2,0,P|394:170|354:158,1,82.5000031471254,8|0,0:1|0:0,0:0:0:0:
350,241,185592,2,0,P|309:237|272:254,1,82.5000031471254,2|0,0:0|0:0,0:0:0:0:
497,294,185819,6,0,L|507:169,1,82.5000031471254,2|0,1:2|0:0,0:0:0:0:
348,76,186046,2,0,L|354:158,1,82.5000031471254,0|0,1:0|0:0,0:0:0:0:
364,282,186274,2,0,L|199:292,1,165.000006294251,8|0,0:1|0:0,0:0:0:0:
100,266,186615,2,0,L|264:257,1,165.000006294251,2|2,0:0|0:0,0:0:0:0:
318,184,186955,2,0,P|280:166|240:170,1,82.5000031471254,2|0,1:2|0:0,0:0:0:0:
236,89,187183,2,0,P|196:100|167:129,1,82.5000031471254,8|0,0:1|0:0,0:0:0:0:
114,67,187410,2,0,P|91:100|87:141,1,82.5000031471254,2|0,0:0|0:0,0:0:0:0:
181,250,187637,6,0,L|264:256,1,82.5000031471254,2|0,0:0|0:0,0:0:0:0:
400,178,187865,2,0,L|318:184,1,82.5000031471254,0|0,1:0|0:0,0:0:0:0:
164,281,188092,2,0,L|329:291,1,165.000006294251,8|0,0:1|0:0,0:0:0:0:
428,265,188433,2,0,L|264:256,1,165.000006294251,2|2,0:0|0:0,0:0:0:0:
191,192,188774,2,0,P|182:152|193:113,1,82.5000031471254,2|0,1:2|0:0,0:0:0:0:
262,154,189001,2,0,P|280:117|315:95,1,82.5000031471254,8|0,0:1|0:0,0:0:0:0:
345,170,189228,2,0,P|382:154|422:159,1,82.5000031471254,2|0,0:0|0:0,0:0:0:0:
431,347,189455,6,0,L|427:256,1,82.5000031471254,2|0,0:0|0:0,0:0:0:0:
512,114,189683,2,0,L|508:196,1,82.5000031471254,0|0,1:0|0:0,0:0:0:0:
428,265,189910,2,0,L|264:256,1,165.000006294251,8|0,0:1|0:0,0:0:0:0:
218,155,190365,6,0,P|227:115|255:85,1,82.5000031471254,2|0,0:0|1:0,0:0:0:0:
156,211,190592,2,0,P|137:174|139:134,1,82.5000031471254,2|0,0:0|0:0,0:0:0:0:
145,291,190819,2,0,P|107:275|82:243,1,82.5000031471254,8|0,0:1|0:0,0:0:0:0:
188,360,191046,2,0,P|149:371|109:363,1,82.5000031471254,2|0,0:0|0:0,0:0:0:0:
263,255,191274,6,0,L|327:258,1,49.4999984893799,2|0,0:0|0:0,0:0:0:0:
407,218,191728,6,0,P|319:196|324:272,1,176,12|0,0:1|0:0,0:0:0:0:
346,360,192069,1,0,0:0:0:0:
346,360,192183,2,0,P|302:365|262:349,1,88,2|0,0:0|0:0,0:0:0:0:
146,373,192410,2,0,P|140:329|156:289,1,88,2|0,1:2|0:0,0:0:0:0:
128,191,192637,2,0,P|171:185|211:201,1,88,8|0,0:1|0:0,0:0:0:0:
322,173,192865,2,0,P|327:216|311:256,1,88,2|0,0:0|0:0,0:0:0:0:
43,148,193092,6,0,P|33:222|55:260,1,88,2|0,1:2|0:0,0:0:0:0:
191,86,193319,2,0,P|149:72|107:81,1,88,2|0,1:2|0:0,0:0:0:0:
214,200,193546,1,8,0:1:0:0:
214,200,193774,2,0,L|114:197,1,88,2|0,0:0|0:0,0:0:0:0:
412,159,194001,6,0,P|417:202|401:242,1,88,2|0,0:0|0:0,0:0:0:0:
425,359,194228,2,0,P|381:364|341:348,1,88,2|0,1:2|0:0,0:0:0:0:
243,377,194455,2,0,P|237:333|253:293,1,88,8|0,0:1|0:0,0:0:0:0:
225,183,194683,2,0,P|268:177|308:193,1,88,2|0,0:0|0:0,0:0:0:0:
172,308,194910,6,0,P|132:311|-23:350,1,176,2|2,1:2|1:2,0:0:0:0:
233,210,195365,1,8,0:1:0:0:
93,198,195592,2,0,P|57:195|0:178,1,88,0|0,0:0|0:0,0:0:0:0:
169,125,195819,6,0,P|167:81|142:47,1,88,2|2,0:0|0:0,0:0:0:0:
225,183,196046,2,0,P|251:148|255:104,1,88,2|2,1:2|0:0,0:0:0:0:
225,263,196274,2,0,P|268:252|298:221,1,88,8|2,0:1|0:0,0:0:0:0:
175,322,196501,2,0,P|214:341|258:337,1,88,0|0,0:0|0:0,0:0:0:0:
7,181,196728,6,0,B|-11:241|-11:241|0:357,1,176,0|8,1:0|1:2,0:0:0:0:
108,197,197069,1,8,0:0:0:0:
108,197,197183,2,0,P|107:153|81:119,1,88,8|8,0:1|0:0,0:0:0:0:
253,348,197410,5,0,0:0:0:0:
253,348,197524,1,8,0:0:0:0:
253,348,197637,2,0,B|137:366|137:366|66:336,1,176,2|0,1:2|0:0,0:0:0:0:
248,178,198092,2,0,B|270:231|270:231|252:347,1,176,12|2,0:1|0:0,0:0:0:0:
34,160,198546,6,0,P|63:60|126:47,1,176,2|2,1:2|1:2,0:0:0:0:
147,55,198887,1,0,0:0:0:0:
147,55,199001,2,0,P|173:89|175:133,1,88,8|0,0:1|0:0,0:0:0:0:
30,306,199228,2,0,P|4:272|2:228,1,88,2|0,0:0|0:0,0:0:0:0:
348,177,199455,6,0,P|305:173|262:181,1,88,2|0,0:0|0:0,0:0:0:0:
306,359,199683,2,0,P|314:308|306:258,1,88,2|0,1:2|0:0,0:0:0:0:
126,305,199910,2,0,P|176:313|226:306,1,88,8|0,0:1|0:0,0:0:0:0:
175,132,200137,2,0,P|166:182|175:232,1,88,2|0,0:0|0:0,0:0:0:0:
348,177,200365,6,0,P|425:160|521:214,1,176,2|2,1:2|1:2,0:0:0:0:
275,102,200819,1,8,0:1:0:0:
416,35,201046,2,0,P|463:32|529:22,1,88,2|0,0:0|0:0,0:0:0:0:
246,21,201274,6,0,P|274:77|272:113,1,88,2|0,0:0|0:0,0:0:0:0:
348,184,201501,2,0,P|292:212|256:210,1,88,2|0,1:2|0:0,0:0:0:0:
191,282,201728,2,0,P|163:226|165:190,1,88,8|0,0:1|0:0,0:0:0:0:
89,119,201955,2,0,P|145:91|181:93,1,88,2|0,0:0|0:0,0:0:0:0:
356,16,202183,6,0,P|329:92|359:202,1,176,2|2,1:2|1:2,0:0:0:0:
451,182,202524,1,0,0:0:0:0:
451,182,202637,2,0,P|445:137|387:97,1,88,8|0,0:1|0:0,0:0:0:0:
303,260,202865,2,0,P|344:277|408:247,1,88,0|0,0:0|0:0,0:0:0:0:
282,102,203092,6,0,P|259:62|227:32,1,88,2|2,0:0|0:0,0:0:0:0:
182,129,203319,2,0,P|143:105|100:95,1,88,2|2,1:2|0:0,0:0:0:0:
115,202,203546,2,0,P|69:199|28:213,1,88,8|2,0:1|0:0,0:0:0:0:
93,299,203774,2,0,P|50:316|18:346,1,88,0|0,0:0|0:0,0:0:0:0:
276,236,204001,6,0,B|297:269|297:269|281:367,1,110,0|8,1:0|1:2,0:0:0:0:
93,299,204455,2,0,L|224:289,1,123.750004720688,8|8,0:1|0:0,0:0:0:0:
376,271,204910,5,2,0:2:0:0:
376,271,205365,1,2,0:0:0:0:
