osu file format v14

[General]
AudioFilename: audio.mp3
AudioLeadIn: 0
PreviewTime: 86620
Countdown: 0
SampleSet: Soft
StackLeniency: 0.7
Mode: 0
LetterboxInBreaks: 0
WidescreenStoryboard: 1

[Editor]
Bookmarks: 102194,191739
DistanceSpacing: 1
BeatDivisor: 4
GridSize: 32
TimelineZoom: 1.9

[Metadata]
Title:LIKEY
TitleUnicode:LIKEY
Artist:TWICE
ArtistUnicode:트와이스
Creator:ailv
Version:Normal
Source:
Tags:kpop k-pop jyp comeback entertainment korea once sana jihyo dahyun nayeon anvil jeongyeon chaeyoung momo mina tzuyu 나연 정연 모모 사나 지효 미나 다현 채영 쯔위 -_Tatan_- aliv what is love 5th mini album
BeatmapID:1710672
BeatmapSetID:814038

[Difficulty]
HPDrainRate:2
CircleSize:3
OverallDifficulty:4
ApproachRate:6
SliderMultiplier:1
SliderTickRate:1

[Events]
//Background and Video events
0,0,"BG.jpg",0,0
//Break Periods
2,147637,153860
//Storyboard Layer 0 (Background)
//Storyboard Layer 1 (Fail)
//Storyboard Layer 2 (Pass)
//Storyboard Layer 3 (Foreground)
//Storyboard Sound Samples

[TimingPoints]
365,454.545454545455,4,2,0,60,1,0
14910,-100,4,2,0,80,0,0
21728,-100,4,2,0,80,0,0
22183,-100,4,2,0,80,0,0
28546,-100,4,2,0,60,0,0
29455,-100,4,2,0,60,0,0
58546,-100,4,2,0,60,0,0
65819,-100,4,2,0,70,0,0
73092,-100,4,2,0,80,0,0
87637,-100,4,2,0,80,0,0
94455,-100,4,2,0,80,0,0
94910,-100,4,2,0,80,0,0
101274,-100,4,2,0,60,0,0
102183,-100,4,2,0,60,0,0
108546,-100,4,2,0,60,0,0
109001,-100,4,2,0,60,0,0
114910,-100,4,2,0,60,0,0
116728,-100,4,2,0,60,0,0
124001,-100,4,2,0,70,0,0
131274,-100,4,2,0,80,0,0
145819,-100,4,2,0,60,0,0
153092,-100,4,2,0,50,0,0
154342,-100,4,2,0,60,0,0
154683,-100,4,2,0,70,0,0
160365,-100,4,2,0,50,0,0
161728,-100,4,2,0,60,0,0
161955,-100,4,2,0,70,0,0
162183,-100,4,2,0,80,0,0
169455,-100,4,2,0,70,0,0
173092,-100,4,2,0,80,0,0
175819,-100,4,2,0,60,0,0
176274,-100,4,2,0,80,0,0
176728,-100,4,2,0,80,0,0
191274,-100,4,2,0,60,0,0
191728,-100,4,2,0,80,0,0
198092,-100,4,2,0,80,0,0
198546,-100,4,2,0,80,0,0
204904,-100,4,2,0,80,0,0
204910,-100,4,2,0,70,0,0
205251,-100,4,2,0,70,0,0
205365,-100,4,2,0,70,0,0
205705,-100,4,2,0,70,0,0

[Colours]
Combo1 : 129,123,238
Combo2 : 234,150,245

[HitObjects]
78,277,14910,6,0,P|151:255|182:263,1,100,6|8,1:2|0:1,0:0:0:0:
211,284,15592,1,2,0:0:0:0:
253,309,15819,2,0,L|352:313,1,100,2|8,0:0|0:1,0:0:0:0:
440,264,16728,6,0,L|432:199,1,50,2|2,1:2|1:2,0:0:0:0:
456,116,17410,1,2,0:0:0:0:
459,66,17637,2,0,P|405:55|356:79,1,100,2|8,0:0|0:1,0:0:0:0:
286,133,18546,6,0,L|219:128,1,50,2|2,1:2|1:2,0:0:0:0:
205,89,19001,1,8,0:1:0:0:
119,140,19455,2,0,L|126:194,1,50,2|2,0:0|1:2,0:0:0:0:
164,220,19910,2,0,L|157:274,1,50,8|0,0:1|0:0,0:0:0:0:
142,317,20365,5,0,1:0:0:0:
241,308,20819,2,0,L|352:316,1,100,8|2,0:1|1:2,0:0:0:0:
390,322,21501,1,0,0:0:0:0:
390,322,21728,1,12,0:1:0:0:
462,252,22183,6,0,P|477:201|462:145,1,100,2|8,1:2|0:1,0:0:0:0:
442,112,22865,1,2,0:0:0:0:
395,93,23092,2,0,L|296:89,1,100,2|8,0:0|0:1,0:0:0:0:
195,75,24001,6,0,L|203:140,1,50,2|2,1:2|1:2,0:0:0:0:
263,203,24683,1,2,0:0:0:0:
259,252,24910,2,0,P|212:268|164:257,1,100,2|8,0:0|0:1,0:0:0:0:
67,279,25819,6,0,L|72:212,1,50,2|2,1:2|1:2,0:0:0:0:
77,179,26274,1,8,0:1:0:0:
22,95,26728,2,0,L|76:88,1,50,2|2,0:0|1:2,0:0:0:0:
104,50,27183,2,0,L|153:56,1,50,8|0,0:1|0:0,0:0:0:0:
202,65,27637,5,0,1:0:0:0:
296,32,28092,2,0,P|299:88|276:132,1,100,8|2,0:1|1:2,0:0:0:0:
280,126,29455,6,0,L|395:121,1,100,2|8,1:2|0:1,0:0:0:0:
474,238,30592,1,0,1:0:0:0:
439,273,30819,2,0,L|389:275,1,50,8|2,0:1|1:2,0:0:0:0:
343,296,31274,6,0,P|280:291|229:307,1,100,2|8,0:2|0:1,0:0:0:0:
101,343,32410,1,2,1:2:0:0:
64,309,32637,2,0,L|69:252,1,50,8|2,0:1|0:2,0:0:0:0:
41,217,33092,6,0,P|98:231|149:229,1,100,2|8,1:2|0:1,0:0:0:0:
284,195,34228,1,0,1:0:0:0:
326,221,34455,2,0,L|384:225,1,50,8|2,0:1|1:2,0:0:0:0:
425,226,34910,6,0,P|442:177|422:121,1,100,2|8,0:2|0:1,0:0:0:0:
338,90,35819,2,0,L|343:34,2,50,2|2|8,0:0|1:2|0:1,0:0:0:0:
245,128,36728,6,0,P|235:179|255:243,1,100,2|8,1:2|0:1,0:0:0:0:
282,259,37410,2,0,L|389:253,1,100,2|0,0:2|1:0,0:0:0:0:
430,267,38092,2,0,L|434:330,1,50,8|2,0:1|1:2,0:0:0:0:
440,366,38546,5,2,0:2:0:0:
339,364,39001,2,0,P|286:360|240:360,1,100,8|2,0:1|0:0,0:0:0:0:
190,371,39683,1,2,1:2:0:0:
190,371,39910,2,0,L|190:309,1,50,8|0,0:1|0:0,0:0:0:0:
204,273,40365,6,0,P|152:280|95:268,1,100,2|8,1:2|0:1,0:0:0:0:
0,183,41501,1,0,1:0:0:0:
14,135,41728,2,0,L|20:68,1,50,8|2,0:1|1:2,0:0:0:0:
55,51,42183,6,0,P|108:69|163:58,1,100,2|8,0:2|0:2,0:0:0:0:
242,22,43092,1,10,0:2:0:0:
315,89,43546,1,8,0:1:0:0:
251,166,44001,6,0,L|169:159,2,75,6|0|2,1:2|1:0|1:2,0:0:0:0:
297,185,44910,2,0,P|351:179|399:199,1,100,2|8,0:0|0:1,0:0:0:0:
441,282,45819,2,0,L|518:278,2,75,2|0|2,1:2|1:0|1:2,0:0:0:0:
412,323,46728,2,0,L|291:311,1,100,2|8,0:0|0:1,0:0:0:0:
231,254,47637,6,0,P|215:284|212:333,2,75,2|0|2,1:2|1:0|1:2,0:0:0:0:
269,221,48546,2,0,L|261:103,1,100,2|8,0:0|0:1,0:0:0:0:
174,72,49455,2,0,P|103:64|85:68,2,75,2|2|2,1:2|1:2|1:2,0:0:0:0:
215,43,50365,2,0,L|315:38,1,100,2|8,0:0|0:1,0:0:0:0:
397,94,51274,6,0,P|450:98|487:111,2,75,2|0|2,1:2|1:0|1:2,0:0:0:0:
368,135,52183,2,0,L|364:246,1,100,0|8,0:0|0:1,0:0:0:0:
396,329,53092,2,0,P|450:324|484:317,2,75,2|2|2,1:2|1:2|1:2,0:0:0:0:
349,347,54001,2,0,L|237:341,1,100,2|8,0:0|0:1,0:0:0:0:
209,249,54910,6,0,P|217:193|218:156,2,75,2|0|2,1:2|1:0|1:2,0:0:0:0:
165,274,55819,2,0,P|111:282|66:261,1,100,0|8,0:0|0:1,0:0:0:0:
92,166,56728,6,0,P|34:170|17:175,2,75,10|2|10,1:2|1:2|1:2,0:0:0:0:
192,174,57865,1,2,0:0:0:0:
192,174,58546,6,0,L|314:168,1,100,10|10,0:0|0:0,0:0:0:0:
300,268,59455,2,0,L|200:272,1,100,8|10,0:0|0:0,0:0:0:0:
109,315,60365,6,0,B|95:280|95:280|107:207,1,100,10|10,0:0|0:0,0:0:0:0:
196,177,61274,2,0,B|210:212|210:212|198:285,1,100,8|10,0:0|0:0,0:0:0:0:
292,310,62183,6,0,P|341:328|400:319,1,100,10|10,0:0|0:0,0:0:0:0:
403,224,63092,2,0,P|354:206|295:215,1,100,10|10,0:0|0:0,0:0:0:0:
207,223,64001,6,0,L|215:114,1,100,10|10,0:0|0:0,0:0:0:0:
115,117,64910,2,0,L|106:216,1,100,8|10,0:0|0:0,0:0:0:0:
63,306,65819,5,2,1:2:0:0:
145,363,66274,1,10,1:2:0:0:
225,303,66728,2,0,P|299:290|338:309,1,100,0|10,1:0|1:2,0:0:0:0:
379,378,67637,5,2,1:2:0:0:
436,296,68092,1,10,1:2:0:0:
376,216,68546,2,0,P|363:142|382:103,1,100,0|10,1:0|1:2,0:0:0:0:
371,20,69455,6,0,L|306:17,1,50,2|2,1:2|1:2,0:0:0:0:
279,46,69910,2,0,L|214:43,1,50,2|2,1:2|1:2,0:0:0:0:
184,67,70365,2,0,P|170:125|182:165,1,100,2|2,1:2|1:2,0:0:0:0:
221,192,71046,1,2,1:2:0:0:
147,275,72637,5,4,0:1:0:0:
147,275,73092,6,0,L|266:282,1,100,6|8,1:2|0:1,0:0:0:0:
337,238,74001,2,0,L|341:176,1,50,2|2,0:0|1:2,0:0:0:0:
363,143,74455,2,0,L|367:81,1,50,8|2,0:1|0:0,0:0:0:0:
365,42,74910,6,0,P|323:23|259:38,1,100,2|8,1:2|0:1,0:0:0:0:
191,91,75819,2,0,L|139:86,1,50,2|2,0:0|1:2,0:0:0:0:
91,79,76274,1,8,0:1:0:0:
64,175,76728,6,0,L|163:184,1,100,2|8,0:0|0:1,0:0:0:0:
250,233,77637,2,0,P|231:284|242:337,1,100,2|8,0:0|0:1,0:0:0:0:
276,360,78319,1,2,0:0:0:0:
323,376,78546,6,0,L|442:369,1,100,2|8,0:0|0:1,0:0:0:0:
498,240,79683,1,10,0:0:0:0:
510,191,79910,2,0,L|500:127,1,50,8|2,0:1|0:0,0:0:0:0:
470,102,80365,6,0,L|351:95,1,100,2|8,1:2|0:1,0:0:0:0:
274,66,81274,2,0,L|270:128,1,50,2|2,0:0|1:2,0:0:0:0:
300,156,81728,2,0,L|296:218,1,50,8|2,0:1|0:0,0:0:0:0:
294,256,82183,6,0,P|252:275|188:260,1,100,2|8,1:2|0:1,0:0:0:0:
104,295,83092,2,0,L|109:243,1,50,2|2,0:0|1:2,0:0:0:0:
114,195,83546,1,8,0:1:0:0:
77,102,84001,6,0,L|176:111,1,100,2|8,0:0|0:1,0:0:0:0:
272,81,84910,2,0,P|278:130|259:175,1,100,0|8,0:0|0:1,0:0:0:0:
226,213,85592,1,2,0:0:0:0:
179,231,85819,2,0,L|79:236,1,100,2|8,0:0|0:1,0:0:0:0:
34,93,86955,5,2,1:2:0:0:
34,93,87183,2,0,L|106:87,1,50,4|2,0:1|0:0,0:0:0:0:
133,80,87637,6,0,P|183:64|233:80,1,100,6|8,1:2|0:1,0:0:0:0:
267,106,88319,1,2,0:0:0:0:
300,142,88546,2,0,L|296:241,1,100,2|8,0:0|0:1,0:0:0:0:
328,336,89455,6,0,L|263:344,1,50,2|2,1:2|1:2,0:0:0:0:
180,361,90137,1,2,0:0:0:0:
130,367,90365,2,0,P|113:320|124:272,1,100,2|8,0:0|0:1,0:0:0:0:
195,202,91274,6,0,L|262:207,1,50,2|2,1:2|1:2,0:0:0:0:
294,209,91728,1,8,0:1:0:0:
389,239,92183,2,0,L|382:185,1,50,2|2,0:0|1:2,0:0:0:0:
356,146,92637,2,0,L|363:92,1,50,8|0,0:1|0:0,0:0:0:0:
374,47,93092,5,0,1:0:0:0:
271,76,93546,2,0,L|160:68,1,100,8|2,0:1|1:2,0:0:0:0:
122,62,94228,1,0,0:0:0:0:
122,62,94455,1,12,0:1:0:0:
51,133,94910,6,0,P|36:184|51:240,1,100,2|8,1:2|0:1,0:0:0:0:
70,272,95592,1,2,0:0:0:0:
117,291,95819,2,0,L|216:295,1,100,2|8,0:0|0:1,0:0:0:0:
310,259,96728,6,0,L|317:309,1,50,2|2,1:2|1:2,0:0:0:0:
403,359,97410,1,2,0:0:0:0:
440,326,97637,2,0,P|451:278|434:231,1,100,2|8,0:0|0:1,0:0:0:0:
368,156,98546,6,0,L|301:151,1,50,2|2,1:2|1:2,0:0:0:0:
267,152,99001,1,8,0:1:0:0:
190,216,99455,2,0,L|136:223,1,50,2|2,0:0|1:2,0:0:0:0:
96,197,99910,2,0,L|46:190,1,50,8|0,0:1|0:0,0:0:0:0:
24,145,100365,5,0,1:0:0:0:
94,74,100819,2,0,P|150:71|194:94,1,100,8|2,0:1|0:2,0:0:0:0:
103,270,102183,6,0,L|8:262,2,75,2|0|10,1:2|1:0|0:0,0:0:0:0:
154,356,103319,1,2,0:0:0:0:
154,356,103546,2,0,L|204:353,1,50,8|2,0:0|0:0,0:0:0:0:
238,317,104001,6,0,P|233:268|233:224,2,75,0|0|10,1:0|1:0|0:0,0:0:0:0:
378,370,105365,1,10,0:0:0:0:
436,289,105819,6,0,P|487:295|527:298,2,75,2|0|10,1:2|1:0|0:0,0:0:0:0:
395,259,106728,2,0,L|389:202,2,50,2|2|10,0:0|0:0|0:0,0:0:0:0:
314,318,107637,6,0,P|250:320|223:318,2,75,2|0|2,1:2|1:0|0:0,0:0:0:0:
363,309,108546,2,0,P|374:260|345:209,1,100,2|10,0:0|0:0,0:0:0:0:
298,132,109455,6,0,P|362:117|392:124,2,75,0|0|10,1:0|1:0|0:0,0:0:0:0:
178,223,110819,1,10,0:0:0:0:
121,140,111274,6,0,L|133:55,2,75,0|2|10,1:0|1:2|0:0,0:0:0:0:
85,167,112183,2,0,L|19:174,2,50,2|2|10,0:0|0:0|0:0,0:0:0:0:
168,221,113092,6,0,P|233:212|248:213,2,75,0|0|10,1:0|1:0|0:0,0:0:0:0:
109,302,114228,1,2,0:0:0:0:
109,302,114455,2,0,L|47:295,2,50,10|2|2,0:0|0:0|0:0,0:0:0:0:
495,196,116728,6,0,L|501:318,1,100,10|10,0:0|0:0,0:0:0:0:
401,304,117637,2,0,L|396:204,1,100,8|10,0:0|0:0,0:0:0:0:
322,135,118546,6,0,B|260:124|260:124|225:138,1,100,10|10,0:0|0:0,0:0:0:0:
177,226,119455,2,0,B|238:236|238:236|273:222,1,100,8|10,0:0|0:0,0:0:0:0:
373,217,120365,6,0,L|364:316,1,100,10|10,0:0|0:0,0:0:0:0:
458,353,121274,2,0,L|466:253,1,100,10|10,0:0|0:0,0:0:0:0:
499,158,122183,6,0,P|447:143|395:154,1,100,10|10,0:0|0:0,0:0:0:0:
315,201,123092,2,0,P|265:208|218:193,1,100,8|10,0:0|0:0,0:0:0:0:
164,109,124001,5,2,1:2:0:0:
228,32,124455,1,10,1:2:0:0:
322,65,124910,2,0,L|435:71,1,100,0|10,1:0|1:2,0:0:0:0:
460,162,125819,5,2,1:2:0:0:
396,239,126274,1,10,1:2:0:0:
302,206,126728,2,0,L|189:200,1,100,0|10,1:0|1:2,0:0:0:0:
106,231,127637,6,0,L|109:166,1,50,2|2,1:2|1:2,0:0:0:0:
80,139,128092,2,0,L|83:74,1,50,2|2,1:2|1:2,0:0:0:0:
113,49,128546,2,0,P|160:40|210:57,1,100,2|2,1:2|1:2,0:0:0:0:
248,85,129228,1,2,1:2:0:0:
68,254,130819,5,0,0:0:0:0:
68,254,131274,6,0,L|187:261,1,100,6|8,1:2|0:1,0:0:0:0:
258,301,132183,2,0,L|262:239,1,50,2|2,0:0|1:2,0:0:0:0:
293,212,132637,2,0,L|297:150,1,50,8|2,0:1|0:0,0:0:0:0:
302,112,133092,6,0,P|260:93|196:108,1,100,2|8,1:2|0:1,0:0:0:0:
115,63,134001,2,0,L|121:122,1,50,2|2,0:0|1:2,0:0:0:0:
128,162,134455,1,8,0:1:0:0:
72,244,134910,6,0,P|124:263|171:253,1,100,2|8,0:0|0:1,0:0:0:0:
258,214,135819,2,0,L|250:318,1,100,2|8,0:0|0:1,0:0:0:0:
271,359,136501,1,2,0:0:0:0:
317,377,136728,6,0,L|436:370,1,100,2|8,0:0|0:1,0:0:0:0:
492,241,137865,1,10,0:0:0:0:
503,192,138092,2,0,L|493:144,1,50,8|2,0:1|0:0,0:0:0:0:
470,102,138546,6,0,P|415:92|361:113,1,100,2|8,1:2|0:1,0:0:0:0:
316,186,139455,2,0,L|312:248,1,50,2|2,0:0|1:2,0:0:0:0:
348,271,139910,2,0,L|344:333,1,50,8|2,0:1|0:0,0:0:0:0:
362,367,140365,6,0,P|292:377|248:360,1,100,2|8,1:2|0:1,0:0:0:0:
166,382,141274,2,0,L|171:330,1,50,2|2,0:0|1:2,0:0:0:0:
177,282,141728,1,8,0:1:0:0:
234,200,142183,6,0,L|134:190,1,100,2|8,0:0|0:1,0:0:0:0:
52,247,143092,2,0,P|33:201|39:152,1,100,0|8,0:0|0:1,0:0:0:0:
63,107,143774,1,2,0:0:0:0:
102,77,144001,2,0,L|201:71,1,100,2|8,0:0|0:1,0:0:0:0:
348,36,145137,5,2,1:2:0:0:
348,36,145365,2,0,L|354:108,1,50,8|0,0:1|1:0,0:0:0:0:
94,316,154910,6,0,L|208:320,1,100,8|8,0:1|0:1,0:0:0:0:
274,260,155819,2,0,L|388:264,1,100,8|8,0:1|0:1,0:0:0:0:
454,322,156728,6,0,P|472:260|455:213,1,100,8|8,0:1|0:1,0:0:0:0:
382,168,157637,2,0,P|364:121|372:73,1,100,8|8,0:1|0:1,0:0:0:0:
283,28,158546,5,8,0:1:0:0:
234,40,158774,1,8,0:1:0:0:
185,49,159001,2,0,P|168:97|184:160,1,100,8|8,0:1|0:1,0:0:0:0:
241,219,159910,2,0,P|258:267|242:330,1,100,8|2,0:1|0:0,0:0:0:0:
195,348,161728,5,4,0:0:0:0:
195,348,162183,2,0,L|85:341,1,100,4|8,1:0|0:1,0:0:0:0:
8,219,163319,1,2,1:2:0:0:
8,169,163546,2,0,L|24:101,1,50,8|0,0:1|0:0,0:0:0:0:
53,83,164001,6,0,P|122:77|158:99,1,100,0|8,1:0|0:1,0:0:0:0:
175,132,164683,2,0,L|165:234,1,100,2|2,0:0|1:2,0:0:0:0:
158,281,165365,1,8,0:1:0:0:
234,345,165819,6,0,L|338:344,1,100,2|8,1:2|0:1,0:0:0:0:
414,284,166728,2,0,P|424:231|397:187,1,100,2|8,0:0|0:1,0:0:0:0:
306,166,167637,2,0,L|245:163,1,50,10|10,1:2|0:0,0:0:0:0:
214,192,168092,2,0,L|153:189,1,50,10|2,0:0|0:0,0:0:0:0:
117,171,168546,1,2,0:0:0:0:
67,175,168774,1,2,0:0:0:0:
18,184,169001,6,0,P|10:139|10:123,2,33.3333333333333,10|2|2,0:0|0:0|0:0,0:0:0:0:
31,214,169455,1,6,1:2:0:0:
209,304,170365,6,0,P|260:293|316:310,1,100,2|2,0:0|1:2,0:0:0:0:
378,373,171274,2,0,P|369:317|388:269,1,100,2|2,0:0|1:2,0:0:0:0:
459,212,172183,2,0,P|468:156|449:108,1,100,10|2,0:0|0:0,0:0:0:0:
380,48,173092,6,0,L|262:41,1,100,0|8,1:0|0:1,0:0:0:0:
137,89,174228,1,0,0:0:0:0:
100,123,174455,2,0,L|109:190,1,50,8|2,0:1|0:0,0:0:0:0:
75,211,174910,6,0,P|125:203|177:215,1,100,10|8,1:2|0:1,0:0:0:0:
213,242,175592,1,2,0:0:0:0:
213,242,175819,1,2,0:0:0:0:
44,349,176728,6,0,L|39:286,1,50,6|0,1:2|1:0,0:0:0:0:
80,269,177183,2,0,L|166:271,2,75,8|2|2,0:1|0:0|1:2,0:0:0:0:
40,177,178319,2,0,L|101:179,1,50,2|2,0:0|1:2,0:0:0:0:
176,128,179001,6,0,P|177:78|159:46,2,75,8|2|2,0:1|0:0|1:2,0:0:0:0:
156,174,179910,1,8,0:1:0:0:
222,248,180365,6,0,L|277:247,1,50,2|0,0:0|1:0,0:0:0:0:
311,215,180819,2,0,P|312:166|316:128,2,75,8|2|2,0:1|0:0|1:2,0:0:0:0:
352,243,181728,2,0,L|407:242,1,50,8|2,0:1|0:0,0:0:0:0:
452,243,182183,5,2,0:0:0:0:
493,152,182637,2,0,P|481:86|479:60,2,75,8|2|2,0:1|1:2|0:0,0:0:0:0:
509,199,183546,1,8,0:1:0:0:
409,206,184001,6,0,L|414:269,1,50,2|0,1:2|1:0,0:0:0:0:
373,286,184455,2,0,L|287:284,2,75,8|2|2,0:1|0:0|1:2,0:0:0:0:
464,327,185592,2,0,L|466:266,1,50,2|2,0:0|1:2,0:0:0:0:
440,180,186274,6,0,P|477:176|511:189,2,75,8|2|2,0:1|0:0|1:2,0:0:0:0:
391,192,187183,1,8,0:1:0:0:
307,246,187637,6,0,L|252:247,1,50,2|0,0:0|1:0,0:0:0:0:
209,263,188092,2,0,P|208:312|204:350,2,75,8|2|2,0:1|0:0|1:2,0:0:0:0:
159,256,189001,2,0,L|104:257,1,50,8|2,0:1|0:0,0:0:0:0:
61,241,189455,5,2,0:0:0:0:
73,141,189910,2,0,P|7:153|-19:155,2,75,8|2|2,0:1|1:2|0:0,0:0:0:0:
121,128,190819,1,8,0:1:0:0:
49,314,191728,5,12,0:1:0:0:
98,306,191955,1,0,0:0:0:0:
147,302,192183,2,0,L|246:306,1,100,2|8,0:0|0:1,0:0:0:0:
343,334,193092,6,0,L|335:269,1,50,2|2,1:2|1:2,0:0:0:0:
361,187,193774,1,2,0:0:0:0:
350,138,194001,2,0,P|296:127|247:151,1,100,2|8,0:0|0:1,0:0:0:0:
157,122,194910,6,0,L|152:189,1,50,2|2,1:2|1:2,0:0:0:0:
113,203,195365,1,8,0:1:0:0:
169,285,195819,2,0,L|223:278,1,50,2|2,0:0|1:2,0:0:0:0:
249,240,196274,2,0,L|303:247,1,50,8|0,0:1|0:0,0:0:0:0:
348,250,196728,5,0,1:0:0:0:
436,296,197183,2,0,L|444:185,1,100,8|2,0:1|1:2,0:0:0:0:
450,147,197865,1,0,0:0:0:0:
450,147,198092,1,12,0:1:0:0:
504,63,198546,6,0,P|453:48|397:63,1,100,2|8,1:2|0:1,0:0:0:0:
364,81,199228,1,2,0:0:0:0:
334,121,199455,2,0,L|330:220,1,100,2|8,0:0|0:1,0:0:0:0:
363,315,200365,6,0,L|298:323,1,50,2|2,1:2|1:2,0:0:0:0:
228,373,201046,1,2,0:0:0:0:
179,369,201274,2,0,P|163:322|174:274,1,100,2|8,0:0|0:1,0:0:0:0:
249,208,202183,6,0,L|254:141,1,50,2|2,1:2|1:2,0:0:0:0:
257,108,202637,1,8,0:1:0:0:
190,33,203092,2,0,L|244:26,1,50,2|2,0:0|1:2,0:0:0:0:
288,15,203546,2,0,L|337:21,1,50,8|0,0:1|0:0,0:0:0:0:
381,44,204001,6,0,P|384:100|361:144,1,100,0|8,1:0|0:2,0:0:0:0:
278,188,204910,5,2,0:2:0:0:
178,175,205365,1,2,0:2:0:0:
