osu file format v14

[General]
AudioFilename: audio.mp3
AudioLeadIn: 0
PreviewTime: 86620
Countdown: 0
SampleSet: Soft
StackLeniency: 0.7
Mode: 0
LetterboxInBreaks: 0
WidescreenStoryboard: 1

[Editor]
Bookmarks: 191739
DistanceSpacing: 1.4
BeatDivisor: 4
GridSize: 32
TimelineZoom: 1.9

[Metadata]
Title:LIKEY
TitleUnicode:LIKEY
Artist:TWICE
ArtistUnicode:트와이스
Creator:ailv
Version:Hard
Source:
Tags:kpop k-pop jyp comeback entertainment korea once sana jihyo dahyun nayeon anvil jeongyeon chaeyoung momo mina tzuyu 나연 정연 모모 사나 지효 미나 다현 채영 쯔위 -_Tatan_- aliv what is love 5th mini album
BeatmapID:1710373
BeatmapSetID:814038

[Difficulty]
HPDrainRate:4
CircleSize:3.5
OverallDifficulty:6
ApproachRate:7.5
SliderMultiplier:1.4
SliderTickRate:1

[Events]
//Background and Video events
0,0,"BG.jpg",0,0
//Break Periods
2,147637,152267
//Storyboard Layer 0 (Background)
//Storyboard Layer 1 (Fail)
//Storyboard Layer 2 (Pass)
//Storyboard Layer 3 (Foreground)
//Storyboard Sound Samples

[TimingPoints]
365,454.545454545455,4,2,0,60,1,0
14910,-100,4,2,0,80,0,0
21728,-100,4,2,0,80,0,0
22183,-100,4,2,0,80,0,0
28546,-100,4,2,0,60,0,0
29455,-125,4,2,0,60,0,0
58546,-100,4,2,0,60,0,0
65819,-100,4,2,0,70,0,0
73092,-100,4,2,0,80,0,0
87637,-100,4,2,0,80,0,0
94455,-100,4,2,0,80,0,0
94910,-100,4,2,0,80,0,0
101274,-100,4,2,0,60,0,0
102183,-125,4,2,0,60,0,0
108546,-125,4,2,0,60,0,0
109001,-125,4,2,0,60,0,0
114910,-125,4,2,0,60,0,0
116728,-100,4,2,0,60,0,0
124001,-100,4,2,0,70,0,0
131274,-100,4,2,0,80,0,0
145819,-100,4,2,0,60,0,0
153092,-100,4,2,0,50,0,0
154342,-100,4,2,0,60,0,0
154683,-100,4,2,0,70,0,0
160365,-100,4,2,0,50,0,0
161728,-100,4,2,0,60,0,0
161955,-100,4,2,0,70,0,0
162183,-100,4,2,0,80,0,0
169455,-100,4,2,0,70,0,0
173092,-100,4,2,0,80,0,0
175819,-100,4,2,0,60,0,0
176274,-100,4,2,0,80,0,0
176728,-100,4,2,0,80,0,0
191274,-100,4,2,0,60,0,0
191728,-100,4,2,0,80,0,0
198092,-100,4,2,0,80,0,0
198546,-100,4,2,0,80,0,0
204904,-100,4,2,0,80,0,0
204910,-100,4,2,0,70,0,0
205251,-100,4,2,0,70,0,0
205365,-100,4,2,0,70,0,0
205705,-100,4,2,0,70,0,0

[Colours]
Combo1 : 129,123,238
Combo2 : 234,150,245

[HitObjects]
152,112,14910,6,0,L|81:107,2,70,6|2|8,1:2|1:2|0:1,0:0:0:0:
248,92,15592,1,2,0:0:0:0:
313,164,15819,2,0,P|322:207|303:260,1,70,2|2,0:0|1:2,0:0:0:0:
242,295,16274,2,0,P|233:338|252:391,1,70,8|2,0:1|0:0,0:0:0:0:
331,335,16728,6,0,L|417:339,2,70,2|2|8,1:2|1:2|0:1,0:0:0:0:
237,363,17410,1,2,0:0:0:0:
157,305,17637,2,0,L|167:220,1,70,2|2,0:0|1:2,0:0:0:0:
234,165,18092,2,0,L|224:80,1,70,8|2,0:1|0:0,0:0:0:0:
137,52,18546,6,0,P|99:49|51:61,2,70,2|2|8,1:2|1:2|0:1,0:0:0:0:
224,6,19228,1,0,0:0:0:0:
304,61,19455,1,2,0:0:0:0:
304,61,19569,1,2,0:0:0:0:
304,61,19683,2,0,L|357:68,1,35,2|2,1:2|0:0,0:0:0:0:
379,93,19910,2,0,L|369:164,1,70,8|0,0:1|0:0,0:0:0:0:
333,253,20365,6,0,L|238:246,1,70,0|8,1:0|1:2,0:0:0:0:
211,263,20705,1,8,0:0:0:0:
211,263,20819,2,0,L|218:168,1,70,8|0,0:1|0:0,0:0:0:0:
223,95,21274,5,2,1:2:0:0:
137,63,21501,1,0,0:0:0:0:
69,134,21728,2,0,L|75:218,1,70,12|2,0:1|0:0,0:0:0:0:
65,301,22183,6,0,P|23:291|-24:298,2,70,2|2|8,1:2|1:2|0:1,0:0:0:0:
150,349,22865,1,2,0:0:0:0:
231,294,23092,2,0,L|241:217,1,70,2|2,0:0|1:2,0:0:0:0:
211,130,23546,2,0,L|201:53,1,70,8|2,0:1|0:0,0:0:0:0:
292,23,24001,6,0,P|348:24|382:32,2,70,2|2|8,1:2|1:2|0:1,0:0:0:0:
201,60,24683,1,2,0:0:0:0:
114,13,24910,2,0,P|100:67|109:98,1,70,2|2,0:0|1:2,0:0:0:0:
169,152,25365,2,0,P|183:206|174:237,1,70,8|2,0:1|0:0,0:0:0:0:
92,261,25819,6,0,L|21:268,2,70,2|2|8,1:2|1:2|0:1,0:0:0:0:
183,223,26501,1,0,0:0:0:0:
249,294,26728,1,2,0:0:0:0:
249,294,26842,1,2,0:0:0:0:
249,294,26955,2,0,L|308:287,1,35,2|2,1:2|0:0,0:0:0:0:
328,311,27183,2,0,L|409:301,1,70,8|0,0:1|0:0,0:0:0:0:
482,351,27637,6,0,L|487:281,1,70,0|8,1:0|1:2,0:0:0:0:
481,232,27978,1,8,0:0:0:0:
481,232,28092,2,0,L|475:162,1,70,8|0,0:1|0:0,0:0:0:0:
403,95,28546,5,2,1:2:0:0:
403,95,29455,6,0,L|321:89,1,56,2|2,1:2|0:2,0:0:0:0:
285,42,29910,2,0,L|229:46,1,56,8|2,0:1|0:2,0:0:0:0:
174,102,30365,2,0,L|118:97,1,56,2|0,0:2|1:0,0:0:0:0:
59,149,30819,1,8,0:1:0:0:
76,225,31046,1,2,1:2:0:0:
60,302,31274,6,0,L|181:302,1,112,2|8,0:2|0:1,0:0:0:0:
244,331,31955,1,2,0:0:0:0:
303,279,32183,2,0,L|300:206,1,56,2|2,0:0|1:2,0:0:0:0:
269,151,32637,2,0,L|271:95,1,56,8|2,0:1|0:2,0:0:0:0:
328,41,33092,5,2,1:2:0:0:
395,81,33319,1,2,0:2:0:0:
464,45,33546,2,0,P|472:75|468:119,1,56,8|2,0:1|0:2,0:0:0:0:
416,155,34001,2,0,P|408:181|407:209,1,56,2|0,0:2|1:0,0:0:0:0:
443,279,34455,5,8,0:1:0:0:
386,334,34683,1,2,1:2:0:0:
312,308,34910,2,0,L|195:302,1,112,2|8,0:2|0:1,0:0:0:0:
130,338,35592,1,2,0:0:0:0:
72,284,35819,2,0,L|79:209,1,56,2|2,0:0|1:2,0:0:0:0:
24,170,36274,2,0,L|17:95,1,56,8|2,0:1|0:2,0:0:0:0:
74,58,36728,5,2,1:2:0:0:
141,97,36955,2,0,L|202:90,1,56,2|8,0:2|0:1,0:0:0:0:
262,47,37410,1,2,0:2:0:0:
319,100,37637,1,2,0:2:0:0:
371,41,37865,2,0,L|435:51,1,56,0|8,1:0|0:1,0:0:0:0:
480,105,38319,1,2,1:2:0:0:
438,171,38546,6,0,P|383:160|327:184,1,112,2|8,0:2|0:1,0:0:0:0:
287,244,39228,1,2,0:0:0:0:
210,226,39455,2,0,L|134:223,1,56,2|2,0:0|1:2,0:0:0:0:
105,285,39910,2,0,L|29:282,1,56,8|0,0:1|0:0,0:0:0:0:
1,220,40365,6,0,P|-1:182|16:153,1,56,2|2,1:2|0:2,0:0:0:0:
75,130,40819,2,0,P|77:91|60:62,1,56,8|2,0:1|0:2,0:0:0:0:
18,17,41274,2,0,L|82:19,1,56,2|0,0:2|1:0,0:0:0:0:
149,37,41728,2,0,L|213:39,1,56,8|2,0:1|1:2,0:0:0:0:
266,87,42183,6,0,P|230:152|248:203,1,112,2|8,0:2|0:2,0:0:0:0:
285,247,42865,1,10,0:2:0:0:
358,274,43092,2,0,L|416:268,1,56,10|2,0:2|1:2,0:0:0:0:
480,227,43546,2,0,L|474:171,1,56,8|0,0:1|0:0,0:0:0:0:
408,128,44001,6,0,P|339:158|304:125,1,112,6|8,1:2|0:1,0:0:0:0:
259,85,44683,1,2,1:2:0:0:
194,129,44910,2,0,L|200:208,1,56,2|2,0:0|0:0,0:0:0:0:
234,254,45365,2,0,L|228:333,1,56,8|2,0:1|0:0,0:0:0:0:
162,349,45819,6,0,P|98:366|55:349,1,112,2|8,1:2|0:1,0:0:0:0:
21,280,46501,1,2,1:2:0:0:
21,280,46615,1,2,0:0:0:0:
21,280,46728,2,0,L|28:221,1,56,2|2,0:0|0:0,0:0:0:0:
94,182,47183,2,0,L|87:123,1,56,8|0,0:1|0:0,0:0:0:0:
123,57,47637,6,0,P|168:39|249:68,1,112,2|8,1:2|0:1,0:0:0:0:
280,110,48319,1,2,1:2:0:0:
342,63,48546,2,0,L|417:68,1,56,2|0,0:0|0:0,0:0:0:0:
458,116,49001,2,0,L|453:191,1,56,8|2,0:1|0:0,0:0:0:0:
470,207,49342,1,2,0:0:0:0:
470,207,49455,1,2,1:2:0:0:
416,264,49683,6,0,L|283:251,1,112,0|2,0:0|1:2,0:0:0:0:
233,286,50365,1,2,0:0:0:0:
168,241,50592,2,0,L|176:164,1,56,2|8,0:0|0:1,0:0:0:0:
216,119,51046,1,2,0:0:0:0:
172,53,51274,6,0,P|134:48|101:55,1,56,2|2,1:2|0:0,0:0:0:0:
51,94,51728,1,8,0:1:0:0:
79,166,51955,1,2,1:2:0:0:
36,232,52183,2,0,L|44:311,1,56,0|2,0:0|0:0,0:0:0:0:
30,325,52524,1,2,0:0:0:0:
30,325,52637,1,8,0:1:0:0:
103,354,52865,1,2,0:0:0:0:
178,334,53092,6,0,L|258:337,1,56,2|2,1:2|0:0,0:0:0:0:
308,360,53546,2,0,L|363:357,1,56,8|2,0:1|1:2,0:0:0:0:
442,364,54001,2,0,P|452:310|427:259,1,112,2|8,0:0|0:1,0:0:0:0:
382,196,54683,1,0,0:0:0:0:
422,129,54910,6,0,L|418:68,1,56,2|2,1:2|0:0,0:0:0:0:
426,34,55251,1,0,1:0:0:0:
426,34,55365,2,0,L|365:38,1,56,8|2,0:1|1:2,0:0:0:0:
305,81,55819,2,0,L|244:85,1,56,0|2,0:0|0:0,0:0:0:0:
180,46,56274,2,0,P|166:80|174:122,1,56,8|2,0:1|0:0,0:0:0:0:
190,173,56728,6,0,P|141:146|70:174,1,112,10|8,1:2|0:1,0:0:0:0:
48,225,57410,1,10,1:2:0:0:
80,296,57637,2,0,L|88:369,1,56,10|2,0:0|0:0,0:0:0:0:
160,376,58092,2,0,L|233:368,1,56,2|2,0:0|0:0,0:0:0:0:
297,315,58546,6,0,L|285:241,1,70,10|2,0:0|0:0,0:0:0:0:
212,287,59001,2,0,L|200:213,1,70,10|0,0:0|0:0,0:0:0:0:
128,260,59455,2,0,L|116:186,1,70,8|2,0:0|0:0,0:0:0:0:
43,232,59910,2,0,L|31:158,1,70,10|2,0:0|0:0,0:0:0:0:
66,86,60365,6,0,L|148:75,1,70,10|2,0:0|0:0,0:0:0:0:
127,160,60819,2,0,L|209:149,1,70,10|0,0:0|0:0,0:0:0:0:
181,233,61274,2,0,L|263:222,1,70,8|2,0:0|0:0,0:0:0:0:
242,307,61728,2,0,L|324:296,1,70,10|0,0:0|0:0,0:0:0:0:
395,293,62183,6,0,L|383:376,1,70,10|2,0:0|0:0,0:0:0:0:
422,287,62637,2,0,L|505:299,1,70,10|2,0:0|0:0,0:0:0:0:
411,268,63092,2,0,L|423:185,1,70,10|2,0:0|0:0,0:0:0:0:
384,274,63546,2,0,L|301:262,1,70,10|2,0:0|0:0,0:0:0:0:
232,283,64001,6,0,L|244:200,1,70,10|0,0:0|0:0,0:0:0:0:
205,289,64455,2,0,L|122:277,1,70,10|0,0:0|0:0,0:0:0:0:
216,308,64910,2,0,L|204:391,1,70,8|2,0:0|0:0,0:0:0:0:
243,302,65364,2,0,L|326:314,1,70,10|2,0:0|0:0,0:0:0:0:
394,295,65819,5,2,1:2:0:0:
461,244,66046,1,2,1:2:0:0:
410,176,66274,2,0,L|333:176,2,70,10|0|0,1:2|1:0|1:0,0:0:0:0:
481,132,66955,5,2,1:2:0:0:
481,132,67069,1,2,0:0:0:0:
481,132,67183,1,10,1:2:0:0:
445,55,67410,1,2,1:2:0:0:
373,99,67637,5,2,1:2:0:0:
298,60,67865,1,2,1:2:0:0:
239,120,68092,2,0,L|248:217,2,70,10|0|0,1:2|1:0|1:0,0:0:0:0:
163,82,68774,1,2,1:2:0:0:
79,71,69001,1,10,1:2:0:0:
20,131,69228,1,2,1:2:0:0:
58,205,69455,5,2,1:2:0:0:
75,204,69568,1,0,1:0:0:0:
92,203,69682,1,2,1:2:0:0:
110,202,69795,1,0,1:0:0:0:
127,202,69910,6,0,L|188:197,3,35,2|0|2|0,1:2|1:0|1:2|1:0,0:0:0:0:
140,278,70365,2,0,L|200:272,3,35,2|0|0|0,1:2|1:0|1:0|1:0,0:0:0:0:
151,363,70819,1,2,1:2:0:0:
151,363,70933,1,0,1:0:0:0:
151,363,71046,1,2,1:2:0:0:
251,307,72637,6,0,P|296:298|332:311,1,70,4|0,0:1|0:0,0:0:0:0:
400,323,73092,6,0,L|392:187,1,105,6|0,1:2|0:0,0:0:0:0:
422,178,73546,2,0,L|416:92,1,70,8|0,0:1|0:0,0:0:0:0:
343,48,74001,2,0,P|299:45|259:62,1,70,2|2,0:0|1:2,0:0:0:0:
198,114,74455,1,8,0:1:0:0:
112,81,74683,1,2,0:0:0:0:
112,81,74796,1,2,0:0:0:0:
112,81,74910,5,2,1:2:0:0:
53,167,75137,1,2,1:2:0:0:
125,233,75365,2,0,L|202:226,1,70,8|0,0:1|0:0,0:0:0:0:
235,200,75705,1,2,0:0:0:0:
235,200,75819,1,2,0:0:0:0:
291,279,76046,1,2,1:2:0:0:
222,349,76274,2,0,L|152:355,1,70,8|2,0:1|0:0,0:0:0:0:
54,346,76728,6,0,P|37:301|53:264,1,70,2|0,0:0|1:0,0:0:0:0:
101,202,77183,2,0,P|104:167|88:137,1,70,8|0,0:1|0:0,0:0:0:0:
64,42,77637,2,0,L|157:52,1,70,2|2,0:0|1:2,0:0:0:0:
215,103,78092,1,8,0:1:0:0:
296,49,78319,6,0,L|365:41,1,70,2|2,0:0|0:0,0:0:0:0:
453,85,78774,1,10,1:2:0:0:
453,85,78887,1,8,0:0:0:0:
453,85,79001,2,0,L|442:182,1,70,8|0,0:1|0:0,0:0:0:0:
383,230,79455,2,0,L|393:327,1,70,8|10,0:0|0:0,0:0:0:0:
292,349,79910,1,8,0:1:0:0:
207,298,80137,1,2,0:0:0:0:
120,343,80365,6,0,P|41:338|7:306,1,105,2|0,1:2|0:0,0:0:0:0:
5,278,80819,2,0,L|25:180,1,70,8|0,0:1|0:0,0:0:0:0:
97,150,81274,2,0,L|77:52,1,70,2|2,0:0|1:2,0:0:0:0:
150,10,81728,1,8,0:1:0:0:
238,51,81955,1,2,0:0:0:0:
238,51,82069,1,2,0:0:0:0:
238,51,82183,5,2,1:2:0:0:
203,142,82410,2,0,L|226:239,2,70,0|8|0,1:0|0:1|0:0,0:0:0:0:
106,124,83092,1,2,0:0:0:0:
33,189,83319,1,2,1:2:0:0:
53,284,83546,1,8,0:1:0:0:
148,309,83774,1,2,0:0:0:0:
223,246,84001,6,0,P|272:244|309:252,1,70,2|0,0:0|1:0,0:0:0:0:
365,312,84455,2,0,P|414:314|451:306,1,70,8|0,0:1|0:0,0:0:0:0:
506,243,84910,2,0,L|514:114,1,105,0|0,0:0|0:0,0:0:0:0:
487,95,85365,6,0,P|453:86|404:97,1,70,8|2,0:1|0:0,0:0:0:0:
340,149,85819,2,0,L|258:144,1,70,2|0,0:0|1:0,0:0:0:0:
191,85,86274,2,0,L|121:89,1,70,8|0,0:1|0:0,0:0:0:0:
55,162,86728,6,0,P|49:204|66:241,1,70,2|2,0:0|1:2,0:0:0:0:
140,282,87183,2,0,L|225:275,1,70,4|2,0:1|0:0,0:0:0:0:
290,220,87637,6,0,L|295:149,2,70,6|2|8,1:2|1:2|0:1,0:0:0:0:
339,304,88319,1,2,0:0:0:0:
266,369,88546,2,0,P|223:378|170:359,1,70,2|2,0:0|1:2,0:0:0:0:
179,276,89001,2,0,P|136:267|83:286,1,70,8|2,0:1|0:0,0:0:0:0:
68,359,89455,6,0,L|-25:351,2,70,2|2|8,1:2|1:2|0:1,0:0:0:0:
110,271,90137,1,2,0:0:0:0:
26,219,90364,2,0,L|34:149,1,70,2|2,0:0|1:2,0:0:0:0:
119,105,90819,2,0,L|128:175,1,70,8|2,0:1|0:0,0:0:0:0:
209,229,91273,6,0,P|247:232|295:220,2,70,2|2|8,1:2|1:2|0:1,0:0:0:0:
128,175,91955,1,0,0:0:0:0:
74,257,92182,1,2,0:0:0:0:
74,257,92296,1,2,0:0:0:0:
74,257,92410,2,0,L|81:310,1,35,2|2,1:2|0:0,0:0:0:0:
91,339,92637,2,0,L|160:329,1,70,8|0,0:1|0:0,0:0:0:0:
257,346,93092,6,0,L|352:339,1,70,0|8,1:0|1:2,0:0:0:0:
379,356,93432,1,8,0:0:0:0:
379,356,93546,2,0,L|372:261,1,70,8|0,0:1|0:0,0:0:0:0:
307,213,94001,5,2,1:2:0:0:
339,127,94228,1,0,0:0:0:0:
268,59,94455,2,0,L|184:65,1,70,12|2,0:1|0:0,0:0:0:0:
101,80,94910,6,0,P|59:70|12:77,2,70,2|2|8,1:2|1:2|0:1,0:0:0:0:
198,63,95592,1,2,0:0:0:0:
260,138,95819,2,0,L|250:215,1,70,2|2,0:0|1:2,0:0:0:0:
341,245,96273,2,0,L|351:322,1,70,8|2,0:1|0:0,0:0:0:0:
262,359,96728,6,0,P|206:358|172:350,2,70,2|2|8,1:2|1:2|0:1,0:0:0:0:
346,308,97410,1,2,0:0:0:0:
427,362,97637,2,0,P|441:308|432:277,1,70,2|2,0:0|1:2,0:0:0:0:
390,209,98092,2,0,P|376:155|385:124,1,70,8|2,0:1|0:0,0:0:0:0:
430,59,98546,6,0,L|501:52,2,70,2|2|8,1:2|1:2|0:1,0:0:0:0:
338,23,99228,1,0,0:0:0:0:
262,85,99455,1,2,0:0:0:0:
262,85,99569,1,2,0:0:0:0:
262,85,99682,2,0,L|203:92,1,35,2|2,1:2|0:0,0:0:0:0:
183,68,99910,2,0,L|102:78,1,70,8|0,0:1|0:0,0:0:0:0:
64,161,100364,6,0,L|59:231,1,70,0|8,1:0|1:2,0:0:0:0:
86,271,100705,1,0,0:0:0:0:
86,271,100819,2,0,L|156:265,1,70,8|0,0:1|0:0,0:0:0:0:
253,255,101273,5,2,0:2:0:0:
328,83,102183,6,0,P|403:81|427:93,2,84,2|0|10,1:2|1:0|0:0,0:0:0:0:
256,49,103092,2,0,P|250:66|253:108,1,56,2|2,0:0|0:0,0:0:0:0:
315,172,103547,1,8,0:0:0:0:
315,172,103660,1,2,0:0:0:0:
315,172,103774,1,2,0:0:0:0:
262,230,104002,6,0,L|178:225,2,84,0|0|10,1:0|1:0|0:0,0:0:0:0:
308,293,104911,2,0,L|381:290,1,56,2|0,0:0|0:0,0:0:0:0:
423,239,105365,2,0,L|420:166,1,56,10|2,0:0|0:0,0:0:0:0:
435,147,105705,1,2,0:0:0:0:
435,147,105819,6,0,P|480:144|525:168,2,84,2|0|10,1:2|1:0|0:0,0:0:0:0:
370,102,106728,1,2,0:0:0:0:
301,63,106955,1,2,0:0:0:0:
240,112,107183,2,0,L|246:171,1,56,10|0,0:0|0:0,0:0:0:0:
203,233,107637,6,0,P|164:223|114:222,2,84,2|0|2,1:2|1:0|0:0,0:0:0:0:
250,296,108547,2,0,L|322:289,1,56,2|0,0:0|0:0,0:0:0:0:
361,235,109001,2,0,L|416:240,1,56,10|0,0:0|0:0,0:0:0:0:
464,178,109455,6,0,L|476:80,2,84,0|0|10,1:0|1:0|0:0,0:0:0:0:
416,240,110365,2,0,P|409:273|413:303,1,56,0|0,0:0|0:0,0:0:0:0:
373,363,110819,1,10,0:0:0:0:
295,371,111046,1,2,0:0:0:0:
239,315,111274,6,0,L|253:216,2,84,0|2|10,1:0|1:2|0:0,0:0:0:0:
166,344,112183,1,2,0:0:0:0:
90,363,112410,1,2,0:0:0:0:
23,322,112637,2,0,P|17:271|22:246,1,56,10|0,0:0|0:0,0:0:0:0:
77,215,113092,6,0,P|147:223|183:228,2,84,0|0|10,1:0|1:0|0:0,0:0:0:0:
20,160,114001,2,0,P|19:118|29:93,1,56,2|2,0:0|0:0,0:0:0:0:
80,51,114455,2,0,P|122:50|147:60,1,56,10|2,0:0|0:0,0:0:0:0:
164,127,114910,5,2,0:0:0:0:
165,362,116046,5,2,0:0:0:0:
165,362,116274,2,0,L|230:354,1,56,2|2,0:0|0:0,0:0:0:0:
296,293,116728,6,0,L|284:219,1,70,10|2,0:0|0:0,0:0:0:0:
211,265,117183,2,0,L|199:191,1,70,10|0,0:0|0:0,0:0:0:0:
127,238,117637,2,0,L|115:164,1,70,8|2,0:0|0:0,0:0:0:0:
42,210,118092,2,0,L|30:136,1,70,10|2,0:0|0:0,0:0:0:0:
132,70,118547,6,0,L|121:152,1,70,10|2,0:0|0:0,0:0:0:0:
211,97,119001,2,0,L|200:179,1,70,10|0,0:0|0:0,0:0:0:0:
290,123,119456,2,0,L|279:205,1,70,8|2,0:0|0:0,0:0:0:0:
369,151,119910,2,0,L|358:233,1,70,10|0,0:0|0:0,0:0:0:0:
274,269,120365,6,0,L|286:186,1,70,10|2,0:0|0:0,0:0:0:0:
247,275,120819,2,0,L|164:263,1,70,10|2,0:0|0:0,0:0:0:0:
258,294,121274,2,0,L|246:377,1,70,10|2,0:0|0:0,0:0:0:0:
285,288,121728,2,0,L|368:300,1,70,10|2,0:0|0:0,0:0:0:0:
413,219,122183,6,0,L|401:136,1,70,10|0,0:0|0:0,0:0:0:0:
440,225,122637,2,0,L|523:213,1,70,10|0,0:0|0:0,0:0:0:0:
429,244,123092,2,0,L|441:327,1,70,8|2,0:0|0:0,0:0:0:0:
402,238,123546,2,0,L|319:250,1,70,10|2,0:0|0:0,0:0:0:0:
258,312,124001,5,2,1:2:0:0:
192,239,124228,1,2,1:2:0:0:
237,151,124456,2,0,L|314:151,2,70,10|0|0,1:2|1:0|1:0,0:0:0:0:
149,107,125137,5,2,1:2:0:0:
149,107,125251,1,2,0:0:0:0:
149,107,125365,1,10,1:2:0:0:
77,174,125592,1,2,1:2:0:0:
93,270,125819,5,2,1:2:0:0:
189,288,126047,1,2,1:2:0:0:
261,221,126274,2,0,L|252:124,2,70,10|0|0,1:2|1:0|1:0,0:0:0:0:
331,289,126956,1,2,1:2:0:0:
415,300,127183,1,10,1:2:0:0:
474,240,127410,1,2,1:2:0:0:
436,166,127637,5,2,1:2:0:0:
419,167,127750,1,0,1:0:0:0:
402,168,127864,1,2,1:2:0:0:
384,169,127977,1,0,1:0:0:0:
367,169,128092,6,0,L|306:174,3,35,2|0|2|0,1:2|1:0|1:2|1:0,0:0:0:0:
354,93,128547,2,0,L|294:99,3,35,2|0|0|0,1:2|1:0|1:0|1:0,0:0:0:0:
324,17,129001,1,2,1:2:0:0:
324,17,129115,1,0,1:0:0:0:
324,17,129228,1,2,1:2:0:0:
32,243,130819,6,0,P|77:234|113:247,1,70,0|0,0:0|0:0,0:0:0:0:
172,306,131274,6,0,L|308:298,1,105,6|0,1:2|0:0,0:0:0:0:
317,328,131728,2,0,L|403:322,1,70,8|0,0:1|0:0,0:0:0:0:
469,269,132183,2,0,P|472:225|455:185,1,70,2|2,0:0|1:2,0:0:0:0:
385,142,132637,1,8,0:1:0:0:
309,205,132865,1,2,0:0:0:0:
309,205,132978,1,2,0:0:0:0:
309,205,133092,5,2,1:2:0:0:
240,135,133319,1,2,1:2:0:0:
148,170,133547,2,0,L|154:100,1,70,8|0,0:1|0:0,0:0:0:0:
123,62,133887,1,2,0:0:0:0:
123,62,134001,1,2,0:0:0:0:
209,16,134228,1,2,1:2:0:0:
284,79,134456,2,0,L|354:73,1,70,8|2,0:1|0:0,0:0:0:0:
451,66,134910,6,0,P|454:100|438:130,1,70,2|0,0:0|1:0,0:0:0:0:
361,191,135365,2,0,P|357:225|373:255,1,70,8|0,0:1|0:0,0:0:0:0:
375,353,135819,2,0,L|305:345,1,70,2|2,0:0|1:2,0:0:0:0:
209,366,136274,1,8,0:1:0:0:
118,329,136501,6,0,L|110:260,1,70,2|2,0:0|0:0,0:0:0:0:
100,161,136956,1,10,1:2:0:0:
100,161,137069,1,8,0:0:0:0:
100,161,137183,2,0,L|30:168,1,70,8|0,0:1|0:0,0:0:0:0:
11,72,137637,2,0,L|80:64,1,70,8|10,0:0|0:0,0:0:0:0:
173,94,138092,1,8,0:1:0:0:
255,41,138319,1,2,0:0:0:0:
319,115,138547,6,0,L|356:228,1,105,2|0,1:2|0:0,0:0:0:0:
396,235,139001,2,0,L|494:215,1,70,8|0,0:1|0:0,0:0:0:0:
490,333,139455,2,0,L|392:313,1,70,2|2,0:0|1:2,0:0:0:0:
335,366,139910,1,8,0:1:0:0:
254,311,140137,1,2,0:0:0:0:
254,311,140251,1,2,0:0:0:0:
254,311,140365,5,2,1:2:0:0:
170,259,140592,2,0,L|174:180,2,70,0|8|0,1:0|0:1|0:0,0:0:0:0:
118,342,141274,1,2,0:0:0:0:
22,322,141501,1,2,1:2:0:0:
0,224,141728,1,8,0:1:0:0:
83,172,141956,1,2,0:0:0:0:
168,219,142183,6,0,P|217:217|254:225,1,70,2|0,0:0|1:0,0:0:0:0:
319,273,142637,2,0,P|368:275|405:267,1,70,8|0,0:1|0:0,0:0:0:0:
465,210,143092,2,0,L|473:81,1,105,0|0,0:0|0:0,0:0:0:0:
450,60,143547,6,0,P|416:51|367:62,1,70,8|2,0:1|0:0,0:0:0:0:
297,104,144001,2,0,L|215:99,1,70,2|0,0:0|1:0,0:0:0:0:
145,44,144456,2,0,L|75:48,1,70,8|0,0:1|0:0,0:0:0:0:
4,115,144910,6,0,P|-2:157|15:194,1,70,0|2,0:0|1:2,0:0:0:0:
86,240,145365,2,0,L|171:233,1,70,8|0,0:1|1:0,0:0:0:0:
91,336,153092,5,8,0:1:0:0:
91,336,153546,1,8,0:1:0:0:
91,336,154001,1,8,0:1:0:0:
91,336,154455,5,8,0:1:0:0:
176,384,154683,1,2,1:2:0:0:
264,341,154910,6,0,L|252:262,1,70,8|2,0:1|1:2,0:0:0:0:
341,315,155365,2,0,L|329:236,1,70,8|0,0:1|1:0,0:0:0:0:
420,284,155819,2,0,L|408:205,1,70,8|0,0:1|1:0,0:0:0:0:
497,258,156274,2,0,L|485:179,1,70,8|0,0:1|1:0,0:0:0:0:
417,118,156728,6,0,L|406:187,1,70,8|0,0:1|1:0,0:0:0:0:
340,92,157183,2,0,L|329:161,1,70,8|0,0:1|1:0,0:0:0:0:
261,61,157637,2,0,L|250:130,1,70,8|2,0:1|1:2,0:0:0:0:
184,35,158092,2,0,L|173:104,1,70,8|0,0:1|1:0,0:0:0:0:
125,189,158546,5,8,0:1:0:0:
108,190,158659,1,8,0:1:0:0:
91,191,158773,1,8,0:1:0:0:
73,192,158886,1,8,0:1:0:0:
56,192,159001,6,0,L|-5:197,3,35,8|8|8|8,0:1|0:1|0:1|0:1,0:0:0:0:
63,270,159456,2,0,L|3:276,3,35,8|8|8|8,0:1|0:1|0:1|0:1,0:0:0:0:
72,347,159910,2,0,L|12:353,4,35,8|8|8|8|2,0:1|0:1|0:1|0:1|0:0,0:0:0:0:
355,330,161728,6,0,P|425:359|448:288,1,140,4|4,0:0|1:0,0:0:0:0:
415,225,162410,5,2,1:2:0:0:
478,150,162637,2,0,L|389:143,1,70,8|2,0:1|0:0,0:0:0:0:
382,102,162978,1,2,0:0:0:0:
382,102,163092,2,0,L|312:107,1,70,2|2,0:0|1:2,0:0:0:0:
222,145,163546,1,8,0:1:0:0:
127,118,163774,2,0,L|126:221,1,70,0|0,0:0|1:0,0:0:0:0:
67,266,164228,5,2,1:2:0:0:
147,322,164455,2,0,L|238:328,1,70,8|2,0:1|0:0,0:0:0:0:
255,295,164796,1,2,0:0:0:0:
255,295,164910,2,0,L|346:301,1,70,2|2,0:0|1:2,0:0:0:0:
403,240,165365,1,8,0:1:0:0:
450,325,165592,1,2,0:0:0:0:
507,245,165819,6,0,L|503:164,1,70,2|2,1:2|1:2,0:0:0:0:
484,129,166160,1,2,0:0:0:0:
484,129,166274,1,8,0:1:0:0:
391,161,166501,5,2,0:0:0:0:
391,161,166615,1,2,0:0:0:0:
391,161,166728,1,2,0:0:0:0:
337,78,166955,1,2,1:2:0:0:
261,148,167183,2,0,L|170:142,1,70,8|0,0:1|0:0,0:0:0:0:
95,120,167637,5,10,1:2:0:0:
97,137,167750,1,2,0:0:0:0:
98,154,167864,1,10,0:0:0:0:
100,172,167977,1,10,0:0:0:0:
102,189,168091,5,10,0:0:0:0:
59,277,168319,1,2,0:0:0:0:
145,321,168546,2,0,L|216:311,1,70,2|2,0:0|0:0,0:0:0:0:
310,331,169001,2,0,P|349:342|370:346,2,46.6666666666667,10|2|2,0:0|0:0|0:0,0:0:0:0:
279,248,169455,6,0,P|255:195|289:118,1,140,6|2,1:2|0:0,0:0:0:0:
283,122,170365,6,0,L|370:116,2,46.6666666666667,2|2|2,0:0|0:0|0:0,0:0:0:0:
214,66,170819,6,0,L|127:60,2,46.6666666666667,2|2|2,1:2|0:0|0:0,0:0:0:0:
123,146,171274,5,2,0:0:0:0:
94,151,171425,1,2,0:0:0:0:
63,158,171577,1,2,0:0:0:0:
12,236,171728,5,2,1:2:0:0:
41,241,171879,1,2,0:0:0:0:
72,248,172031,1,2,0:0:0:0:
155,275,172183,6,0,L|158:212,2,46.6666666666667,10|2|2,0:0|0:0|0:0,0:0:0:0:
236,294,172637,6,0,L|241:203,1,70,2|0,0:0|0:0,0:0:0:0:
239,224,172978,1,0,1:0:0:0:
239,224,173092,1,0,1:0:0:0:
291,139,173319,6,0,L|349:145,1,35,2|2,1:2|0:0,0:0:0:0:
374,151,173546,2,0,P|365:202|363:239,1,70,8|2,0:1|0:0,0:0:0:0:
380,266,173887,1,2,0:0:0:0:
380,266,174001,2,0,L|475:270,1,70,2|0,0:0|0:0,0:0:0:0:
437,366,174455,2,0,L|367:363,1,70,8|2,0:1|0:0,0:0:0:0:
313,378,174796,1,2,0:0:0:0:
313,378,174910,6,0,P|310:317|314:286,1,70,10|10,1:2|1:2,0:0:0:0:
252,228,175365,2,0,P|255:193|254:158,1,70,8|2,0:1|0:0,0:0:0:0:
200,76,175819,5,2,0:0:0:0:
200,76,176274,1,4,0:1:0:0:
200,76,176728,6,0,P|153:64|109:73,1,70,6|0,1:2|1:0,0:0:0:0:
49,120,177183,2,0,L|62:214,1,70,8|0,0:1|0:0,0:0:0:0:
103,208,177524,2,0,L|93:277,1,70,2|2,0:0|0:0,0:0:0:0:
58,312,177865,1,2,1:2:0:0:
136,371,178092,2,0,P|202:359|230:359,1,70,8|2,0:1|0:0,0:0:0:0:
301,373,178546,6,0,L|294:302,1,70,2|0,1:2|1:0,0:0:0:0:
252,214,179001,2,0,P|297:204|323:213,1,70,8|0,0:1|0:0,0:0:0:0:
361,236,179342,2,0,P|406:246|432:237,1,70,2|2,0:0|0:0,0:0:0:0:
473,222,179683,1,2,1:2:0:0:
503,128,179910,2,0,L|431:119,1,70,8|2,0:1|0:0,0:0:0:0:
375,40,180365,6,0,P|346:77|343:105,1,70,2|0,0:0|1:0,0:0:0:0:
328,195,180819,2,0,L|250:186,1,70,8|0,0:1|0:0,0:0:0:0:
223,152,181160,2,0,L|153:160,1,70,2|2,0:0|0:0,0:0:0:0:
114,189,181501,1,2,1:2:0:0:
23,150,181728,2,0,P|14:195|23:224,1,70,8|2,0:1|0:0,0:0:0:0:
89,286,182183,6,0,L|164:291,1,70,2|0,0:0|1:0,0:0:0:0:
249,327,182637,2,0,P|317:326|360:336,2,105,8|2|2,0:1|1:2|0:0,0:0:0:0:
158,290,183546,2,0,P|152:243|172:204,1,70,8|2,0:1|0:0,0:0:0:0:
237,163,184001,6,0,L|326:169,1,70,2|0,1:2|1:0,0:0:0:0:
395,209,184455,2,0,P|394:171|401:140,1,70,8|0,0:1|0:0,0:0:0:0:
434,104,184796,2,0,P|435:69|427:34,1,70,2|2,0:0|0:0,0:0:0:0:
386,7,185137,1,2,1:2:0:0:
299,52,185365,2,0,L|217:48,1,70,8|2,0:1|0:0,0:0:0:0:
140,90,185819,6,0,P|119:137|128:176,1,70,2|0,1:2|1:0,0:0:0:0:
198,214,186274,2,0,L|285:206,1,70,8|0,0:1|0:0,0:0:0:0:
306,177,186615,2,0,L|375:183,1,70,2|2,0:0|0:0,0:0:0:0:
423,172,186955,1,2,1:2:0:0:
504,227,187183,2,0,P|515:277|501:316,1,70,8|2,0:1|0:0,0:0:0:0:
442,364,187637,6,0,L|367:359,1,70,2|0,0:0|1:0,0:0:0:0:
273,362,188092,2,0,P|269:315|272:286,1,70,8|0,0:1|0:0,0:0:0:0:
292,248,188433,2,0,P|296:213|294:178,1,70,2|2,0:0|0:0,0:0:0:0:
271,134,188774,1,2,1:2:0:0:
225,47,189001,2,0,P|285:36|310:45,1,70,8|2,0:1|0:0,0:0:0:0:
363,105,189455,6,0,L|441:104,1,70,2|0,0:0|1:0,0:0:0:0:
487,186,189910,2,0,P|475:246|478:270,1,70,8|0,0:1|0:0,0:0:0:0:
429,270,190251,2,0,P|441:330|438:354,1,70,2|0,1:2|1:0,0:0:0:0:
463,381,190592,1,2,0:0:0:0:
366,366,190819,1,8,0:1:0:0:
268,378,191046,1,2,0:0:0:0:
28,289,191728,5,12,0:1:0:0:
28,289,191955,1,0,0:0:0:0:
110,341,192183,2,0,P|154:350|186:344,1,70,2|2,0:0|1:2,0:0:0:0:
217,256,192637,2,0,P|261:247|293:253,1,70,8|2,0:1|0:0,0:0:0:0:
371,297,193092,6,0,L|379:380,2,70,2|2|8,1:2|1:2|0:1,0:0:0:0:
285,250,193774,1,2,0:0:0:0:
363,190,194001,2,0,P|378:135|375:115,1,70,2|2,0:0|1:2,0:0:0:0:
321,42,194455,2,0,P|266:27|246:30,1,70,8|2,0:1|0:0,0:0:0:0:
164,69,194910,6,0,L|80:62,2,70,2|2|8,1:2|1:2|0:1,0:0:0:0:
224,146,195592,1,0,0:0:0:0:
170,228,195819,1,2,0:0:0:0:
170,228,195933,1,2,0:0:0:0:
170,228,196047,2,0,L|177:281,1,35,2|2,1:2|0:0,0:0:0:0:
187,310,196274,2,0,L|256:300,1,70,8|0,0:1|0:0,0:0:0:0:
347,335,196728,6,0,P|381:324|441:348,1,70,0|8,1:0|1:2,0:0:0:0:
457,352,197068,1,8,0:0:0:0:
457,352,197182,2,0,L|450:257,1,70,8|0,0:1|0:0,0:0:0:0:
508,201,197637,5,2,1:2:0:0:
418,162,197864,1,0,0:0:0:0:
366,245,198091,2,0,L|282:251,1,70,12|2,0:1|0:0,0:0:0:0:
205,288,198546,6,0,P|195:330|202:377,2,70,2|2|8,1:2|1:2|0:1,0:0:0:0:
296,249,199228,1,2,0:0:0:0:
251,161,199455,2,0,L|174:151,1,70,2|2,0:0|1:2,0:0:0:0:
131,236,199910,2,0,L|61:245,1,70,8|2,0:1|0:0,0:0:0:0:
2,167,200364,6,0,P|3:111|11:77,2,70,2|2|8,1:2|1:2|0:1,0:0:0:0:
61,245,201046,1,2,0:0:0:0:
15,331,201273,2,0,P|69:345|100:336,1,70,2|2,0:0|1:2,0:0:0:0:
168,295,201728,2,0,P|202:293|234:306,1,70,8|2,0:1|0:0,0:0:0:0:
322,263,202182,6,0,L|317:181,2,70,2|2|8,1:2|1:2|0:1,0:0:0:0:
379,343,202864,1,0,0:0:0:0:
463,293,203091,1,2,0:0:0:0:
463,293,203205,1,2,0:0:0:0:
463,293,203319,2,0,L|458:258,1,35,2|2,1:2|0:0,0:0:0:0:
482,214,203546,2,0,L|401:224,1,70,8|0,0:1|0:0,0:0:0:0:
335,162,204000,6,0,L|340:92,1,70,0|8,1:0|1:2,0:0:0:0:
313,52,204341,1,0,0:0:0:0:
313,52,204455,2,0,L|243:58,1,70,8|0,0:1|0:0,0:0:0:0:
144,37,204910,6,0,P|108:60|179:107,1,140,2|0,0:2|0:0,0:0:0:0:
