osu file format v14

[General]
AudioFilename: audio.mp3
AudioLeadIn: 0
PreviewTime: 86620
Countdown: 0
SampleSet: Soft
StackLeniency: 0.7
Mode: 0
LetterboxInBreaks: 0
WidescreenStoryboard: 1

[Editor]
DistanceSpacing: 0.8
BeatDivisor: 6
GridSize: 32
TimelineZoom: 1.9

[Metadata]
Title:LIKEY
TitleUnicode:LIKEY
Artist:TWICE
ArtistUnicode:트와이스
Creator:ailv
Version:Heart Heart
Source:
Tags:kpop k-pop jyp comeback entertainment korea once sana jihyo dahyun nayeon anvil jeongyeon chaeyoung momo mina tzuyu 나연 정연 모모 사나 지효 미나 다현 채영 쯔위 -_Tatan_- aliv what is love 5th mini album
BeatmapID:1707233
BeatmapSetID:814038

[Difficulty]
HPDrainRate:6
CircleSize:4
OverallDifficulty:8.8
ApproachRate:9.3
SliderMultiplier:2.2
SliderTickRate:1

[Events]
//Background and Video events
0,0,"BG.jpg",0,0
//Break Periods
2,147637,152538
//Storyboard Layer 0 (Background)
//Storyboard Layer 1 (Fail)
//Storyboard Layer 2 (Pass)
//Storyboard Layer 3 (Foreground)
//Storyboard Sound Samples

[TimingPoints]
365,454.545454545455,4,2,0,60,1,0
14910,-66.6666666666667,4,2,0,80,0,0
21728,-500,4,2,0,80,0,0
22183,-66.6666666666667,4,2,0,80,0,0
28546,-66.6666666666667,4,2,0,60,0,0
29455,-100,4,2,0,60,0,0
58546,-166.666666666667,4,2,0,60,0,0
65819,-166.666666666667,4,2,0,70,0,0
73092,-66.6666666666667,4,2,0,80,0,0
87637,-66.6666666666667,4,2,0,80,0,0
94455,-500,4,2,0,80,0,0
94910,-66.6666666666667,4,2,0,80,0,0
101274,-66.6666666666667,4,2,0,60,0,0
102183,-100,4,2,0,60,0,0
108546,-333.333333333333,4,2,0,60,0,0
109001,-100,4,2,0,60,0,0
114910,-166.666666666667,4,2,0,60,0,0
124001,-166.666666666667,4,2,0,70,0,0
131274,-66.6666666666667,4,2,0,80,0,0
145819,-66.6666666666667,4,2,0,60,0,0
153092,-66.6666666666667,4,2,0,50,0,0
154342,-66.6666666666667,4,2,0,60,0,0
154683,-66.6666666666667,4,2,0,70,0,0
160365,-1000,4,2,0,50,0,0
161728,-100,4,2,0,60,0,0
161955,-100,4,2,0,70,0,0
162183,-100,4,2,0,80,0,0
169455,-142.857142857143,4,2,0,70,0,0
173092,-100,4,2,0,80,0,0
175819,-100,4,2,0,60,0,0
176274,-333.333333333333,4,2,0,80,0,0
176728,-66.6666666666667,4,2,0,80,0,0
191274,-66.6666666666667,4,2,0,60,0,0
191728,-66.6666666666667,4,2,0,80,0,0
198092,-500,4,2,0,80,0,0
198546,-66.6666666666667,4,2,0,80,0,0
204904,-71.4285714285714,4,2,0,80,0,0
204910,-71.4285714285714,4,2,0,70,0,0
205251,-71.4285714285714,4,2,0,5,0,0
205365,-71.4285714285714,4,2,0,70,0,0
205705,-71.4285714285714,4,2,0,5,0,0

[Colours]
Combo1 : 129,123,238
Combo2 : 234,150,245

[HitObjects]
150,268,14001,5,0,0:0:0:0:
164,250,14228,1,0,0:0:0:0:
166,227,14455,1,4,0:1:0:0:
162,200,14683,1,2,0:0:0:0:
150,177,14910,6,0,P|115:141|102:85,1,82.5000031471254,6|0,1:2|0:0,0:0:0:0:
11,143,15137,2,0,P|12:78|33:42,1,82.5000031471254,2|0,1:2|0:0,0:0:0:0:
195,81,15365,1,8,0:1:0:0:
188,70,15592,5,2,0:0:0:0:
272,118,15705,1,2,0:0:0:0:
359,86,15819,1,2,0:0:0:0:
440,65,15933,1,2,0:0:0:0:
493,118,16046,2,0,L|484:221,1,82.5000031471254,2|0,1:2|0:0,0:0:0:0:
266,105,16274,6,0,L|259:23,1,82.5000031471254,8|0,0:1|0:0,0:0:0:0:
481,129,16501,2,0,L|473:211,1,82.5000031471254,2|0,0:0|0:0,0:0:0:0:
231,175,16728,5,2,1:2:0:0:
289,104,16842,1,2,0:0:0:0:
248,25,16955,2,0,L|256:108,1,82.5000031471254,2|0,1:2|0:0,0:0:0:0:
135,217,17183,1,8,0:1:0:0:
128,235,17410,5,2,0:0:0:0:
206,201,17524,1,2,0:0:0:0:
252,268,17637,2,0,P|255:321|255:367,1,82.5000031471254,2|0,0:0|0:0,0:0:0:0:
437,278,17865,2,0,L|332:290,1,82.5000031471254,2|0,1:2|0:0,0:0:0:0:
230,282,18092,6,0,P|233:335|233:381,1,82.5000031471254,8|0,0:1|0:0,0:0:0:0:
460,292,18319,2,0,L|355:304,1,82.5000031471254,2|0,0:0|0:0,0:0:0:0:
182,213,18546,6,0,L|174:130,1,82.5000031471254,2|0,1:2|0:0,0:0:0:0:
289,69,18774,2,0,L|282:152,1,82.5000031471254,2|0,1:2|0:0,0:0:0:0:
377,192,19001,1,8,0:1:0:0:
370,171,19228,5,0,0:0:0:0:
413,238,19342,1,0,0:0:0:0:
370,303,19455,5,2,0:0:0:0:
308,357,19569,1,2,0:0:0:0:
230,331,19683,1,2,1:2:0:0:
161,373,19796,1,2,0:0:0:0:
84,319,19910,1,8,0:1:0:0:
0,359,20024,1,2,0:0:0:0:
15,273,20137,6,0,L|26:191,1,82.5000031471254,0|0,0:0|0:0,0:0:0:0:
126,194,20365,2,0,L|115:113,1,82.5000031471254,0|0,1:0|0:0,0:0:0:0:
335,81,20592,5,8,1:2:0:0:
387,145,20705,1,8,0:0:0:0:
367,225,20819,1,8,0:1:0:0:
294,271,20933,2,0,L|213:261,1,82.5000031471254,8|0,0:0|0:0,0:0:0:0:
221,19,21160,1,8,0:0:0:0:
233,96,21274,2,0,L|243:178,1,82.5000031471254,2|0,1:2|0:0,0:0:0:0:
119,237,21501,2,0,L|129:156,1,82.5000031471254,2|0,0:0|0:0,0:0:0:0:
48,46,21728,6,0,L|8:51,1,33,12|0,0:1|0:0,0:0:0:0:
86,35,22183,6,0,P|164:24|193:41,1,82.5000031471254,2|0,1:2|0:0,0:0:0:0:
185,111,22410,2,0,P|254:146|266:164,1,82.5000031471254,2|0,1:2|0:0,0:0:0:0:
162,216,22637,1,8,0:1:0:0:
153,245,22865,5,2,0:0:0:0:
237,231,22978,1,2,0:0:0:0:
280,305,23092,1,2,0:0:0:0:
355,346,23205,1,2,0:0:0:0:
432,297,23319,2,0,L|435:182,1,82.5000031471254,2|0,1:2|0:0,0:0:0:0:
266,123,23546,6,0,L|268:205,1,82.5000031471254,8|0,0:1|0:0,0:0:0:0:
445,311,23774,2,0,L|448:196,1,82.5000031471254,2|0,0:0|0:0,0:0:0:0:
296,54,24001,5,2,1:2:0:0:
246,130,24115,1,2,0:0:0:0:
277,233,24228,2,0,L|274:150,1,82.5000031471254,2|0,1:2|0:0,0:0:0:0:
475,130,24455,1,8,0:1:0:0:
464,119,24683,5,2,0:0:0:0:
380,94,24796,1,2,0:0:0:0:
306,144,24910,2,0,P|295:199|306:229,1,82.5000031471254,2|0,0:0|0:0,0:0:0:0:
455,319,25137,2,0,P|464:280|452:241,1,82.5000031471254,2|0,1:2|0:0,0:0:0:0:
294,136,25365,6,0,P|283:191|294:221,1,82.5000031471254,8|0,0:1|0:0,0:0:0:0:
443,311,25592,2,0,P|452:272|440:233,1,82.5000031471254,2|0,0:0|0:0,0:0:0:0:
292,363,25819,6,0,L|209:356,1,82.5000031471254,2|0,1:2|0:0,0:0:0:0:
222,260,26046,2,0,L|139:266,1,82.5000031471254,2|0,1:2|0:0,0:0:0:0:
168,154,26274,1,8,0:1:0:0:
173,132,26501,5,0,0:0:0:0:
100,122,26615,1,0,0:0:0:0:
32,165,26728,5,2,0:0:0:0:
12,246,26842,1,2,0:0:0:0:
67,312,26955,1,2,1:2:0:0:
156,301,27069,1,2,0:0:0:0:
191,224,27183,1,8,0:1:0:0:
136,157,27296,1,2,0:0:0:0:
48,140,27410,6,0,P|48:47|43:6,1,82.5000031471254,0|0,0:0|0:0,0:0:0:0:
142,28,27637,6,0,P|194:50|237:43,1,82.5000031471254,0|0,1:0|0:0,0:0:0:0:
211,164,27865,2,0,P|281:144|310:111,1,82.5000031471254,8|0,1:2|0:0,0:0:0:0:
364,236,28092,1,8,0:1:0:0:
351,228,28319,5,0,0:0:0:0:
343,263,28433,1,8,0:0:0:0:
349,296,28546,1,2,1:2:0:0:
488,212,28774,5,2,0:0:0:0:
487,198,28887,1,2,0:0:0:0:
458,114,29115,1,2,0:0:0:0:
454,90,29228,1,2,0:0:0:0:
462,72,29342,1,2,0:0:0:0:
484,56,29455,6,0,L|345:48,1,110,2|2,1:2|0:2,0:0:0:0:
277,96,29796,2,0,L|167:102,1,110,0|0,0:0|0:0,0:0:0:0:
48,81,30137,2,0,P|68:106|76:147,1,55,2|0,0:2|0:0,0:0:0:0:
94,280,30365,1,2,0:2:0:0:
69,265,30592,1,0,1:0:0:0:
55,235,30819,5,8,0:1:0:0:
201,225,31046,1,2,1:2:0:0:
208,378,31274,6,0,P|145:376|127:278,1,165,2|0,0:2|0:0,0:0:0:0:
180,240,31728,2,0,L|322:256,1,110,8|2,0:1|0:0,0:0:0:0:
388,371,32183,5,2,0:0:0:0:
480,321,32410,1,2,1:2:0:0:
483,312,32524,2,0,P|483:288|472:260,1,55,2|0,0:0|0:0,0:0:0:0:
477,162,32751,1,0,0:1:0:0:
471,145,32865,1,0,0:0:0:0:
475,130,32978,1,0,0:0:0:0:
483,117,33092,6,0,P|410:94|346:141,1,110,2|2,1:2|0:2,0:0:0:0:
287,66,33433,2,0,P|214:89|150:42,1,110,0|0,0:0|0:0,0:0:0:0:
92,19,33774,2,0,L|103:74,1,55,2|0,0:2|0:0,0:0:0:0:
163,186,34001,2,0,L|184:78,1,110,2|0,0:2|1:0,0:0:0:0:
56,169,34455,5,8,0:1:0:0:
0,284,34683,1,2,1:2:0:0:
127,344,34910,2,0,P|170:332|246:344,1,110,2|0,0:2|1:0,0:0:0:0:
338,266,35365,2,0,P|274:259|236:347,1,165,8|2,0:1|0:0,0:0:0:0:
385,378,35819,5,2,0:0:0:0:
448,308,36046,1,2,1:2:0:0:
443,285,36160,2,0,P|475:287|524:304,1,55
512,187,36387,1,0,0:1:0:0:
512,161,36501,1,2,0:2:0:0:
507,133,36615,1,2,0:2:0:0:
499,103,36728,6,0,P|451:136|392:115,1,110,2|2,1:2|0:2,0:0:0:0:
325,156,37069,2,0,P|282:124|230:134,1,110,0|0,0:0|0:0,0:0:0:0:
161,197,37410,2,0,L|72:193,1,55,2|0,0:2|0:0,0:0:0:0:
30,279,37637,1,2,0:2:0:0:
62,277,37751,2,0,P|94:280|132:293,1,55,2|0,2:0|0:0,0:0:0:0:
228,302,38092,2,0,L|213:364,2,55,8|2|2,0:1|0:2|1:2,0:0:0:0:
482,258,38546,6,0,P|390:309|375:240,1,165,2|0,0:2|0:0,0:0:0:0:
331,208,39001,2,0,L|344:89,2,110,8|2|2,0:1|0:0|0:0,0:0:0:0:
295,331,39683,1,2,1:2:0:0:
216,272,39910,1,8,0:1:0:0:
191,279,40024,1,2,0:2:0:0:
105,331,40251,1,2,0:2:0:0:
74,333,40365,6,0,L|85:214,1,110,2|2,1:2|0:2,0:0:0:0:
26,122,40819,1,8,0:1:0:0:
91,23,41046,1,2,0:2:0:0:
230,32,41274,1,2,0:2:0:0:
279,142,41501,1,0,1:0:0:0:
198,250,41728,1,8,0:1:0:0:
266,337,41955,1,2,1:2:0:0:
414,266,42183,5,2,0:2:0:0:
383,264,42296,1,8,0:2:0:0:
353,277,42410,1,8,0:2:0:0:
402,357,42637,1,8,0:2:0:0:
499,342,42865,1,10,0:2:0:0:
507,234,43092,1,10,0:2:0:0:
446,152,43319,1,2,1:2:0:0:
443,130,43433,1,2,0:0:0:0:
441,109,43546,1,8,0:1:0:0:
491,30,43774,1,0,0:0:0:0:
335,91,44001,6,0,P|274:110|201:78,1,110,6|0,1:2|0:0,0:0:0:0:
101,44,44342,1,0,1:0:0:0:
149,119,44455,2,0,L|151:173,1,55,8|0,0:1|0:0,0:0:0:0:
94,238,44683,2,0,L|96:292,1,55,2|0,1:2|0:0,0:0:0:0:
162,369,44910,5,2,0:0:0:0:
252,296,45137,1,2,0:0:0:0:
275,304,45251,1,2,0:0:0:0:
295,314,45365,1,8,0:1:0:0:
402,281,45592,1,2,0:0:0:0:
423,294,45705,1,0,0:0:0:0:
450,308,45819,6,0,P|441:244|459:199,1,110,2|0,1:2|0:0,0:0:0:0:
425,73,46160,1,0,1:0:0:0:
372,131,46274,2,0,L|243:116,1,110,8|2,0:1|1:2,0:0:0:0:
245,127,46615,1,2,0:0:0:0:
232,140,46728,1,2,0:0:0:0:
146,200,46955,1,2,0:0:0:0:
149,219,47069,1,2,0:0:0:0:
153,237,47183,1,8,0:1:0:0:
115,327,47410,1,0,0:0:0:0:
306,348,47637,6,0,P|249:329|176:353,1,110,2|0,1:2|0:0,0:0:0:0:
34,358,47978,1,0,1:0:0:0:
16,277,48092,2,0,L|33:167,1,110,8|2,0:1|1:2,0:0:0:0:
55,55,48546,1,2,0:0:0:0:
162,74,48774,1,0,0:0:0:0:
201,182,49001,1,8,0:1:0:0:
165,295,49228,1,2,0:0:0:0:
196,288,49342,1,2,0:0:0:0:
224,292,49455,1,2,1:2:0:0:
327,314,49683,1,0,0:0:0:0:
358,317,49796,1,0,1:0:0:0:
383,300,49910,6,0,L|394:165,1,110,8|2,0:1|1:2,0:0:0:0:
412,172,50251,1,2,0:0:0:0:
427,159,50365,1,2,0:0:0:0:
506,73,50592,1,2,0:0:0:0:
354,48,50819,1,8,0:1:0:0:
241,122,51046,1,2,0:0:0:0:
220,300,51274,5,2,1:2:0:0:
354,315,51501,1,2,0:0:0:0:
354,283,51615,1,0,1:0:0:0:
340,251,51728,1,8,0:1:0:0:
325,220,51842,2,0,P|323:183|330:158,1,55,2|2,0:0|1:2,0:0:0:0:
409,73,52069,1,2,0:0:0:0:
393,87,52183,2,0,L|306:81,1,55,0|0,0:0|0:0,0:0:0:0:
244,120,52410,1,2,0:0:0:0:
214,110,52524,1,2,0:0:0:0:
184,101,52637,1,8,0:1:0:0:
76,33,52865,1,2,0:0:0:0:
20,140,53092,5,2,1:2:0:0:
0,246,53319,1,2,0:0:0:0:
32,246,53433,1,0,1:0:0:0:
64,232,53546,1,8,0:1:0:0:
95,217,53660,2,0,P|132:215|157:222,1,55,2|2,0:0|1:2,0:0:0:0:
181,215,53887,1,2,0:0:0:0:
207,202,54001,1,2,0:0:0:0:
304,136,54228,1,2,0:0:0:0:
429,183,54455,1,8,0:1:0:0:
443,305,54683,1,0,0:0:0:0:
340,366,54910,6,0,P|276:346|195:357,1,110,2|2,1:2|0:0,0:0:0:0:
76,353,55251,1,0,1:0:0:0:
60,269,55365,2,0,L|85:146,1,110,8|2,0:1|1:2,0:0:0:0:
171,176,55705,2,0,L|146:53,1,110,2|0,0:0|0:0,0:0:0:0:
243,12,56046,6,0,P|259:60|250:95,1,55,2|0,0:0|0:0,0:0:0:0:
357,113,56274,2,0,P|323:150|288:160,1,55,8|0,0:1|0:0,0:0:0:0:
330,256,56501,2,0,P|280:245|254:220,1,55,2|0,0:0|0:0,0:0:0:0:
223,344,56728,5,10,1:2:0:0:
187,323,56842,1,8,0:0:0:0:
146,319,56955,1,10,0:0:0:0:
108,333,57069,1,2,1:2:0:0:
78,361,57183,1,8,0:1:0:0:
6,278,57410,1,10,1:2:0:0:
12,260,57524,1,2,0:0:0:0:
19,245,57637,1,10,0:0:0:0:
27,139,57865,5,2,0:0:0:0:
133,131,58092,1,2,0:0:0:0:
240,177,58319,1,2,0:0:0:0:
136,257,58546,6,0,L|144:322,1,65.9999979858399,10|2,0:0|0:0,0:0:0:0:
222,282,59001,2,0,L|230:347,2,65.9999979858399,10|0|8,0:0|0:0|0:0,0:0:0:0:
389,211,59683,1,2,0:0:0:0:
308,275,59910,1,10,0:0:0:0:
293,173,60137,1,2,0:0:0:0:
352,35,60365,6,0,L|287:27,1,65.9999979858399,10|2,0:0|0:0,0:0:0:0:
253,105,60819,2,0,L|318:113,2,65.9999979858399,10|0|8,0:0|0:0|0:0,0:0:0:0:
386,200,61501,1,2,0:0:0:0:
274,189,61728,1,10,0:0:0:0:
169,170,61955,1,0,0:0:0:0:
0,260,62183,5,10,0:0:0:0:
74,350,62410,1,2,0:0:0:0:
122,113,62637,1,10,0:0:0:0:
126,251,62865,1,2,0:0:0:0:
269,76,63092,1,10,0:0:0:0:
283,93,63546,5,10,0:0:0:0:
47,65,63774,1,2,0:0:0:0:
138,249,64001,6,0,L|132:172,1,65.9999979858399,10|0,0:0|0:0,0:0:0:0:
215,275,64455,2,0,L|209:198,1,65.9999979858399,10|0,0:0|0:0,0:0:0:0:
228,188,64796,1,2,0:0:0:0:
253,170,64910,2,0,L|330:164,1,65.9999979858399,8|2,0:0|0:0,0:0:0:0:
311,245,65365,2,0,L|388:239,1,65.9999979858399,10|2,0:0|0:0,0:0:0:0:
507,150,65819,5,2,1:2:0:0:
512,171,66046,1,2,1:2:0:0:
383,157,66274,1,10,1:2:0:0:
389,135,66501,1,0,1:0:0:0:
339,295,66728,1,0,1:0:0:0:
344,316,66955,1,2,1:2:0:0:
215,302,67183,1,10,1:2:0:0:
221,280,67410,1,2,1:2:0:0:
192,124,67637,5,2,1:2:0:0:
211,119,67865,1,2,1:2:0:0:
198,236,68092,1,10,1:2:0:0:
178,231,68319,1,0,1:0:0:0:
335,261,68546,1,0,1:0:0:0:
354,256,68774,1,2,1:2:0:0:
341,373,69001,1,10,1:2:0:0:
321,368,69228,1,2,1:2:0:0:
213,310,69455,5,2,1:2:0:0:
170,320,69569,1,0,1:0:0:0:
136,314,69683,1,2,1:2:0:0:
110,287,69796,1,0,1:0:0:0:
99,232,69910,5,2,1:2:0:0:
134,194,70024,1,0,1:0:0:0:
175,181,70137,1,2,1:2:0:0:
223,193,70251,1,0,1:0:0:0:
277,224,70365,5,2,1:2:0:0:
347,261,70478,1,0,1:0:0:0:
423,244,70592,1,0,1:0:0:0:
459,172,70705,1,0,1:0:0:0:
442,77,70819,5,2,1:2:0:0:
348,77,70933,1,0,1:0:0:0:
304,158,71046,1,2,1:2:0:0:
358,273,72637,5,4,0:1:0:0:
344,247,72865,1,0,0:0:0:0:
344,210,73092,2,0,P|369:163|365:121,1,82.5000031471254,6|0,1:2|0:0,0:0:0:0:
253,138,73319,2,0,P|225:93|187:76,1,82.5000031471254,0|0,1:0|0:0,0:0:0:0:
126,178,73546,1,8,0:1:0:0:
136,169,73774,5,0,0:0:0:0:
174,253,73887,1,2,0:0:0:0:
105,310,74001,1,2,0:0:0:0:
32,249,74115,1,2,0:0:0:0:
57,168,74228,2,0,P|143:173|162:188,1,82.5000031471254,2|0,1:2|0:0,0:0:0:0:
219,122,74455,2,0,P|305:117|324:102,1,82.5000031471254,8|0,0:1|0:0,0:0:0:0:
405,36,74683,5,2,0:0:0:0:
478,49,74796,1,2,0:0:0:0:
482,128,74910,2,0,L|477:225,1,82.5000031471254,2|0,1:2|0:0,0:0:0:0:
346,296,75137,2,0,L|342:214,1,82.5000031471254,2|0,1:2|0:0,0:0:0:0:
498,146,75365,2,0,L|490:318,1,165.000006294251,8|0,0:1|0:0,0:0:0:0:
271,349,75705,5,2,0:0:0:0:
222,283,75819,2,0,P|174:279|131:303,1,82.5000031471254,2|2,0:0|0:0,0:0:0:0:
88,357,76046,2,0,P|50:372|9:366,1,82.5000031471254,2|0,1:2|0:0,0:0:0:0:
50,214,76274,2,0,L|39:316,1,82.5000031471254,8|0,0:1|0:0,0:0:0:0:
213,152,76501,2,0,L|224:254,1,82.5000031471254,2|0,0:0|0:0,0:0:0:0:
28,182,76728,6,0,P|64:157|120:144,1,82.5000031471254,2|0,0:0|0:0,0:0:0:0:
70,43,76955,2,0,P|114:40|171:59,1,82.5000031471254,0|0,1:0|0:0,0:0:0:0:
292,132,77183,6,0,P|365:176|432:29,1,247.500009441376,8|2,0:1|0:0,0:0:0:0:
222,64,77637,6,0,P|197:100|184:156,1,82.5000031471254,2|0,0:0|0:0,0:0:0:0:
83,106,77865,2,0,P|80:150|99:207,1,82.5000031471254,2|0,1:2|0:0,0:0:0:0:
35,343,78092,6,0,P|110:325|159:347,1,82.5000031471254,8|0,0:1|0:0,0:0:0:0:
204,277,78319,2,0,P|279:295|328:273,1,82.5000031471254,2|0,0:0|0:0,0:0:0:0:
440,372,78546,6,0,P|474:339|488:292,1,82.5000031471254,2|0,0:0|0:0,0:0:0:0:
381,292,78774,2,0,P|393:251|387:187,1,82.5000031471254,10|8,1:2|0:0,0:0:0:0:
255,207,79001,1,8,0:1:0:0:
258,225,79228,5,0,0:0:0:0:
239,138,79342,1,0,0:0:0:0:
314,97,79455,1,8,0:0:0:0:
280,21,79569,1,0,0:0:0:0:
193,56,79683,2,0,L|105:60,1,82.5000031471254,10|8,0:0|0:0,0:0:0:0:
27,183,79910,5,8,0:1:0:0:
41,209,80137,1,2,0:0:0:0:
41,246,80365,2,0,P|16:293|20:335,1,82.5000031471254,2|0,1:2|0:0,0:0:0:0:
143,301,80592,2,0,P|172:347|210:364,1,82.5000031471254,0|0,1:0|0:0,0:0:0:0:
259,242,80819,1,8,0:1:0:0:
273,229,81046,5,0,0:0:0:0:
235,313,81160,1,2,0:0:0:0:
304,370,81274,1,2,0:0:0:0:
377,309,81387,1,2,0:0:0:0:
352,228,81501,2,0,P|266:233|247:248,1,82.5000031471254,2|0,1:2|0:0,0:0:0:0:
193,188,81728,2,0,P|107:183|88:168,1,82.5000031471254,8|0,0:1|0:0,0:0:0:0:
0,308,81955,5,2,0:0:0:0:
48,376,82069,1,2,0:0:0:0:
126,358,82183,2,0,L|223:353,1,82.5000031471254,2|0,1:2|0:0,0:0:0:0:
294,222,82410,2,0,L|212:217,1,82.5000031471254,0|0,1:0|0:0,0:0:0:0:
144,374,82637,2,0,L|332:365,1,165.000006294251,8|0,0:1|0:0,0:0:0:0:
238,90,82978,5,2,0:0:0:0:
171,130,83092,2,0,P|167:178|191:221,1,82.5000031471254,2|2,0:0|0:0,0:0:0:0:
263,267,83319,2,0,P|301:252|341:257,1,82.5000031471254,2|0,1:2|0:0,0:0:0:0:
433,95,83546,2,0,L|422:197,1,82.5000031471254,8|0,0:1|0:0,0:0:0:0:
250,71,83774,2,0,L|261:173,1,82.5000031471254,2|0,0:0|0:0,0:0:0:0:
208,363,84001,6,0,P|183:327|170:271,1,82.5000031471254,2|0,0:0|0:0,0:0:0:0:
90,324,84228,2,0,P|87:280|106:223,1,82.5000031471254,0|0,1:0|0:0,0:0:0:0:
103,103,84455,6,0,P|128:139|141:195,1,82.5000031471254,8|0,0:1|0:0,0:0:0:0:
221,142,84683,2,0,P|224:186|205:243,1,82.5000031471254,0|2,0:0|0:0,0:0:0:0:
293,262,84910,6,0,P|347:359|436:259,1,247.500009441376,0|0,0:0|0:0,0:0:0:0:
512,230,85365,6,0,P|476:205|420:192,1,82.5000031471254,8|0,0:1|0:0,0:0:0:0:
470,91,85592,2,0,P|426:88|369:107,1,82.5000031471254,2|2,0:0|0:0,0:0:0:0:
267,23,85819,5,2,0:0:0:0:
269,148,86046,1,0,1:0:0:0:
277,293,86274,1,8,0:1:0:0:
277,293,86387,1,0,0:0:0:0:
277,293,86501,1,0,0:0:0:0:
358,105,86728,5,2,0:0:0:0:
348,132,86955,1,2,1:2:0:0:
346,155,87183,1,4,0:1:0:0:
350,182,87410,1,2,0:0:0:0:
362,205,87637,6,0,P|397:241|410:297,1,82.5000031471254,6|0,1:2|0:0,0:0:0:0:
501,239,87865,2,0,P|500:304|479:340,1,82.5000031471254,2|0,1:2|0:0,0:0:0:0:
317,301,88092,1,8,0:1:0:0:
323,316,88319,5,2,0:0:0:0:
249,269,88433,1,2,0:0:0:0:
161,287,88546,1,2,0:0:0:0:
81,319,88660,1,2,0:0:0:0:
19,264,88774,2,0,L|28:161,1,82.5000031471254,2|0,1:2|0:0,0:0:0:0:
246,277,89001,6,0,L|253:359,1,82.5000031471254,8|0,0:1|0:0,0:0:0:0:
32,253,89228,2,0,L|40:171,1,82.5000031471254,2|0,0:0|0:0,0:0:0:0:
281,207,89455,5,2,1:2:0:0:
223,278,89569,1,2,0:0:0:0:
264,357,89683,2,0,L|256:274,1,82.5000031471254,2|0,1:2|0:0,0:0:0:0:
150,146,89910,1,8,0:1:0:0:
148,130,90137,5,2,0:0:0:0:
221,168,90251,1,2,0:0:0:0:
283,113,90365,2,0,P|280:60|260:29,1,82.5000031471254,2|0,0:0|0:0,0:0:0:0:
75,104,90592,2,0,L|180:92,1,82.5000031471254,2|0,1:2|0:0,0:0:0:0:
301,105,90819,6,0,P|298:52|278:21,1,82.5000031471254,8|0,0:1|0:0,0:0:0:0:
52,90,91046,2,0,L|157:78,1,82.5000031471254,2|0,0:0|0:0,0:0:0:0:
224,262,91274,6,0,L|213:147,1,82.5000031471254,2|0,1:2|0:0,0:0:0:0:
338,347,91501,2,0,L|345:264,1,82.5000031471254,2|0,1:2|0:0,0:0:0:0:
469,205,91728,1,8,0:1:0:0:
482,194,91955,5,0,0:0:0:0:
502,145,92069,1,0,0:0:0:0:
496,88,92183,5,2,0:0:0:0:
432,23,92296,1,2,0:0:0:0:
337,40,92410,1,2,1:2:0:0:
297,124,92524,1,2,0:0:0:0:
351,201,92637,1,8,0:1:0:0:
448,207,92751,1,2,0:0:0:0:
512,68,92865,6,0,L|501:150,1,82.5000031471254
404,182,93092,2,0,L|415:264,1,82.5000031471254,0|0,1:0|0:0,0:0:0:0:
335,307,93319,5,8,1:2:0:0:
295,371,93433,1,8,0:0:0:0:
215,371,93546,1,8,0:1:0:0:
190,301,93660,2,0,L|200:220,1,82.5000031471254,8|0,0:0|0:0,0:0:0:0:
188,26,93887,1,8,0:0:0:0:
117,53,94001,2,0,L|107:135,1,82.5000031471254,2|0,1:2|0:0,0:0:0:0:
22,153,94228,2,0,L|32:234,1,82.5000031471254,0|0,0:0|0:0,0:0:0:0:
101,355,94455,6,0,P|82:355|63:359,1,38.5,12|0,0:1|0:0,0:0:0:0:
127,358,94910,6,0,P|205:369|234:352,1,82.5000031471254,2|0,1:2|0:0,0:0:0:0:
185,271,95137,2,0,P|254:236|266:218,1,82.5000031471254,2|0,1:2|0:0,0:0:0:0:
389,346,95365,1,8,0:1:0:0:
381,359,95592,5,2,0:0:0:0:
355,276,95705,1,2,0:0:0:0:
414,217,95819,1,2,0:0:0:0:
445,139,95933,1,2,0:0:0:0:
386,73,96046,2,0,L|271:70,1,82.5000031471254,2|0,1:2|0:0,0:0:0:0:
188,198,96274,6,0,L|271:196,1,82.5000031471254,8|0,0:1|0:0,0:0:0:0:
398,57,96501,2,0,L|283:54,1,82.5000031471254,2|0,0:0|0:0,0:0:0:0:
116,184,96728,5,2,1:2:0:0:
195,228,96842,1,0,0:0:0:0:
292,208,96955,2,0,L|210:211,1,82.5000031471254,2|0,1:2|0:0,0:0:0:0:
37,252,97183,1,8,0:1:0:0:
48,263,97410,5,2,0:0:0:0:
132,288,97524,1,2,0:0:0:0:
206,238,97637,2,0,P|217:183|206:153,1,82.5000031471254,2|0,0:0|0:0,0:0:0:0:
57,63,97865,2,0,P|48:102|60:141,1,82.5000031471254,2|0,1:2|0:0,0:0:0:0:
218,246,98092,6,0,P|229:191|218:161,1,82.5000031471254,8|0,0:1|0:0,0:0:0:0:
69,71,98319,2,0,P|60:110|72:149,1,82.5000031471254,2|0,0:0|0:0,0:0:0:0:
256,27,98546,6,0,L|156:19,1,82.5000031471254,2|0,1:2|0:0,0:0:0:0:
307,130,98774,2,0,L|224:136,1,82.5000031471254,2|0,1:2|0:0,0:0:0:0:
352,236,99001,1,8,0:1:0:0:
341,256,99228,5,0,0:0:0:0:
381,259,99342,1,0,0:0:0:0:
412,272,99455,5,2,0:0:0:0:
371,348,99569,1,2,0:0:0:0:
277,358,99683,1,2,1:2:0:0:
225,275,99796,1,2,0:0:0:0:
275,192,99910,1,8,0:1:0:0:
369,182,100024,1,2,0:0:0:0:
438,248,100137,6,0,P|438:341|443:382,1,82.5000031471254,0|0,0:0|0:0,0:0:0:0:
303,334,100365,6,0,P|251:312|208:319,1,82.5000031471254,0|0,1:0|0:0,0:0:0:0:
271,211,100592,2,0,P|235:190|194:185,1,82.5000031471254,8|0,1:2|0:0,0:0:0:0:
279,88,100819,1,8,0:1:0:0:
288,81,101046,5,0,0:0:0:0:
276,51,101160,1,8,0:0:0:0:
254,33,101274,1,2,0:2:0:0:
104,214,101955,5,2,0:0:0:0:
146,211,102069,1,2,0:0:0:0:
185,228,102183,2,0,P|248:242|293:230,1,110,2|0,1:2|0:0,0:0:0:0:
367,183,102524,2,0,P|430:169|475:181,1,110,0|0,1:0|0:0,0:0:0:0:
367,376,102865,5,10,0:0:0:0:
340,297,102978,1,2,0:0:0:0:
362,218,103092,1,2,0:0:0:0:
385,197,103319,5,2,0:0:0:0:
406,167,103546,5,8,0:0:0:0:
370,85,103660,1,2,0:0:0:0:
284,87,103774,1,2,0:0:0:0:
264,240,104001,6,0,P|191:256|144:218,1,110,0|0,1:0|0:0,0:0:0:0:
107,168,104342,2,0,P|56:148|5:166,1,110,0|0,1:0|0:0,0:0:0:0:
48,277,104683,2,0,P|58:255|50:210,1,55,10|0,0:0|0:0,0:0:0:0:
200,258,104910,5,2,0:0:0:0:
210,279,105137,1,2,0:0:0:0:
223,303,105365,1,10,0:0:0:0:
233,323,105592,5,2,0:0:0:0:
307,363,105705,1,2,0:0:0:0:
383,317,105819,6,0,P|431:317|513:350,1,110,2|0,1:2|0:0,0:0:0:0:
457,216,106160,2,0,P|402:217|350:234,1,110,0|0,1:0|0:0,0:0:0:0:
287,187,106501,1,10,0:0:0:0:
281,106,106615,1,2,0:0:0:0:
346,59,106728,1,2,0:0:0:0:
319,47,106955,5,2,0:0:0:0:
291,39,107183,1,10,0:0:0:0:
263,29,107410,1,0,0:0:0:0:
132,87,107637,6,0,P|199:80|241:120,1,110,2|2,1:2|0:0,0:0:0:0:
290,164,107978,2,0,P|357:171|399:131,1,110,0|0,1:0|0:0,0:0:0:0:
478,94,108319,2,0,L|469:169,1,55,2|0,0:0|0:0,0:0:0:0:
474,282,108546,6,0,P|446:281|416:286,1,49.4999984893799,2|0,0:0|0:0,0:0:0:0:
270,289,109001,6,0,P|395:301|427:283,1,165,10|0,0:0|0:0,0:0:0:0:
443,106,109455,6,0,P|369:87|332:115,1,110,0|0,1:0|0:0,0:0:0:0:
277,53,109796,2,0,P|203:72|166:44,1,110,0|2,1:0|0:0,0:0:0:0:
55,4,110137,2,0,P|46:36|54:71,1,55,10|0,0:0|0:0,0:0:0:0:
68,185,110365,1,0,0:0:0:0:
90,179,110592,1,0,0:0:0:0:
115,171,110819,5,10,0:0:0:0:
185,210,110933,1,2,0:0:0:0:
181,286,111046,1,2,0:0:0:0:
48,339,111274,6,0,L|186:321,1,110,0|0,1:0|0:0,0:0:0:0:
238,354,111615,2,0,L|376:336,1,110,2|2,1:2|0:0,0:0:0:0:
462,351,111955,5,10,0:0:0:0:
426,271,112069,1,2,0:0:0:0:
466,192,112183,1,2,0:0:0:0:
479,166,112410,5,2,0:0:0:0:
483,128,112637,1,10,0:0:0:0:
465,101,112865,1,0,0:0:0:0:
356,154,113092,6,0,P|272:177|234:139,1,110,0|0,1:0|0:0,0:0:0:0:
202,243,113433,2,0,P|118:220|80:258,1,110,0|0,1:0|0:0,0:0:0:0:
15,251,113774,2,0,L|43:183,1,55,10|0,0:0|0:0,0:0:0:0:
114,131,114001,5,2,0:0:0:0:
108,98,114228,1,2,0:0:0:0:
97,67,114455,1,10,0:0:0:0:
73,47,114683,1,2,0:0:0:0:
192,27,114910,6,0,P|210:81|207:118,1,65.9999979858399,2|2,0:0|0:0,0:0:0:0:
289,118,115365,2,0,P|251:160|217:176,2,65.9999979858399,2|2|2,0:0|0:0|0:0,0:0:0:0:
152,140,116046,5,2,0:0:0:0:
57,204,116274,1,2,0:0:0:0:
58,311,116501,1,2,0:0:0:0:
155,371,116728,6,0,L|147:306,1,65.9999979858399,10|2,0:0|0:0,0:0:0:0:
230,347,117183,2,0,L|222:282,2,65.9999979858399,10|0|8,0:0|0:0|0:0,0:0:0:0:
323,372,117865,1,2,0:0:0:0:
308,275,118092,1,10,0:0:0:0:
293,173,118319,1,2,0:0:0:0:
496,46,118546,6,0,L|431:38,1,65.9999979858399,10|2,0:0|0:0,0:0:0:0:
472,121,119001,2,0,L|407:113,2,65.9999979858399,10|0|8,0:0|0:0|0:0,0:0:0:0:
497,214,119683,1,2,0:0:0:0:
400,199,119910,1,10,0:0:0:0:
303,178,120137,1,0,0:0:0:0:
206,116,120365,5,10,0:0:0:0:
226,17,120592,1,2,0:0:0:0:
145,193,120819,1,10,0:0:0:0:
108,87,121046,1,2,0:0:0:0:
68,245,121274,1,10,0:0:0:0:
58,231,121728,5,10,0:0:0:0:
280,194,121955,1,2,0:0:0:0:
219,352,122183,6,0,L|213:275,1,65.9999979858399,10|0,0:0|0:0,0:0:0:0:
303,374,122637,2,0,L|297:297,1,65.9999979858399,10|0,0:0|0:0,0:0:0:0:
313,278,122978,1,2,0:0:0:0:
338,260,123092,2,0,L|415:254,1,65.9999979858399,8|2,0:0|0:0,0:0:0:0:
362,180,123546,2,0,L|439:174,1,65.9999979858399,10|2,0:0|0:0,0:0:0:0:
452,65,124001,5,2,1:2:0:0:
457,86,124228,1,2,1:2:0:0:
328,72,124455,1,10,1:2:0:0:
334,50,124683,1,0,1:0:0:0:
381,221,124910,1,0,1:0:0:0:
386,242,125137,1,2,1:2:0:0:
257,228,125365,1,10,1:2:0:0:
263,206,125592,1,2,1:2:0:0:
25,196,125819,5,2,1:2:0:0:
20,175,126046,1,2,1:2:0:0:
149,189,126274,1,10,1:2:0:0:
143,211,126501,1,0,1:0:0:0:
96,40,126728,1,0,1:0:0:0:
91,19,126955,1,2,1:2:0:0:
220,33,127183,1,10,1:2:0:0:
214,55,127410,1,2,1:2:0:0:
289,185,127637,5,2,1:2:0:0:
274,152,127751,1,0,1:0:0:0:
277,118,127865,1,2,1:2:0:0:
305,99,127978,1,0,1:0:0:0:
372,77,128092,5,2,1:2:0:0:
434,122,128205,1,0,1:0:0:0:
444,200,128319,1,2,1:2:0:0:
400,267,128433,1,0,1:0:0:0:
337,309,128546,5,2,1:2:0:0:
251,329,128660,1,0,1:0:0:0:
164,346,128774,1,0,1:0:0:0:
80,368,128887,1,0,1:0:0:0:
11,302,129001,5,2,1:2:0:0:
57,225,129115,1,0,1:0:0:0:
136,252,129228,1,2,1:2:0:0:
154,111,130819,5,0,0:0:0:0:
168,137,131046,1,0,0:0:0:0:
168,174,131274,2,0,P|143:221|147:263,1,82.5000031471254,6|0,1:2|0:0,0:0:0:0:
259,246,131501,2,0,P|287:291|325:308,1,82.5000031471254,0|0,1:0|0:0,0:0:0:0:
386,206,131728,1,8,0:1:0:0:
376,215,131955,5,0,0:0:0:0:
338,131,132069,1,2,0:0:0:0:
407,74,132183,1,2,0:0:0:0:
480,135,132296,1,2,0:0:0:0:
455,216,132410,2,0,P|369:211|350:196,1,82.5000031471254,2|0,1:2|0:0,0:0:0:0:
293,262,132637,2,0,P|207:267|188:282,1,82.5000031471254,8|0,0:1|0:0,0:0:0:0:
79,352,132865,5,2,0:0:0:0:
118,274,132978,1,2,0:0:0:0:
30,256,133092,2,0,L|35:159,1,82.5000031471254,2|0,1:2|0:0,0:0:0:0:
166,88,133319,2,0,L|170:170,1,82.5000031471254,2|0,1:2|0:0,0:0:0:0:
14,238,133546,2,0,L|19:141,1,82.5000031471254,8|0,0:1|0:0,0:0:0:0:
186,52,133774,5,0,0:0:0:0:
188,146,133887,1,2,0:0:0:0:
195,244,134001,2,0,P|243:248|286:224,1,82.5000031471254,2|2,0:0|0:0,0:0:0:0:
357,152,134228,2,0,P|395:137|436:143,1,82.5000031471254,2|0,1:2|0:0,0:0:0:0:
486,293,134455,2,0,L|497:191,1,82.5000031471254,8|0,0:1|0:0,0:0:0:0:
367,369,134683,2,0,L|356:267,1,82.5000031471254,2|0,0:0|0:0,0:0:0:0:
295,59,134910,6,0,P|270:95|257:151,1,82.5000031471254,2|0,0:0|0:0,0:0:0:0:
156,101,135137,2,0,P|153:145|172:202,1,82.5000031471254,0|0,1:0|0:0,0:0:0:0:
270,255,135365,6,0,P|197:211|130:358,1,247.500009441376,8|2,0:1|0:0,0:0:0:0:
240,361,135819,6,0,P|265:325|278:269,1,82.5000031471254,2|2,0:0|0:0,0:0:0:0:
379,319,136046,2,0,P|382:275|363:218,1,82.5000031471254,2|0,1:2|0:0,0:0:0:0:
505,147,136274,6,0,P|430:165|381:143,1,82.5000031471254,8|0,0:1|0:0,0:0:0:0:
311,179,136501,2,0,P|236:161|187:183,1,82.5000031471254,2|0,0:0|0:0,0:0:0:0:
72,12,136728,6,0,P|38:45|24:92,1,82.5000031471254,2|0,0:0|0:0,0:0:0:0:
131,92,136955,2,0,P|119:133|125:197,1,82.5000031471254,10|8,1:2|0:0,0:0:0:0:
249,159,137183,1,8,0:1:0:0:
246,141,137410,5,0,0:0:0:0:
293,210,137524,1,0,0:0:0:0:
232,270,137637,1,8,0:0:0:0:
248,356,137751,1,0,0:0:0:0:
334,384,137865,2,0,L|422:380,1,82.5000031471254,10|8,0:0|0:0,0:0:0:0:
502,294,138092,5,8,0:1:0:0:
488,268,138319,1,2,0:0:0:0:
488,231,138546,2,0,P|513:184|509:142,1,82.5000031471254,2|0,1:2|0:0,0:0:0:0:
397,159,138774,2,0,P|368:113|330:96,1,82.5000031471254,0|0,1:0|0:0,0:0:0:0:
270,199,139001,1,8,0:1:0:0:
262,212,139228,5,0,0:0:0:0:
300,128,139342,1,2,0:0:0:0:
231,71,139455,1,2,0:0:0:0:
158,132,139569,1,2,0:0:0:0:
183,213,139683,2,0,P|269:208|288:193,1,82.5000031471254,2|0,1:2|0:0,0:0:0:0:
281,298,139910,2,0,P|367:303|386:318,1,82.5000031471254,8|0,0:1|0:0,0:0:0:0:
444,380,140137,5,2,0:0:0:0:
512,332,140251,1,2,0:0:0:0:
494,254,140365,2,0,L|489:157,1,82.5000031471254,2|0,1:2|0:0,0:0:0:0:
358,86,140592,2,0,L|353:168,1,82.5000031471254,0|0,1:0|0:0,0:0:0:0:
510,236,140819,2,0,L|505:139,1,82.5000031471254,8|0,0:1|0:0,0:0:0:0:
379,11,141046,5,0,0:0:0:0:
302,9,141160,1,2,0:0:0:0:
242,55,141274,2,0,P|238:103|262:146,1,82.5000031471254,2|2,0:0|0:0,0:0:0:0:
223,232,141501,2,0,P|261:217|301:222,1,82.5000031471254,2|0,1:2|0:0,0:0:0:0:
137,383,141728,2,0,L|148:281,1,82.5000031471254,8|0,0:1|0:0,0:0:0:0:
367,369,141955,2,0,L|356:267,1,82.5000031471254,2|0,0:0|0:0,0:0:0:0:
372,51,142183,6,0,P|397:87|410:143,1,82.5000031471254,2|0,0:0|0:0,0:0:0:0:
511,93,142410,2,0,P|514:137|495:194,1,82.5000031471254,0|0,1:0|0:0,0:0:0:0:
241,117,142637,6,0,P|216:81|203:25,2,82.5000031471254,8|0|0,0:1|0:0|0:0,0:0:0:0:
202,267,142978,2,0,P|139:169|27:196,1,247.500009441376
281,366,143546,6,0,P|306:330|319:274,1,82.5000031471254,8|0,0:1|0:0,0:0:0:0:
420,324,143774,2,0,P|423:280|404:223,1,82.5000031471254,2|2,0:0|0:0,0:0:0:0:
353,138,144001,5,2,0:0:0:0:
384,46,144228,1,0,1:0:0:0:
499,62,144455,1,8,0:1:0:0:
499,62,144569,1,0,0:0:0:0:
499,62,144683,1,0,0:0:0:0:
499,62,144796,1,2,1:2:0:0:
499,62,144910,5,0,0:0:0:0:
301,149,145137,1,2,1:2:0:0:
140,69,145365,1,8,0:1:0:0:
45,120,145592,1,0,1:0:0:0:
261,322,153092,5,8,0:1:0:0:
250,293,153546,1,8,0:1:0:0:
241,259,154001,1,8,0:1:0:0:
235,221,154455,1,8,0:1:0:0:
435,124,154910,5,8,0:1:0:0:
441,151,155137,1,2,1:2:0:0:
322,173,155365,1,8,0:1:0:0:
316,200,155592,1,0,1:0:0:0:
447,266,155819,1,8,0:1:0:0:
453,293,156046,1,0,1:0:0:0:
334,315,156274,1,8,0:1:0:0:
328,342,156501,1,0,1:0:0:0:
218,245,156728,5,8,0:1:0:0:
191,239,156955,1,0,1:0:0:0:
169,358,157183,1,8,0:1:0:0:
142,364,157410,1,0,1:0:0:0:
76,233,157637,1,8,0:1:0:0:
49,227,157865,1,2,1:2:0:0:
27,346,158092,1,8,0:1:0:0:
0,352,158319,1,0,1:0:0:0:
277,356,158546,5,8,0:1:0:0:
297,335,158660,1,8,0:1:0:0:
297,300,158774,1,8,0:1:0:0:
280,262,158887,1,8,0:1:0:0:
215,218,159001,5,8,0:1:0:0:
206,167,159115,1,8,0:1:0:0:
225,117,159228,1,8,0:1:0:0:
270,101,159342,1,8,0:1:0:0:
357,76,159455,5,8,0:1:0:0:
435,78,159569,1,8,0:1:0:0:
488,136,159683,1,8,0:1:0:0:
490,215,159796,1,8,0:1:0:0:
448,295,159910,5,8,0:1:0:0:
380,332,160024,1,8,0:1:0:0:
305,320,160137,1,8,0:1:0:0:
233,336,160251,1,8,0:1:0:0:
192,360,160365,6,0,L|130:355,1,60.5,2|0,0:0|0:0,0:0:0:0:
120,331,161728,6,0,L|181:336,1,55,4|0,0:0|0:0,0:0:0:0:
286,271,161955,5,2,0:0:0:0:
281,299,162183,5,4,1:0:0:0:
277,322,162410,5,2,1:2:0:0:
360,309,162524,1,2,0:0:0:0:
429,352,162637,1,8,0:1:0:0:
495,298,162751,1,2,0:0:0:0:
489,210,162865,1,2,0:0:0:0:
406,182,162978,1,2,0:0:0:0:
340,230,163092,6,0,L|332:297,1,55,2|0,0:0|0:0,0:0:0:0:
302,374,163319,2,0,L|286:254,1,110,2|8,1:2|0:1,0:0:0:0:
229,203,163660,2,0,L|239:146,2,55,2|0|0,0:0|0:0|0:0,0:0:0:0:
132,334,164001,5,0,1:0:0:0:
114,352,164228,5,2,1:2:0:0:
29,354,164342,1,2,0:0:0:0:
2,274,164455,1,8,0:1:0:0:
61,212,164569,1,2,0:0:0:0:
146,227,164683,1,2,0:0:0:0:
173,311,164796,5,2,0:0:0:0:
104,360,164910,1,2,0:0:0:0:
42,203,165137,1,2,1:2:0:0:
228,245,165365,2,0,L|293:235,2,55,8|0|2,0:1|0:0|0:0,0:0:0:0:
34,134,165819,5,2,1:2:0:0:
91,144,165933,1,2,0:0:0:0:
152,132,166046,1,2,1:2:0:0:
212,139,166160,1,2,0:0:0:0:
280,112,166274,2,0,L|277:39,1,55,8|0,0:1|0:0,0:0:0:0:
419,197,166501,5,2,0:0:0:0:
419,197,166615,1,2,0:0:0:0:
419,197,166728,1,2,0:0:0:0:
362,207,166842,1,2,0:0:0:0:
301,195,166955,1,2,1:2:0:0:
241,202,167069,1,2,0:0:0:0:
173,175,167183,2,0,L|176:102,1,55,8|2,0:1|0:0,0:0:0:0:
88,260,167410,2,0,L|85:205,1,55,0|2,0:0|0:0,0:0:0:0:
218,362,167637,5,10,1:2:0:0:
280,305,167751,1,2,0:0:0:0:
245,229,167865,1,10,0:0:0:0:
165,245,167978,1,10,0:0:0:0:
135,322,168092,2,0,L|133:406,1,55,10|10,0:0|0:0,0:0:0:0:
297,315,168319,5,2,0:0:0:0:
274,222,168433,1,2,0:0:0:0:
195,195,168546,2,0,L|113:206,1,55,2|0,0:0|0:0,0:0:0:0:
6,128,168774,1,2,0:0:0:0:
83,111,168887,1,2,0:0:0:0:
161,95,169001,2,0,L|254:75,2,73.3333333333333,10|2|2,0:0|0:0|0:0,0:0:0:0:
52,206,169455,6,0,P|132:188|197:233,1,153.999995300293,6|2,1:2|0:0,0:0:0:0:
190,223,170137,1,2,0:0:0:0:
159,331,170365,5,2,0:0:0:0:
192,326,170516,1,2,0:0:0:0:
226,335,170668,1,2,0:0:0:0:
293,296,170819,5,2,1:2:0:0:
381,339,170971,1,2,0:0:0:0:
483,309,171122,1,2,0:0:0:0:
445,166,171274,5,2,0:0:0:0:
419,246,171425,1,2,0:0:0:0:
501,228,171577,1,2,0:0:0:0:
445,151,171728,5,2,1:2:0:0:
342,197,171880,1,2,0:0:0:0:
230,164,172031,1,2,0:0:0:0:
290,69,172183,5,10,0:0:0:0:
339,150,172334,1,2,0:0:0:0:
249,160,172486,1,2,0:0:0:0:
142,78,172637,6,0,P|135:40|131:-8,1,76.9999976501466,2|0,0:0|0:0,0:0:0:0:
80,195,173092,1,0,1:0:0:0:
70,178,173319,5,2,1:2:0:0:
14,243,173433,1,2,0:0:0:0:
49,318,173546,1,8,0:1:0:0:
135,328,173660,1,2,0:0:0:0:
188,261,173774,1,2,0:0:0:0:
156,181,173887,1,2,0:0:0:0:
72,167,174001,6,0,L|-35:160,1,55,2|0,0:0|0:0,0:0:0:0:
0,66,174228,1,0,0:0:0:0:
94,24,174342,2,0,L|82:117,1,55,2|8,0:0|0:1,0:0:0:0:
172,157,174569,1,2,0:0:0:0:
131,231,174683,1,2,0:0:0:0:
177,298,174796,1,2,0:0:0:0:
243,236,174910,5,10,1:2:0:0:
326,276,175024,1,10,0:0:0:0:
313,360,175137,1,10,1:2:0:0:
229,377,175251,1,2,0:0:0:0:
174,312,175365,6,0,L|80:299,1,55,8|0,0:1|0:0,0:0:0:0:
12,217,175592,1,2,0:0:0:0:
84,160,175705,1,2,0:0:0:0:
162,208,175819,1,2,0:0:0:0:
9,129,176046,5,2,0:0:0:0:
0,113,176160,1,2,0:0:0:0:
8,93,176274,2,0,L|66:98,1,49.4999984893799,4|0,0:1|0:0,0:0:0:0:
157,19,176728,6,0,P|178:58|180:108,1,82.5000031471254,6|0,1:2|0:0,0:0:0:0:
273,129,176955,2,0,P|249:166|207:193,1,82.5000031471254,0|0,1:0|0:0,0:0:0:0:
315,257,177183,1,8,0:1:0:0:
292,266,177524,1,2,0:0:0:0:
265,277,177865,6,0,P|306:277|359:293,1,82.5000031471254,2|0,1:2|0:0,0:0:0:0:
454,138,178092,2,0,P|433:173|393:211,1,82.5000031471254,8|0,0:1|0:0,0:0:0:0:
479,371,178319,2,0,P|458:335|445:281,1,82.5000031471254,2|0,0:0|0:0,0:0:0:0:
313,107,178546,6,0,P|302:151|321:208,1,82.5000031471254,2|0,1:2|0:0,0:0:0:0:
217,245,178774,2,0,P|249:276|308:288,1,82.5000031471254,0|0,1:0|0:0,0:0:0:0:
204,371,179001,1,8,0:1:0:0:
172,359,179342,1,2,0:0:0:0:
137,346,179683,6,0,P|132:287|131:263,1,82.5000031471254,2|0,1:2|0:0,0:0:0:0:
8,237,179910,2,0,P|74:205|130:284,1,165.000006294251,8|2,0:1|0:0,0:0:0:0:
302,202,180365,6,0,P|253:178|215:183,1,82.5000031471254,2|0,0:0|0:0,0:0:0:0:
184,81,180592,2,0,P|138:111|124:146,1,82.5000031471254,0|0,1:0|0:0,0:0:0:0:
31,67,180819,1,8,0:1:0:0:
27,45,181160,1,2,0:0:0:0:
21,21,181501,6,0,P|83:43|122:31,1,82.5000031471254,2|0,1:2|0:0,0:0:0:0:
265,40,181728,2,0,P|214:82|205:122,1,82.5000031471254,8|0,0:1|0:0,0:0:0:0:
126,241,181955,2,0,P|114:176|84:148,1,82.5000031471254,2|0,0:0|0:0,0:0:0:0:
292,120,182183,6,0,P|333:149|346:204,1,82.5000031471254,2|0,0:0|0:0,0:0:0:0:
440,171,182410,2,0,P|435:221|394:260,1,82.5000031471254,0|0,1:0|0:0,0:0:0:0:
489,317,182637,1,8,0:1:0:0:
480,343,182978,1,2,1:2:0:0:
469,368,183319,6,0,L|330:347,1,82.5000031471254,2|0,0:0|0:0,0:0:0:0:
200,375,183546,2,0,L|287:265,1,82.5000031471254,8|0,0:1|0:0,0:0:0:0:
328,138,183774,2,0,L|379:268,1,82.5000031471254,2|0,0:0|0:0,0:0:0:0:
148,264,184001,6,0,P|126:203|137:168,1,82.5000031471254,2|0,1:2|0:0,0:0:0:0:
38,152,184228,2,0,P|79:102|115:94,1,82.5000031471254,0|0,1:0|0:0,0:0:0:0:
22,14,184455,1,8,0:1:0:0:
53,19,184796,1,2,0:0:0:0:
82,23,185137,6,0,P|125:60|136:111,1,82.5000031471254,2|0,1:2|0:0,0:0:0:0:
321,127,185365,2,0,P|267:145|217:129,1,82.5000031471254,8|0,0:1|0:0,0:0:0:0:
111,282,185592,2,0,P|121:226|160:191,1,82.5000031471254,2|0,0:0|0:0,0:0:0:0:
328,300,185819,6,0,L|215:274,1,82.5000031471254,2|0,1:2|0:0,0:0:0:0:
427,313,186046,2,0,L|393:202,1,82.5000031471254,0|0,1:0|0:0,0:0:0:0:
510,252,186274,1,8,0:1:0:0:
504,228,186615,1,2,0:0:0:0:
494,190,186955,6,0,P|449:176|413:173,1,82.5000031471254,2|0,1:2|0:0,0:0:0:0:
472,58,187183,2,0,P|397:138|425:183,1,165.000006294251,8|2,0:1|0:0,0:0:0:0:
297,332,187637,6,0,P|333:277|341:236,1,82.5000031471254,2|0,0:0|0:0,0:0:0:0:
148,252,187865,2,0,P|213:255|253:242,1,82.5000031471254,0|0,1:0|0:0,0:0:0:0:
197,139,188092,1,8,0:1:0:0:
194,114,188433,1,2,0:0:0:0:
192,86,188774,6,0,P|171:130|142:163,1,82.5000031471254,2|0,1:2|0:0,0:0:0:0:
196,309,189001,2,0,P|167:268|153:227,1,82.5000031471254,8|0,0:1|0:0,0:0:0:0:
0,201,189228,2,0,P|49:196|91:205,1,82.5000031471254,2|0,0:0|0:0,0:0:0:0:
274,263,189455,6,0,P|298:318|295:370,1,82.5000031471254,2|0,0:0|0:0,0:0:0:0:
268,176,189683,2,0,P|327:182|371:211,1,82.5000031471254,0|0,1:0|0:0,0:0:0:0:
369,105,189910,5,8,0:1:0:0:
351,96,190024,1,0,1:0:0:0:
338,88,190137,1,0,0:0:0:0:
324,79,190251,1,2,1:2:0:0:
314,66,190365,5,2,0:0:0:0:
307,90,190592,1,2,0:0:0:0:
308,117,190819,1,8,0:1:0:0:
317,142,191046,1,2,0:0:0:0:
336,159,191274,5,2,0:0:0:0:
406,253,191501,1,2,0:0:0:0:
348,352,191728,1,12,0:1:0:0:
355,377,191955,5,2,0:0:0:0:
266,345,192069,1,2,0:0:0:0:
183,374,192183,1,2,0:0:0:0:
103,345,192296,1,2,0:0:0:0:
18,360,192410,2,0,L|25:277,1,82.5000031471254,2|0,1:2|0:0,0:0:0:0:
193,196,192637,6,0,L|200:278,1,82.5000031471254,8|0,0:1|0:0,0:0:0:0:
4,373,192865,2,0,L|11:290,1,82.5000031471254,2|0,0:0|0:0,0:0:0:0:
187,323,193092,5,2,1:2:0:0:
245,252,193205,1,2,0:0:0:0:
204,173,193319,2,0,L|212:256,1,82.5000031471254,2|0,1:2|0:0,0:0:0:0:
50,195,193546,1,8,0:1:0:0:
54,211,193774,5,2,0:0:0:0:
14,131,193887,1,2,0:0:0:0:
78,66,194001,2,0,P|122:62|165:65,1,82.5000031471254,2|0,0:0|0:0,0:0:0:0:
310,127,194228,2,0,P|266:131|223:128,1,82.5000031471254,2|0,1:2|0:0,0:0:0:0:
79,59,194455,6,0,P|123:55|166:58,1,82.5000031471254,8|0,0:1|0:0,0:0:0:0:
311,120,194683,2,0,P|267:124|224:121,1,82.5000031471254,2|0,0:0|0:0,0:0:0:0:
121,230,194910,6,0,L|132:345,1,82.5000031471254,2|0,1:2|0:0,0:0:0:0:
272,292,195137,2,0,L|265:375,1,82.5000031471254,2|0,1:2|0:0,0:0:0:0:
421,291,195365,1,8,0:1:0:0:
432,307,195592,5,0,0:0:0:0:
478,241,195705,1,0,0:0:0:0:
427,175,195819,5,2,0:0:0:0:
343,180,195933,1,2,0:0:0:0:
303,256,196046,1,2,1:2:0:0:
349,334,196160,1,2,0:0:0:0:
442,343,196274,1,8,0:1:0:0:
501,281,196387,1,2,0:0:0:0:
483,187,196501,6,0,L|494:105,1,82.5000031471254,0|0,0:0|0:0,0:0:0:0:
345,242,196728,2,0,L|334:160,1,82.5000031471254,0|0,1:0|0:0,0:0:0:0:
192,207,196955,5,8,1:2:0:0:
119,241,197069,1,8,0:0:0:0:
42,226,197183,1,8,0:1:0:0:
5,159,197296,2,0,L|15:78,1,82.5000031471254,8|0,0:0|0:0,0:0:0:0:
178,12,197524,1,8,0:0:0:0:
230,74,197637,2,0,L|220:156,1,82.5000031471254,2|0,1:2|0:0,0:0:0:0:
297,304,197865,2,0,L|287:223,1,82.5000031471254,2|0,0:0|0:0,0:0:0:0:
465,159,198092,6,0,L|505:164,1,33,12|0,0:1|0:0,0:0:0:0:
436,160,198546,6,0,P|395:164|357:149,1,82.5000031471254,2|0,1:2|0:0,0:0:0:0:
315,273,198774,2,0,P|246:238|234:220,1,82.5000031471254,2|0,1:2|0:0,0:0:0:0:
218,357,199001,1,8,0:1:0:0:
239,376,199228,5,2,0:0:0:0:
144,371,199342,1,2,0:0:0:0:
111,283,199455,1,2,0:0:0:0:
157,208,199569,1,2,0:0:0:0:
247,191,199683,2,0,L|329:193,1,82.5000031471254,2|0,1:2|0:0,0:0:0:0:
449,67,199910,6,0,L|367:65,1,82.5000031471254,8|0,0:1|0:0,0:0:0:0:
239,203,200137,2,0,L|321:205,1,82.5000031471254,2|0,0:0|0:0,0:0:0:0:
276,33,200365,5,2,1:2:0:0:
355,78,200478,1,2,0:0:0:0:
452,57,200592,2,0,L|369:54,1,82.5000031471254,2|0,1:2|0:0,0:0:0:0:
129,132,200819,1,8,0:1:0:0:
110,114,201046,5,2,0:0:0:0:
74,195,201160,1,0,0:0:0:0:
128,265,201274,2,0,L|230:258,1,82.5000031471254,2|0,0:0|0:0,0:0:0:0:
372,221,201501,2,0,P|381:260|369:299,1,82.5000031471254,2|0,1:2|0:0,0:0:0:0:
136,274,201728,6,0,L|238:267,1,82.5000031471254,8|0,0:1|0:0,0:0:0:0:
380,230,201955,2,0,P|389:269|377:308,1,82.5000031471254,2|0,0:0|0:0,0:0:0:0:
124,352,202183,6,0,L|130:269,1,82.5000031471254,2|0,1:2|0:0,0:0:0:0:
15,218,202410,2,0,L|9:135,1,82.5000031471254,2|0,1:2|0:0,0:0:0:0:
110,59,202637,1,8,0:1:0:0:
113,73,202865,5,0,0:0:0:0:
169,61,202978,1,0,0:0:0:0:
230,61,203092,5,2,0:0:0:0:
287,134,203205,1,2,0:0:0:0:
246,229,203319,1,2,1:2:0:0:
139,250,203433,1,2,0:0:0:0:
68,175,203546,1,8,0:1:0:0:
101,86,203660,1,2,0:0:0:0:
203,53,203774,6,0,P|296:53|337:48,1,82.5000031471254,0|0,0:0|0:0,0:0:0:0:
406,182,204001,6,0,P|428:130|421:87,1,82.5000031471254,0|0,1:0|0:0,0:0:0:0:
303,308,204228,2,0,P|339:329|380:334,1,82.5000031471254,8|0,1:2|0:0,0:0:0:0:
245,167,204455,1,8,0:1:0:0:
230,139,204910,6,0,B|214:107|146:119|134:187|178:239|230:235|262:267,1,230.99999295044,2|0,0:2|0:0,0:0:0:0:
282,141,205365,2,0,B|298:109|366:121|378:189|334:241|322:216|282:237|246:269,1,230.99999295044,2|0,0:0|0:0,0:0:0:0:
