osu file format v14

[General]
AudioFilename: audio.mp3
AudioLeadIn: 0
PreviewTime: 13674
Countdown: 0
SampleSet: Normal
StackLeniency: 0.7
Mode: 3
LetterboxInBreaks: 0
SpecialStyle: 0
WidescreenStoryboard: 1

[Editor]
DistanceSpacing: 1.2
BeatDivisor: 4
GridSize: 4
TimelineZoom: 1.9

[Metadata]
Title:LIKEY
TitleUnicode:LIKEY
Artist:TWICE
ArtistUnicode:트와이스
Creator:IngNite
Version:L-L-Likey
Source:
Tags:
BeatmapID:1872004
BeatmapSetID:868355

[Difficulty]
HPDrainRate:8
CircleSize:4
OverallDifficulty:8
ApproachRate:5
SliderMultiplier:1.4
SliderTickRate:1

[Events]
//Background and Video events
0,0,"tzuyu-kpop-idol-twice-(12914).jpg",0,0
//Break Periods
//Storyboard Layer 0 (Background)
//Storyboard Layer 1 (Fail)
//Storyboard Layer 2 (Pass)
//Storyboard Layer 3 (Foreground)
//Storyboard Sound Samples

[TimingPoints]
265,454.545454545455,4,1,0,100,1,0
14355,-200,4,1,0,100,0,0
14469,-142.857142857143,4,1,0,100,0,0
14583,-100,4,1,0,100,0,0
21174,-125,4,1,0,100,0,0
21287,-100,4,1,0,100,0,0
21628,-125,4,1,0,100,0,0
21742,-100,4,1,0,100,0,0
70946,-200,4,1,0,100,0,0
71174,-166.666666666667,4,1,0,100,0,0
71401,-142.857142857143,4,1,0,100,0,0
71628,-125,4,1,0,100,0,0
71742,-100,4,1,0,100,0,0
72083,-125,4,1,0,100,0,0
72196,-100,4,1,0,100,0,0
72537,-200,4,1,0,100,0,0
72651,-142.857142857143,4,1,0,100,0,0
72765,-100,4,1,0,100,0,0
79810,-200,4,1,0,100,0,0
79924,-142.857142857143,4,1,0,100,0,0
80037,-100,4,1,0,100,0,0
87083,-200,4,1,0,100,0,0
87196,-142.857142857143,4,1,0,100,0,0
87310,-100,4,1,0,100,0,0
93901,-125,4,1,0,100,0,0
94015,-100,4,1,0,100,0,0
94355,-125,4,1,0,100,0,0
94469,-100,4,1,0,100,0,0
101174,-125,4,1,0,100,0,0
101287,-100,4,1,0,100,0,0
101628,-125,4,1,0,100,0,0
101742,-100,4,1,0,100,0,0
102083,-66.6666666666667,4,1,0,100,0,0
102196,-200,4,1,0,100,0,0
102424,-66.6666666666667,4,1,0,100,0,0
102537,-200,4,1,0,100,0,0
102765,-100,4,1,0,100,0,0
103105,-142.857142857143,4,1,0,100,0,0
103446,-100,4,1,0,100,0,0
103674,-200,4,1,0,100,0,0
103901,-66.6666666666667,4,1,0,100,0,0
104015,-200,4,1,0,100,0,0
104242,-66.6666666666667,4,1,0,100,0,0
104355,-200,4,1,0,100,0,0
104583,-100,4,1,0,100,0,0
104924,-142.857142857143,4,1,0,100,0,0
105265,-100,4,1,0,100,0,0
105492,-200,4,1,0,100,0,0
105719,-66.6666666666667,4,1,0,100,0,0
105833,-200,4,1,0,100,0,0
106060,-66.6666666666667,4,1,0,100,0,0
106174,-200,4,1,0,100,0,0
106401,-100,4,1,0,100,0,0
106742,-142.857142857143,4,1,0,100,0,0
107083,-100,4,1,0,100,0,0
107310,-200,4,1,0,100,0,0
107537,-83.3333333333333,4,1,0,100,0,0
107651,-200,4,1,0,100,0,0
107878,-83.3333333333333,4,1,0,100,0,0
107992,-111.111111111111,4,1,0,100,0,0
109355,-66.6666666666667,4,1,0,100,0,0
109469,-200,4,1,0,100,0,0
109696,-66.6666666666667,4,1,0,100,0,0
109810,-200,4,1,0,100,0,0
110037,-100,4,1,0,100,0,0
110378,-142.857142857143,4,1,0,100,0,0
110719,-100,4,1,0,100,0,0
110946,-200,4,1,0,100,0,0
111174,-66.6666666666667,4,1,0,100,0,0
111287,-200,4,1,0,100,0,0
111515,-66.6666666666667,4,1,0,100,0,0
111628,-200,4,1,0,100,0,0
111855,-100,4,1,0,100,0,0
112196,-142.857142857143,4,1,0,100,0,0
112537,-100,4,1,0,100,0,0
112765,-200,4,1,0,100,0,0
112992,-66.6666666666667,4,1,0,100,0,0
113105,-200,4,1,0,100,0,0
113333,-66.6666666666667,4,1,0,100,0,0
113446,-200,4,1,0,100,0,0
113674,-90.9090909090909,4,1,0,100,0,0
113787,-125,4,1,0,100,0,0
114355,-90.9090909090909,4,1,0,100,0,0
114469,-111.111111111111,4,1,0,100,0,0
115719,-100,4,1,0,100,0,0
129810,-125,4,1,0,100,0,0
129924,-100,4,1,0,100,0,0
130265,-125,4,1,0,100,0,0
130378,-100,4,1,0,100,0,0
130719,-200,4,1,0,100,0,0
130833,-142.857142857143,4,1,0,100,0,0
130946,-100,4,1,0,100,0,0
137992,-200,4,1,0,100,0,0
138105,-142.857142857143,4,1,0,100,0,0
138219,-100,4,1,0,100,0,0
169355,-111.111111111111,4,1,0,100,0,0
169810,-100,4,1,0,100,0,0
170265,-111.111111111111,4,1,0,100,0,0
172992,-100,4,1,0,100,0,0
176174,-200,4,1,0,100,0,0
176287,-142.857142857143,4,1,0,100,0,0
176401,-100,4,1,0,100,0,0
191174,-111.111111111111,4,1,0,100,0,0
191287,-125,4,1,0,100,0,0
191401,-142.857142857143,4,1,0,100,0,0
191515,-100,4,1,0,100,0,0
197537,-125,4,1,0,100,0,0
197651,-100,4,1,0,100,0,0
197992,-125,4,1,0,100,0,0
198105,-100,4,1,0,100,0,0
204810,-125,4,1,0,100,0,0
204924,-100,4,1,0,100,0,0
205151,-111.111111111111,4,1,0,100,0,0
205265,-125,4,1,0,100,0,0
205378,-100,4,1,0,100,0,0

[HitObjects]
192,192,265,128,0,492:0:0:0:0:
320,192,719,1,0,0:0:0:0:
448,192,1060,1,0,0:0:0:0:
192,192,1401,1,0,0:0:0:0:
64,192,1628,1,0,0:0:0:0:
320,192,1855,128,0,2083:0:0:0:0:
448,192,1855,1,0,0:0:0:0:
192,192,2083,1,0,0:0:0:0:
64,192,2537,1,0,0:0:0:0:
64,192,2878,1,0,0:0:0:0:
448,192,3219,128,0,3446:0:0:0:0:
192,192,3219,1,0,0:0:0:0:
320,192,3446,1,0,0:0:0:0:
448,192,3901,128,0,4128:0:0:0:0:
64,192,3901,1,0,0:0:0:0:
192,192,4355,1,0,0:0:0:0:
192,192,4696,1,0,0:0:0:0:
448,192,5037,1,0,0:0:0:0:
320,192,5265,1,0,0:0:0:0:
64,192,5265,128,0,5492:0:0:0:0:
448,192,5492,128,0,5719:0:0:0:0:
192,192,5492,1,0,0:0:0:0:
64,192,5719,1,0,0:0:0:0:
320,192,6174,1,0,0:0:0:0:
64,192,6174,128,0,6401:0:0:0:0:
320,192,6515,1,0,0:0:0:0:
64,192,6855,128,0,7310:0:0:0:0:
448,192,6855,1,0,0:0:0:0:
320,192,7083,1,0,0:0:0:0:
448,192,7310,1,0,0:0:0:0:
64,192,7537,1,0,0:0:0:0:
320,192,7537,128,0,7765:0:0:0:0:
192,192,7992,1,0,0:0:0:0:
448,192,7992,1,0,0:0:0:0:
448,192,8333,1,0,0:0:0:0:
320,192,8674,1,0,0:0:0:0:
64,192,8901,1,0,0:0:0:0:
192,192,8901,1,0,0:0:0:0:
448,192,9128,128,0,9355:0:0:0:0:
320,192,9128,1,0,0:0:0:0:
192,192,9355,1,0,0:0:0:0:
64,192,9810,1,0,0:0:0:0:
320,192,9810,1,0,0:0:0:0:
448,192,10151,1,0,0:0:0:0:
192,192,10492,1,0,0:0:0:0:
64,192,10492,128,0,10719:0:0:0:0:
320,192,10719,1,0,0:0:0:0:
448,192,10719,1,0,0:0:0:0:
192,192,11174,128,0,11401:0:0:0:0:
448,192,11628,128,0,11855:0:0:0:0:
192,192,11855,128,0,12083:0:0:0:0:
448,192,12083,128,0,12310:0:0:0:0:
192,192,12310,128,0,12537:0:0:0:0:
320,192,12537,128,0,12765:0:0:0:0:
448,192,12765,128,0,13446:0:0:0:0:
64,192,12992,128,0,14355:0:0:0:0:
192,192,14355,5,0,0:0:0:0:
320,192,14355,1,0,0:0:0:0:
64,192,14810,5,0,0:0:0:0:
448,192,14810,1,0,0:0:0:0:
192,192,15037,1,0,0:0:0:0:
320,192,15037,1,0,0:0:0:0:
448,192,15265,1,0,0:0:0:0:
64,192,15265,1,0,0:0:0:0:
192,192,15265,1,0,0:0:0:0:
320,192,15492,1,0,0:0:0:0:
64,192,15605,1,0,0:0:0:0:
192,192,15719,1,0,0:0:0:0:
448,192,15833,1,0,0:0:0:0:
64,192,15946,1,0,0:0:0:0:
320,192,15946,1,0,0:0:0:0:
64,192,16174,1,0,0:0:0:0:
192,192,16174,1,0,0:0:0:0:
448,192,16174,1,0,0:0:0:0:
320,192,16401,1,0,0:0:0:0:
64,192,16628,1,0,0:0:0:0:
192,192,16628,1,0,0:0:0:0:
64,192,16855,1,0,0:0:0:0:
192,192,16855,1,0,0:0:0:0:
192,192,17083,1,0,0:0:0:0:
320,192,17083,1,0,0:0:0:0:
448,192,17083,1,0,0:0:0:0:
64,192,17310,1,0,0:0:0:0:
192,192,17424,1,0,0:0:0:0:
320,192,17537,1,0,0:0:0:0:
64,192,17651,1,0,0:0:0:0:
448,192,17765,1,0,0:0:0:0:
192,192,17765,1,0,0:0:0:0:
64,192,17992,1,0,0:0:0:0:
192,192,17992,1,0,0:0:0:0:
320,192,17992,1,0,0:0:0:0:
448,192,18219,1,0,0:0:0:0:
64,192,18446,1,0,0:0:0:0:
192,192,18446,1,0,0:0:0:0:
320,192,18674,1,0,0:0:0:0:
448,192,18674,1,0,0:0:0:0:
64,192,18901,1,0,0:0:0:0:
192,192,18901,1,0,0:0:0:0:
320,192,18901,1,0,0:0:0:0:
448,192,19128,1,0,0:0:0:0:
64,192,19355,128,0,19583:0:0:0:0:
192,192,19355,1,0,0:0:0:0:
448,192,19583,128,0,19810:0:0:0:0:
320,192,19583,1,0,0:0:0:0:
64,192,19810,128,0,20037:0:0:0:0:
192,192,19810,1,0,0:0:0:0:
320,192,20037,128,0,20265:0:0:0:0:
448,192,20037,1,0,0:0:0:0:
64,192,20265,1,0,0:0:0:0:
192,192,20492,1,0,0:0:0:0:
320,192,20605,1,0,0:0:0:0:
448,192,20719,1,0,0:0:0:0:
64,192,20719,1,0,0:0:0:0:
192,192,20833,1,0,0:0:0:0:
64,192,21174,128,0,21401:0:0:0:0:
320,192,21174,1,0,0:0:0:0:
448,192,21628,128,0,21855:0:0:0:0:
192,192,21628,1,0,0:0:0:0:
64,192,21628,1,0,0:0:0:0:
64,192,22083,1,0,0:0:0:0:
320,192,22083,1,0,0:0:0:0:
64,192,22310,1,0,0:0:0:0:
320,192,22310,1,0,0:0:0:0:
192,192,22537,1,0,0:0:0:0:
320,192,22537,1,0,0:0:0:0:
448,192,22537,1,0,0:0:0:0:
64,192,22765,1,0,0:0:0:0:
192,192,22878,1,0,0:0:0:0:
320,192,22992,1,0,0:0:0:0:
448,192,23105,1,0,0:0:0:0:
64,192,23219,1,0,0:0:0:0:
192,192,23219,1,0,0:0:0:0:
64,192,23446,1,0,0:0:0:0:
448,192,23446,1,0,0:0:0:0:
320,192,23446,1,0,0:0:0:0:
192,192,23674,1,0,0:0:0:0:
320,192,23901,1,0,0:0:0:0:
448,192,23901,1,0,0:0:0:0:
320,192,24128,1,0,0:0:0:0:
448,192,24128,1,0,0:0:0:0:
64,192,24355,1,0,0:0:0:0:
192,192,24355,1,0,0:0:0:0:
448,192,24355,1,0,0:0:0:0:
320,192,24583,1,0,0:0:0:0:
448,192,24696,1,0,0:0:0:0:
64,192,24810,1,0,0:0:0:0:
192,192,24924,1,0,0:0:0:0:
320,192,25037,1,0,0:0:0:0:
448,192,25037,1,0,0:0:0:0:
64,192,25265,1,0,0:0:0:0:
192,192,25265,1,0,0:0:0:0:
448,192,25265,1,0,0:0:0:0:
192,192,25492,1,0,0:0:0:0:
320,192,25719,1,0,0:0:0:0:
448,192,25719,1,0,0:0:0:0:
64,192,25946,1,0,0:0:0:0:
192,192,25946,1,0,0:0:0:0:
64,192,26174,1,0,0:0:0:0:
320,192,26174,1,0,0:0:0:0:
448,192,26174,1,0,0:0:0:0:
192,192,26401,1,0,0:0:0:0:
320,192,26628,128,0,26855:0:0:0:0:
448,192,26628,1,0,0:0:0:0:
192,192,26855,128,0,27083:0:0:0:0:
64,192,26855,1,0,0:0:0:0:
320,192,27083,128,0,27310:0:0:0:0:
448,192,27083,1,0,0:0:0:0:
192,192,27310,128,0,27537:0:0:0:0:
64,192,27310,1,0,0:0:0:0:
448,192,27537,1,0,0:0:0:0:
64,192,27765,1,0,0:0:0:0:
320,192,27765,1,0,0:0:0:0:
192,192,27992,1,0,0:0:0:0:
320,192,27992,1,0,0:0:0:0:
448,192,27992,1,0,0:0:0:0:
64,192,28219,1,0,0:0:0:0:
448,192,28446,1,0,0:0:0:0:
64,192,29355,128,0,29583:0:0:0:0:
320,192,29355,1,0,0:0:0:0:
448,192,29583,128,0,29810:0:0:0:0:
192,192,29810,128,0,30037:0:0:0:0:
64,192,29810,1,0,0:0:0:0:
320,192,30037,128,0,30265:0:0:0:0:
64,192,30265,128,0,30492:0:0:0:0:
448,192,30492,128,0,30719:0:0:0:0:
192,192,30492,1,0,0:0:0:0:
192,192,30719,128,0,30946:0:0:0:0:
320,192,30719,1,0,0:0:0:0:
64,192,30946,1,0,0:0:0:0:
320,192,30946,128,0,31174:0:0:0:0:
448,192,31174,128,0,31401:0:0:0:0:
64,192,31401,128,0,31628:0:0:0:0:
448,192,31628,1,0,0:0:0:0:
320,192,31742,1,0,0:0:0:0:
192,192,31855,1,0,0:0:0:0:
64,192,31969,1,0,0:0:0:0:
448,192,32083,128,0,32310:0:0:0:0:
320,192,32310,128,0,32537:0:0:0:0:
192,192,32310,1,0,0:0:0:0:
64,192,32537,128,0,32765:0:0:0:0:
448,192,32537,1,0,0:0:0:0:
192,192,32765,128,0,32992:0:0:0:0:
320,192,32992,1,0,0:0:0:0:
448,192,32992,128,0,33219:0:0:0:0:
64,192,33219,128,0,33446:0:0:0:0:
192,192,33446,128,0,33674:0:0:0:0:
320,192,33446,1,0,0:0:0:0:
448,192,33674,128,0,33901:0:0:0:0:
64,192,33901,128,0,34128:0:0:0:0:
192,192,34128,128,0,34355:0:0:0:0:
448,192,34128,1,0,0:0:0:0:
320,192,34355,128,0,34583:0:0:0:0:
64,192,34355,1,0,0:0:0:0:
64,192,34583,128,0,34810:0:0:0:0:
448,192,34583,1,0,0:0:0:0:
448,192,34810,128,0,35037:0:0:0:0:
192,192,35037,128,0,35265:0:0:0:0:
320,192,35037,1,0,0:0:0:0:
64,192,35265,1,0,0:0:0:0:
192,192,35378,1,0,0:0:0:0:
320,192,35492,1,0,0:0:0:0:
64,192,35605,1,0,0:0:0:0:
448,192,35719,128,0,35946:0:0:0:0:
64,192,35946,128,0,36174:0:0:0:0:
192,192,35946,1,0,0:0:0:0:
192,192,36174,128,0,36401:0:0:0:0:
320,192,36174,1,0,0:0:0:0:
448,192,36401,128,0,36628:0:0:0:0:
320,192,36628,128,0,36855:0:0:0:0:
64,192,36628,1,0,0:0:0:0:
192,192,36855,128,0,37083:0:0:0:0:
64,192,37083,128,0,37310:0:0:0:0:
448,192,37083,1,0,0:0:0:0:
320,192,37310,128,0,37537:0:0:0:0:
192,192,37537,128,0,37765:0:0:0:0:
448,192,37765,128,0,37992:0:0:0:0:
320,192,37765,1,0,0:0:0:0:
64,192,37992,128,0,38219:0:0:0:0:
192,192,37992,1,0,0:0:0:0:
192,192,38219,128,0,38446:0:0:0:0:
448,192,38219,1,0,0:0:0:0:
320,192,38446,128,0,38674:0:0:0:0:
64,192,38674,128,0,38901:0:0:0:0:
448,192,38901,1,0,0:0:0:0:
320,192,39015,1,0,0:0:0:0:
64,192,39128,1,0,0:0:0:0:
192,192,39242,1,0,0:0:0:0:
320,192,39355,128,0,39583:0:0:0:0:
192,192,39583,128,0,39810:0:0:0:0:
448,192,39583,1,0,0:0:0:0:
64,192,39810,128,0,40037:0:0:0:0:
320,192,39810,1,0,0:0:0:0:
448,192,40037,128,0,40265:0:0:0:0:
320,192,40265,128,0,40492:0:0:0:0:
64,192,40265,1,0,0:0:0:0:
192,192,40492,128,0,40719:0:0:0:0:
448,192,40719,128,0,40946:0:0:0:0:
320,192,40719,1,0,0:0:0:0:
64,192,40946,128,0,41174:0:0:0:0:
192,192,41174,128,0,41401:0:0:0:0:
448,192,41401,128,0,41628:0:0:0:0:
64,192,41401,1,0,0:0:0:0:
320,192,41628,128,0,41855:0:0:0:0:
192,192,41628,1,0,0:0:0:0:
64,192,41855,128,0,42083:0:0:0:0:
448,192,41855,1,0,0:0:0:0:
192,192,42083,1,0,0:0:0:0:
320,192,42196,1,0,0:0:0:0:
448,192,42310,1,0,0:0:0:0:
64,192,42537,1,0,0:0:0:0:
192,192,42537,1,0,0:0:0:0:
320,192,42878,1,0,0:0:0:0:
448,192,42878,1,0,0:0:0:0:
320,192,43105,1,0,0:0:0:0:
448,192,43105,1,0,0:0:0:0:
64,192,43219,1,0,0:0:0:0:
192,192,43219,1,0,0:0:0:0:
192,192,43446,1,0,0:0:0:0:
320,192,43446,1,0,0:0:0:0:
448,192,43446,1,0,0:0:0:0:
64,192,43674,1,0,0:0:0:0:
192,192,43901,1,0,0:0:0:0:
320,192,43901,1,0,0:0:0:0:
64,192,44242,1,0,0:0:0:0:
192,192,44242,1,0,0:0:0:0:
192,192,44355,1,0,0:0:0:0:
320,192,44355,1,0,0:0:0:0:
448,192,44355,1,0,0:0:0:0:
64,192,44583,1,0,0:0:0:0:
192,192,44583,1,0,0:0:0:0:
320,192,44810,1,0,0:0:0:0:
448,192,45037,1,0,0:0:0:0:
64,192,45265,1,0,0:0:0:0:
192,192,45265,1,0,0:0:0:0:
320,192,45265,1,0,0:0:0:0:
448,192,45492,1,0,0:0:0:0:
320,192,45605,1,0,0:0:0:0:
64,192,45719,1,0,0:0:0:0:
192,192,45719,1,0,0:0:0:0:
320,192,46060,1,0,0:0:0:0:
448,192,46060,1,0,0:0:0:0:
64,192,46174,1,0,0:0:0:0:
192,192,46174,1,0,0:0:0:0:
320,192,46174,1,0,0:0:0:0:
448,192,46401,1,0,0:0:0:0:
320,192,46401,1,0,0:0:0:0:
64,192,46628,1,0,0:0:0:0:
192,192,46855,1,0,0:0:0:0:
64,192,47083,1,0,0:0:0:0:
320,192,47083,1,0,0:0:0:0:
448,192,47083,1,0,0:0:0:0:
192,192,47310,1,0,0:0:0:0:
320,192,47537,1,0,0:0:0:0:
448,192,47537,1,0,0:0:0:0:
192,192,47878,1,0,0:0:0:0:
320,192,47878,1,0,0:0:0:0:
64,192,47992,1,0,0:0:0:0:
320,192,47992,1,0,0:0:0:0:
448,192,47992,1,0,0:0:0:0:
192,192,48219,1,0,0:0:0:0:
320,192,48219,1,0,0:0:0:0:
448,192,48446,1,0,0:0:0:0:
64,192,48674,1,0,0:0:0:0:
192,192,48901,1,0,0:0:0:0:
320,192,48901,1,0,0:0:0:0:
448,192,48901,1,0,0:0:0:0:
448,192,49128,1,0,0:0:0:0:
320,192,49242,1,0,0:0:0:0:
64,192,49355,1,0,0:0:0:0:
192,192,49355,1,0,0:0:0:0:
64,192,49696,1,0,0:0:0:0:
192,192,49696,1,0,0:0:0:0:
64,192,49810,1,0,0:0:0:0:
320,192,49810,1,0,0:0:0:0:
448,192,49810,1,0,0:0:0:0:
192,192,50037,1,0,0:0:0:0:
64,192,50037,1,0,0:0:0:0:
320,192,50492,1,0,0:0:0:0:
448,192,50492,1,0,0:0:0:0:
64,192,50719,1,0,0:0:0:0:
192,192,50719,1,0,0:0:0:0:
448,192,50719,1,0,0:0:0:0:
320,192,50946,1,0,0:0:0:0:
192,192,51174,1,0,0:0:0:0:
448,192,51174,1,0,0:0:0:0:
192,192,51515,1,0,0:0:0:0:
320,192,51515,1,0,0:0:0:0:
64,192,51628,1,0,0:0:0:0:
192,192,51628,1,0,0:0:0:0:
448,192,51628,1,0,0:0:0:0:
192,192,51855,1,0,0:0:0:0:
320,192,51855,1,0,0:0:0:0:
64,192,52083,1,0,0:0:0:0:
192,192,52310,1,0,0:0:0:0:
448,192,52537,1,0,0:0:0:0:
64,192,52537,1,0,0:0:0:0:
320,192,52537,1,0,0:0:0:0:
320,192,52765,1,0,0:0:0:0:
192,192,52878,1,0,0:0:0:0:
64,192,52992,1,0,0:0:0:0:
320,192,52992,1,0,0:0:0:0:
448,192,53333,1,0,0:0:0:0:
320,192,53333,1,0,0:0:0:0:
320,192,53446,1,0,0:0:0:0:
64,192,53446,1,0,0:0:0:0:
192,192,53446,1,0,0:0:0:0:
320,192,53674,1,0,0:0:0:0:
448,192,53674,1,0,0:0:0:0:
64,192,53901,1,0,0:0:0:0:
448,192,54128,1,0,0:0:0:0:
64,192,54355,1,0,0:0:0:0:
320,192,54355,1,0,0:0:0:0:
192,192,54355,1,0,0:0:0:0:
192,192,54583,1,0,0:0:0:0:
448,192,54810,1,0,0:0:0:0:
320,192,54810,1,0,0:0:0:0:
64,192,55151,1,0,0:0:0:0:
192,192,55151,1,0,0:0:0:0:
192,192,55265,1,0,0:0:0:0:
320,192,55265,1,0,0:0:0:0:
448,192,55265,1,0,0:0:0:0:
64,192,55492,1,0,0:0:0:0:
192,192,55492,1,0,0:0:0:0:
320,192,55719,1,0,0:0:0:0:
192,192,55946,1,0,0:0:0:0:
64,192,56174,1,0,0:0:0:0:
448,192,56174,1,0,0:0:0:0:
320,192,56174,1,0,0:0:0:0:
192,192,56401,1,0,0:0:0:0:
320,192,56515,1,0,0:0:0:0:
64,192,56628,1,0,0:0:0:0:
448,192,56628,1,0,0:0:0:0:
192,192,56969,1,0,0:0:0:0:
320,192,56969,1,0,0:0:0:0:
320,192,57083,1,0,0:0:0:0:
448,192,57083,1,0,0:0:0:0:
64,192,57083,1,0,0:0:0:0:
320,192,57310,1,0,0:0:0:0:
192,192,57310,1,0,0:0:0:0:
448,192,57424,1,0,0:0:0:0:
192,192,57537,1,0,0:0:0:0:
320,192,57765,128,0,57878:0:0:0:0:
320,192,57992,128,0,58105:0:0:0:0:
64,192,58219,128,0,58446:0:0:0:0:
448,192,58446,128,0,60037:0:0:0:0:
192,192,58446,1,0,0:0:0:0:
64,192,58901,1,0,0:0:0:0:
320,192,59355,1,0,0:0:0:0:
192,192,59583,1,0,0:0:0:0:
64,192,59810,1,0,0:0:0:0:
192,192,60037,128,0,62083:0:0:0:0:
320,192,60265,1,0,0:0:0:0:
448,192,60719,1,0,0:0:0:0:
64,192,61174,1,0,0:0:0:0:
320,192,61401,1,0,0:0:0:0:
448,192,61628,1,0,0:0:0:0:
64,192,62083,128,0,63446:0:0:0:0:
320,192,62083,1,0,0:0:0:0:
192,192,62537,1,0,0:0:0:0:
448,192,62992,1,0,0:0:0:0:
320,192,63219,1,0,0:0:0:0:
320,192,63446,128,0,63674:0:0:0:0:
192,192,63446,1,0,0:0:0:0:
448,192,63674,128,0,65719:0:0:0:0:
64,192,63901,1,0,0:0:0:0:
192,192,64355,1,0,0:0:0:0:
64,192,64810,1,0,0:0:0:0:
320,192,65265,1,0,0:0:0:0:
64,192,65719,1,0,0:0:0:0:
192,192,65719,1,0,0:0:0:0:
320,192,65946,1,0,0:0:0:0:
448,192,65946,1,0,0:0:0:0:
64,192,66174,1,0,0:0:0:0:
320,192,66174,1,0,0:0:0:0:
192,192,66401,1,0,0:0:0:0:
448,192,66401,1,0,0:0:0:0:
64,192,66628,1,0,0:0:0:0:
192,192,66628,1,0,0:0:0:0:
320,192,66855,1,0,0:0:0:0:
448,192,66855,1,0,0:0:0:0:
64,192,67083,1,0,0:0:0:0:
448,192,67083,1,0,0:0:0:0:
192,192,67310,1,0,0:0:0:0:
320,192,67310,1,0,0:0:0:0:
64,192,67537,1,0,0:0:0:0:
192,192,67537,1,0,0:0:0:0:
192,192,67765,1,0,0:0:0:0:
320,192,67765,1,0,0:0:0:0:
448,192,67992,1,0,0:0:0:0:
64,192,67992,1,0,0:0:0:0:
64,192,68219,1,0,0:0:0:0:
192,192,68219,1,0,0:0:0:0:
320,192,68446,1,0,0:0:0:0:
448,192,68446,1,0,0:0:0:0:
64,192,68674,1,0,0:0:0:0:
192,192,68674,1,0,0:0:0:0:
192,192,68901,1,0,0:0:0:0:
448,192,68901,1,0,0:0:0:0:
64,192,69128,1,0,0:0:0:0:
320,192,69128,1,0,0:0:0:0:
448,192,69355,1,0,0:0:0:0:
320,192,69469,1,0,0:0:0:0:
192,192,69583,1,0,0:0:0:0:
64,192,69696,1,0,0:0:0:0:
448,192,69810,1,0,0:0:0:0:
320,192,69924,1,0,0:0:0:0:
192,192,70037,1,0,0:0:0:0:
64,192,70151,1,0,0:0:0:0:
448,192,70265,1,0,0:0:0:0:
320,192,70378,1,0,0:0:0:0:
64,192,70492,1,0,0:0:0:0:
192,192,70605,1,0,0:0:0:0:
320,192,70719,1,0,0:0:0:0:
448,192,70833,1,0,0:0:0:0:
192,192,70946,1,0,0:0:0:0:
320,192,70946,1,0,0:0:0:0:
192,192,71628,128,0,71855:0:0:0:0:
448,192,72083,128,0,72310:0:0:0:0:
64,192,72537,1,0,0:0:0:0:
192,192,72537,1,0,0:0:0:0:
320,192,72537,1,0,0:0:0:0:
64,192,72992,1,0,0:0:0:0:
192,192,72992,1,0,0:0:0:0:
192,192,73219,1,0,0:0:0:0:
448,192,73219,1,0,0:0:0:0:
192,192,73446,1,0,0:0:0:0:
320,192,73446,1,0,0:0:0:0:
448,192,73446,1,0,0:0:0:0:
192,192,73674,1,0,0:0:0:0:
320,192,73901,1,0,0:0:0:0:
192,192,74015,1,0,0:0:0:0:
64,192,74128,1,0,0:0:0:0:
320,192,74128,1,0,0:0:0:0:
192,192,74355,1,0,0:0:0:0:
320,192,74355,1,0,0:0:0:0:
64,192,74355,1,0,0:0:0:0:
448,192,74583,1,0,0:0:0:0:
64,192,74810,1,0,0:0:0:0:
320,192,74810,1,0,0:0:0:0:
64,192,75037,1,0,0:0:0:0:
320,192,75037,1,0,0:0:0:0:
448,192,75265,1,0,0:0:0:0:
192,192,75265,1,0,0:0:0:0:
64,192,75265,1,0,0:0:0:0:
448,192,75492,1,0,0:0:0:0:
192,192,75719,1,0,0:0:0:0:
320,192,75833,1,0,0:0:0:0:
448,192,75946,1,0,0:0:0:0:
64,192,75946,1,0,0:0:0:0:
320,192,76174,1,0,0:0:0:0:
448,192,76174,1,0,0:0:0:0:
64,192,76174,1,0,0:0:0:0:
320,192,76401,1,0,0:0:0:0:
64,192,76628,1,0,0:0:0:0:
192,192,76628,1,0,0:0:0:0:
320,192,76855,1,0,0:0:0:0:
192,192,76855,1,0,0:0:0:0:
320,192,77083,1,0,0:0:0:0:
192,192,77083,1,0,0:0:0:0:
448,192,77083,1,0,0:0:0:0:
64,192,77310,1,0,0:0:0:0:
320,192,77537,1,0,0:0:0:0:
192,192,77651,1,0,0:0:0:0:
64,192,77765,1,0,0:0:0:0:
448,192,77765,1,0,0:0:0:0:
192,192,77992,1,0,0:0:0:0:
64,192,77992,1,0,0:0:0:0:
448,192,77992,1,0,0:0:0:0:
192,192,78219,1,0,0:0:0:0:
320,192,78446,1,0,0:0:0:0:
448,192,78446,1,0,0:0:0:0:
448,192,78674,1,0,0:0:0:0:
192,192,78674,1,0,0:0:0:0:
320,192,78787,1,0,0:0:0:0:
64,192,78901,1,0,0:0:0:0:
192,192,78901,1,0,0:0:0:0:
448,192,78901,1,0,0:0:0:0:
64,192,79128,1,0,0:0:0:0:
320,192,79355,1,0,0:0:0:0:
64,192,79583,1,0,0:0:0:0:
192,192,79696,1,0,0:0:0:0:
320,192,79810,1,0,0:0:0:0:
448,192,79810,1,0,0:0:0:0:
64,192,79810,1,0,0:0:0:0:
192,192,80037,1,0,0:0:0:0:
64,192,80265,1,0,0:0:0:0:
320,192,80265,1,0,0:0:0:0:
448,192,80492,1,0,0:0:0:0:
192,192,80492,1,0,0:0:0:0:
64,192,80719,1,0,0:0:0:0:
192,192,80719,1,0,0:0:0:0:
320,192,80719,1,0,0:0:0:0:
448,192,80946,1,0,0:0:0:0:
64,192,81174,1,0,0:0:0:0:
192,192,81287,1,0,0:0:0:0:
320,192,81401,1,0,0:0:0:0:
448,192,81401,1,0,0:0:0:0:
64,192,81628,1,0,0:0:0:0:
192,192,81628,1,0,0:0:0:0:
320,192,81628,1,0,0:0:0:0:
448,192,81855,1,0,0:0:0:0:
192,192,82083,1,0,0:0:0:0:
320,192,82083,1,0,0:0:0:0:
192,192,82310,1,0,0:0:0:0:
320,192,82310,1,0,0:0:0:0:
64,192,82537,1,0,0:0:0:0:
320,192,82537,1,0,0:0:0:0:
448,192,82537,1,0,0:0:0:0:
192,192,82765,1,0,0:0:0:0:
448,192,82992,1,0,0:0:0:0:
320,192,83105,1,0,0:0:0:0:
192,192,83219,1,0,0:0:0:0:
64,192,83219,1,0,0:0:0:0:
448,192,83446,1,0,0:0:0:0:
320,192,83446,1,0,0:0:0:0:
192,192,83446,1,0,0:0:0:0:
64,192,83674,1,0,0:0:0:0:
192,192,83901,1,0,0:0:0:0:
448,192,83901,1,0,0:0:0:0:
320,192,84128,1,0,0:0:0:0:
64,192,84128,1,0,0:0:0:0:
192,192,84355,1,0,0:0:0:0:
448,192,84355,1,0,0:0:0:0:
320,192,84355,1,0,0:0:0:0:
64,192,84583,1,0,0:0:0:0:
192,192,84810,1,0,0:0:0:0:
320,192,84924,1,0,0:0:0:0:
448,192,85037,1,0,0:0:0:0:
64,192,85037,1,0,0:0:0:0:
192,192,85265,1,0,0:0:0:0:
320,192,85265,1,0,0:0:0:0:
448,192,85265,1,0,0:0:0:0:
64,192,85492,1,0,0:0:0:0:
192,192,85719,1,0,0:0:0:0:
320,192,85719,1,0,0:0:0:0:
192,192,85946,1,0,0:0:0:0:
320,192,85946,1,0,0:0:0:0:
64,192,86174,1,0,0:0:0:0:
320,192,86174,1,0,0:0:0:0:
448,192,86174,1,0,0:0:0:0:
192,192,86401,1,0,0:0:0:0:
64,192,86628,1,0,0:0:0:0:
192,192,86742,1,0,0:0:0:0:
320,192,86855,1,0,0:0:0:0:
448,192,86969,1,0,0:0:0:0:
192,192,87083,1,0,0:0:0:0:
320,192,87083,1,0,0:0:0:0:
64,192,87083,1,0,0:0:0:0:
64,192,87537,128,0,87765:0:0:0:0:
448,192,87537,1,0,0:0:0:0:
320,192,87537,1,0,0:0:0:0:
192,192,87765,1,0,0:0:0:0:
192,192,87992,1,0,0:0:0:0:
320,192,87992,1,0,0:0:0:0:
448,192,87992,1,0,0:0:0:0:
448,192,88446,128,0,88674:0:0:0:0:
64,192,88446,1,0,0:0:0:0:
192,192,88674,1,0,0:0:0:0:
320,192,88674,1,0,0:0:0:0:
64,192,88901,128,0,89128:0:0:0:0:
192,192,88901,1,0,0:0:0:0:
320,192,88901,1,0,0:0:0:0:
448,192,88901,1,0,0:0:0:0:
320,192,89355,128,0,89583:0:0:0:0:
448,192,89355,1,0,0:0:0:0:
64,192,89355,1,0,0:0:0:0:
192,192,89583,1,0,0:0:0:0:
448,192,89810,1,0,0:0:0:0:
320,192,89810,1,0,0:0:0:0:
192,192,89810,1,0,0:0:0:0:
64,192,90265,128,0,90492:0:0:0:0:
192,192,90265,1,0,0:0:0:0:
448,192,90492,1,0,0:0:0:0:
320,192,90492,1,0,0:0:0:0:
448,192,90719,128,0,90946:0:0:0:0:
64,192,90719,1,0,0:0:0:0:
192,192,90719,1,0,0:0:0:0:
320,192,90719,1,0,0:0:0:0:
192,192,91174,128,0,91401:0:0:0:0:
64,192,91174,1,0,0:0:0:0:
448,192,91174,1,0,0:0:0:0:
320,192,91401,1,0,0:0:0:0:
64,192,91628,1,0,0:0:0:0:
448,192,91628,1,0,0:0:0:0:
320,192,91628,1,0,0:0:0:0:
64,192,92083,128,0,92310:0:0:0:0:
448,192,92310,128,0,92537:0:0:0:0:
192,192,92310,1,0,0:0:0:0:
64,192,92537,128,0,92765:0:0:0:0:
192,192,92537,1,0,0:0:0:0:
320,192,92537,1,0,0:0:0:0:
448,192,92765,128,0,92992:0:0:0:0:
64,192,92992,1,0,0:0:0:0:
192,192,92992,1,0,0:0:0:0:
448,192,93219,1,0,0:0:0:0:
320,192,93333,1,0,0:0:0:0:
192,192,93446,1,0,0:0:0:0:
64,192,93446,1,0,0:0:0:0:
448,192,93446,1,0,0:0:0:0:
320,192,93674,1,0,0:0:0:0:
192,192,93901,128,0,94128:0:0:0:0:
64,192,93901,1,0,0:0:0:0:
320,192,94128,1,0,0:0:0:0:
320,192,94355,128,0,94583:0:0:0:0:
192,192,94355,1,0,0:0:0:0:
448,192,94355,1,0,0:0:0:0:
192,192,94810,128,0,95037:0:0:0:0:
448,192,94810,1,0,0:0:0:0:
64,192,94810,1,0,0:0:0:0:
320,192,95037,1,0,0:0:0:0:
64,192,95265,1,0,0:0:0:0:
192,192,95265,1,0,0:0:0:0:
448,192,95265,1,0,0:0:0:0:
320,192,95492,1,0,0:0:0:0:
448,192,95719,128,0,95946:0:0:0:0:
192,192,95719,1,0,0:0:0:0:
320,192,95946,1,0,0:0:0:0:
64,192,95946,1,0,0:0:0:0:
192,192,96174,128,0,96401:0:0:0:0:
320,192,96174,1,0,0:0:0:0:
448,192,96174,1,0,0:0:0:0:
64,192,96174,1,0,0:0:0:0:
64,192,96628,128,0,96855:0:0:0:0:
320,192,96628,1,0,0:0:0:0:
448,192,96628,1,0,0:0:0:0:
192,192,96855,1,0,0:0:0:0:
320,192,97083,1,0,0:0:0:0:
448,192,97083,1,0,0:0:0:0:
192,192,97083,1,0,0:0:0:0:
64,192,97310,1,0,0:0:0:0:
320,192,97537,128,0,97765:0:0:0:0:
192,192,97537,1,0,0:0:0:0:
64,192,97765,1,0,0:0:0:0:
448,192,97765,1,0,0:0:0:0:
64,192,97992,128,0,98219:0:0:0:0:
192,192,97992,1,0,0:0:0:0:
320,192,97992,1,0,0:0:0:0:
448,192,97992,1,0,0:0:0:0:
448,192,98446,128,0,98674:0:0:0:0:
64,192,98446,1,0,0:0:0:0:
192,192,98446,1,0,0:0:0:0:
320,192,98674,1,0,0:0:0:0:
64,192,98901,1,0,0:0:0:0:
192,192,98901,1,0,0:0:0:0:
320,192,98901,1,0,0:0:0:0:
192,192,99355,128,0,99583:0:0:0:0:
448,192,99583,128,0,99810:0:0:0:0:
320,192,99583,1,0,0:0:0:0:
192,192,99810,128,0,100037:0:0:0:0:
64,192,99810,1,0,0:0:0:0:
320,192,99810,1,0,0:0:0:0:
448,192,100037,128,0,100265:0:0:0:0:
64,192,100265,1,0,0:0:0:0:
192,192,100265,1,0,0:0:0:0:
320,192,100492,1,0,0:0:0:0:
448,192,100492,1,0,0:0:0:0:
64,192,100719,1,0,0:0:0:0:
192,192,100719,1,0,0:0:0:0:
320,192,100719,1,0,0:0:0:0:
448,192,100946,1,0,0:0:0:0:
320,192,101174,128,0,101401:0:0:0:0:
64,192,101174,1,0,0:0:0:0:
192,192,101628,128,0,101855:0:0:0:0:
448,192,101628,1,0,0:0:0:0:
64,192,102083,5,0,0:0:0:0:
64,192,102424,1,0,0:0:0:0:
192,192,102765,1,0,0:0:0:0:
320,192,102765,1,0,0:0:0:0:
192,192,103446,1,0,0:0:0:0:
320,192,103446,1,0,0:0:0:0:
448,192,103901,1,0,0:0:0:0:
448,192,104242,1,0,0:0:0:0:
64,192,104583,5,0,0:0:0:0:
192,192,104583,1,0,0:0:0:0:
192,192,105265,1,0,0:0:0:0:
64,192,105265,1,0,0:0:0:0:
320,192,105719,5,0,0:0:0:0:
320,192,106060,1,0,0:0:0:0:
192,192,106401,1,0,0:0:0:0:
448,192,106401,1,0,0:0:0:0:
192,192,107083,1,0,0:0:0:0:
448,192,107083,1,0,0:0:0:0:
448,192,107537,1,0,0:0:0:0:
192,192,107537,128,0,107992:0:0:0:0:
448,192,107878,1,0,0:0:0:0:
64,192,107992,128,0,108219:0:0:0:0:
320,192,108219,128,0,108446:0:0:0:0:
448,192,108446,128,0,108901:0:0:0:0:
320,192,108901,128,0,109355:0:0:0:0:
192,192,109128,128,0,109355:0:0:0:0:
448,192,109355,1,0,0:0:0:0:
448,192,109696,1,0,0:0:0:0:
192,192,110037,1,0,0:0:0:0:
320,192,110037,1,0,0:0:0:0:
192,192,110719,1,0,0:0:0:0:
320,192,110719,1,0,0:0:0:0:
320,192,111174,1,0,0:0:0:0:
320,192,111515,1,0,0:0:0:0:
64,192,111855,1,0,0:0:0:0:
448,192,111855,1,0,0:0:0:0:
64,192,112537,1,0,0:0:0:0:
448,192,112537,1,0,0:0:0:0:
192,192,112992,1,0,0:0:0:0:
192,192,113333,1,0,0:0:0:0:
320,192,113674,1,0,0:0:0:0:
448,192,113674,1,0,0:0:0:0:
64,192,113674,128,0,114128:0:0:0:0:
192,192,114128,128,0,114355:0:0:0:0:
320,192,114355,1,0,0:0:0:0:
448,192,114355,1,0,0:0:0:0:
64,192,114355,128,0,114583:0:0:0:0:
448,192,114583,128,0,115719:0:0:0:0:
64,192,115946,128,0,116060:0:0:0:0:
64,192,116174,128,0,116287:0:0:0:0:
448,192,116401,128,0,116628:0:0:0:0:
192,192,116628,128,0,118219:0:0:0:0:
320,192,116628,1,0,0:0:0:0:
64,192,117083,1,0,0:0:0:0:
448,192,117537,1,0,0:0:0:0:
320,192,117765,1,0,0:0:0:0:
64,192,117992,1,0,0:0:0:0:
448,192,118219,128,0,120265:0:0:0:0:
320,192,118446,1,0,0:0:0:0:
64,192,118901,1,0,0:0:0:0:
192,192,119355,1,0,0:0:0:0:
320,192,119583,1,0,0:0:0:0:
64,192,119810,1,0,0:0:0:0:
64,192,120265,128,0,121628:0:0:0:0:
192,192,120265,1,0,0:0:0:0:
448,192,120719,1,0,0:0:0:0:
320,192,121174,1,0,0:0:0:0:
448,192,121401,1,0,0:0:0:0:
192,192,121628,128,0,121855:0:0:0:0:
320,192,121628,1,0,0:0:0:0:
320,192,121855,128,0,123901:0:0:0:0:
64,192,122083,1,0,0:0:0:0:
448,192,122537,1,0,0:0:0:0:
192,192,122992,1,0,0:0:0:0:
64,192,123446,1,0,0:0:0:0:
448,192,123674,1,0,0:0:0:0:
192,192,123901,1,0,0:0:0:0:
448,192,123901,1,0,0:0:0:0:
64,192,124128,1,0,0:0:0:0:
192,192,124128,1,0,0:0:0:0:
320,192,124355,1,0,0:0:0:0:
448,192,124355,1,0,0:0:0:0:
64,192,124583,1,0,0:0:0:0:
448,192,124583,1,0,0:0:0:0:
192,192,124810,1,0,0:0:0:0:
320,192,124810,1,0,0:0:0:0:
64,192,125037,1,0,0:0:0:0:
320,192,125037,1,0,0:0:0:0:
448,192,125265,1,0,0:0:0:0:
192,192,125265,1,0,0:0:0:0:
64,192,125492,1,0,0:0:0:0:
192,192,125492,1,0,0:0:0:0:
64,192,125719,1,0,0:0:0:0:
448,192,125719,1,0,0:0:0:0:
320,192,125946,1,0,0:0:0:0:
192,192,125946,1,0,0:0:0:0:
448,192,126174,1,0,0:0:0:0:
320,192,126174,1,0,0:0:0:0:
64,192,126401,1,0,0:0:0:0:
192,192,126401,1,0,0:0:0:0:
192,192,126628,1,0,0:0:0:0:
448,192,126628,1,0,0:0:0:0:
64,192,126855,1,0,0:0:0:0:
320,192,126855,1,0,0:0:0:0:
192,192,127083,1,0,0:0:0:0:
320,192,127083,1,0,0:0:0:0:
64,192,127310,1,0,0:0:0:0:
448,192,127310,1,0,0:0:0:0:
64,192,127537,1,0,0:0:0:0:
448,192,127537,1,0,0:0:0:0:
192,192,127651,1,0,0:0:0:0:
320,192,127765,1,0,0:0:0:0:
192,192,127878,1,0,0:0:0:0:
64,192,127992,1,0,0:0:0:0:
448,192,127992,1,0,0:0:0:0:
320,192,128105,1,0,0:0:0:0:
192,192,128219,1,0,0:0:0:0:
320,192,128333,1,0,0:0:0:0:
64,192,128446,1,0,0:0:0:0:
448,192,128446,1,0,0:0:0:0:
192,192,128560,1,0,0:0:0:0:
320,192,128674,1,0,0:0:0:0:
192,192,128787,1,0,0:0:0:0:
64,192,128901,1,0,0:0:0:0:
448,192,128901,1,0,0:0:0:0:
192,192,129015,1,0,0:0:0:0:
320,192,129128,1,0,0:0:0:0:
448,192,129128,1,0,0:0:0:0:
64,192,129810,128,0,130037:0:0:0:0:
448,192,129810,1,0,0:0:0:0:
448,192,130265,128,0,130492:0:0:0:0:
64,192,130265,1,0,0:0:0:0:
64,192,131174,1,0,0:0:0:0:
192,192,131174,1,0,0:0:0:0:
192,192,131401,1,0,0:0:0:0:
448,192,131401,1,0,0:0:0:0:
192,192,131628,1,0,0:0:0:0:
320,192,131628,1,0,0:0:0:0:
448,192,131628,1,0,0:0:0:0:
192,192,131855,1,0,0:0:0:0:
320,192,132083,1,0,0:0:0:0:
192,192,132196,1,0,0:0:0:0:
64,192,132310,1,0,0:0:0:0:
320,192,132310,1,0,0:0:0:0:
192,192,132537,1,0,0:0:0:0:
320,192,132537,1,0,0:0:0:0:
64,192,132537,1,0,0:0:0:0:
448,192,132765,1,0,0:0:0:0:
64,192,132992,1,0,0:0:0:0:
320,192,132992,1,0,0:0:0:0:
64,192,133219,1,0,0:0:0:0:
320,192,133219,1,0,0:0:0:0:
448,192,133446,1,0,0:0:0:0:
192,192,133446,1,0,0:0:0:0:
64,192,133446,1,0,0:0:0:0:
448,192,133674,1,0,0:0:0:0:
192,192,133901,1,0,0:0:0:0:
320,192,134015,1,0,0:0:0:0:
448,192,134128,1,0,0:0:0:0:
64,192,134128,1,0,0:0:0:0:
320,192,134355,1,0,0:0:0:0:
448,192,134355,1,0,0:0:0:0:
64,192,134355,1,0,0:0:0:0:
320,192,134583,1,0,0:0:0:0:
64,192,134810,1,0,0:0:0:0:
192,192,134810,1,0,0:0:0:0:
320,192,135037,1,0,0:0:0:0:
192,192,135037,1,0,0:0:0:0:
320,192,135265,1,0,0:0:0:0:
192,192,135265,1,0,0:0:0:0:
448,192,135265,1,0,0:0:0:0:
64,192,135492,1,0,0:0:0:0:
320,192,135719,1,0,0:0:0:0:
192,192,135833,1,0,0:0:0:0:
64,192,135946,1,0,0:0:0:0:
448,192,135946,1,0,0:0:0:0:
192,192,136174,1,0,0:0:0:0:
64,192,136174,1,0,0:0:0:0:
448,192,136174,1,0,0:0:0:0:
192,192,136401,1,0,0:0:0:0:
320,192,136628,1,0,0:0:0:0:
448,192,136628,1,0,0:0:0:0:
448,192,136855,1,0,0:0:0:0:
192,192,136855,1,0,0:0:0:0:
320,192,136969,1,0,0:0:0:0:
64,192,137083,1,0,0:0:0:0:
192,192,137083,1,0,0:0:0:0:
448,192,137083,1,0,0:0:0:0:
64,192,137310,1,0,0:0:0:0:
320,192,137537,1,0,0:0:0:0:
64,192,137765,1,0,0:0:0:0:
192,192,137878,1,0,0:0:0:0:
320,192,137992,1,0,0:0:0:0:
448,192,137992,1,0,0:0:0:0:
64,192,137992,1,0,0:0:0:0:
192,192,138219,1,0,0:0:0:0:
64,192,138446,1,0,0:0:0:0:
320,192,138446,1,0,0:0:0:0:
448,192,138674,1,0,0:0:0:0:
192,192,138674,1,0,0:0:0:0:
64,192,138901,1,0,0:0:0:0:
192,192,138901,1,0,0:0:0:0:
320,192,138901,1,0,0:0:0:0:
448,192,139128,1,0,0:0:0:0:
64,192,139355,1,0,0:0:0:0:
192,192,139469,1,0,0:0:0:0:
320,192,139583,1,0,0:0:0:0:
448,192,139583,1,0,0:0:0:0:
64,192,139810,1,0,0:0:0:0:
192,192,139810,1,0,0:0:0:0:
320,192,139810,1,0,0:0:0:0:
448,192,140037,1,0,0:0:0:0:
192,192,140265,1,0,0:0:0:0:
320,192,140265,1,0,0:0:0:0:
192,192,140492,1,0,0:0:0:0:
320,192,140492,1,0,0:0:0:0:
64,192,140719,1,0,0:0:0:0:
320,192,140719,1,0,0:0:0:0:
448,192,140719,1,0,0:0:0:0:
192,192,140946,1,0,0:0:0:0:
448,192,141174,1,0,0:0:0:0:
320,192,141287,1,0,0:0:0:0:
192,192,141401,1,0,0:0:0:0:
64,192,141401,1,0,0:0:0:0:
448,192,141628,1,0,0:0:0:0:
320,192,141628,1,0,0:0:0:0:
192,192,141628,1,0,0:0:0:0:
64,192,141855,1,0,0:0:0:0:
192,192,142083,1,0,0:0:0:0:
448,192,142083,1,0,0:0:0:0:
320,192,142310,1,0,0:0:0:0:
64,192,142310,1,0,0:0:0:0:
192,192,142537,1,0,0:0:0:0:
448,192,142537,1,0,0:0:0:0:
320,192,142537,1,0,0:0:0:0:
64,192,142765,1,0,0:0:0:0:
192,192,142992,1,0,0:0:0:0:
320,192,143105,1,0,0:0:0:0:
448,192,143219,1,0,0:0:0:0:
64,192,143219,1,0,0:0:0:0:
192,192,143446,1,0,0:0:0:0:
320,192,143446,1,0,0:0:0:0:
448,192,143446,1,0,0:0:0:0:
64,192,143674,1,0,0:0:0:0:
192,192,143901,1,0,0:0:0:0:
320,192,143901,1,0,0:0:0:0:
192,192,144128,1,0,0:0:0:0:
320,192,144128,1,0,0:0:0:0:
64,192,144355,1,0,0:0:0:0:
320,192,144355,1,0,0:0:0:0:
448,192,144355,1,0,0:0:0:0:
192,192,144583,1,0,0:0:0:0:
64,192,144810,1,0,0:0:0:0:
192,192,144924,1,0,0:0:0:0:
320,192,145037,1,0,0:0:0:0:
448,192,145151,1,0,0:0:0:0:
192,192,145265,1,0,0:0:0:0:
320,192,145265,1,0,0:0:0:0:
64,192,145265,1,0,0:0:0:0:
320,192,147537,1,0,0:0:0:0:
192,192,147537,128,0,147992:0:0:0:0:
320,192,147992,1,0,0:0:0:0:
64,192,147992,128,0,150265:0:0:0:0:
320,192,148446,1,0,0:0:0:0:
320,192,148901,1,0,0:0:0:0:
448,192,149355,1,0,0:0:0:0:
448,192,149810,1,0,0:0:0:0:
448,192,150265,1,0,0:0:0:0:
320,192,150265,128,0,151174:0:0:0:0:
448,192,150719,1,0,0:0:0:0:
64,192,151174,1,0,0:0:0:0:
192,192,151174,128,0,151855:0:0:0:0:
64,192,151628,1,0,0:0:0:0:
448,192,151855,128,0,152992:0:0:0:0:
64,192,152083,1,0,0:0:0:0:
64,192,152537,1,0,0:0:0:0:
192,192,152992,1,0,0:0:0:0:
64,192,152992,1,0,0:0:0:0:
320,192,153446,1,0,0:0:0:0:
448,192,153446,1,0,0:0:0:0:
64,192,153901,1,0,0:0:0:0:
320,192,153901,1,0,0:0:0:0:
192,192,154355,1,0,0:0:0:0:
448,192,154355,1,0,0:0:0:0:
64,192,154810,1,0,0:0:0:0:
192,192,154810,1,0,0:0:0:0:
448,192,155037,1,0,0:0:0:0:
320,192,155265,1,0,0:0:0:0:
192,192,155265,1,0,0:0:0:0:
64,192,155492,1,0,0:0:0:0:
320,192,155719,1,0,0:0:0:0:
448,192,155719,1,0,0:0:0:0:
192,192,155946,1,0,0:0:0:0:
64,192,156174,1,0,0:0:0:0:
320,192,156174,1,0,0:0:0:0:
448,192,156401,1,0,0:0:0:0:
192,192,156628,1,0,0:0:0:0:
320,192,156628,1,0,0:0:0:0:
64,192,156855,1,0,0:0:0:0:
448,192,157083,1,0,0:0:0:0:
320,192,157083,1,0,0:0:0:0:
192,192,157310,1,0,0:0:0:0:
64,192,157537,1,0,0:0:0:0:
448,192,157537,1,0,0:0:0:0:
320,192,157765,1,0,0:0:0:0:
192,192,157992,1,0,0:0:0:0:
64,192,157992,1,0,0:0:0:0:
320,192,158219,1,0,0:0:0:0:
448,192,158446,1,0,0:0:0:0:
64,192,158446,1,0,0:0:0:0:
192,192,158560,1,0,0:0:0:0:
320,192,158674,1,0,0:0:0:0:
448,192,158787,1,0,0:0:0:0:
64,192,158901,1,0,0:0:0:0:
192,192,159015,1,0,0:0:0:0:
320,192,159128,1,0,0:0:0:0:
448,192,159242,1,0,0:0:0:0:
64,192,159355,1,0,0:0:0:0:
192,192,159469,1,0,0:0:0:0:
448,192,159583,1,0,0:0:0:0:
320,192,159696,1,0,0:0:0:0:
192,192,159810,1,0,0:0:0:0:
64,192,159924,1,0,0:0:0:0:
448,192,160037,1,0,0:0:0:0:
320,192,160151,1,0,0:0:0:0:
448,192,160265,128,0,161628:0:0:0:0:
192,192,161628,1,0,0:0:0:0:
320,192,161628,1,0,0:0:0:0:
64,192,162083,1,0,0:0:0:0:
192,192,162083,1,0,0:0:0:0:
320,192,162310,1,0,0:0:0:0:
448,192,162310,1,0,0:0:0:0:
64,192,162537,1,0,0:0:0:0:
192,192,162537,1,0,0:0:0:0:
448,192,162537,1,0,0:0:0:0:
320,192,162765,1,0,0:0:0:0:
192,192,162992,1,0,0:0:0:0:
64,192,163219,1,0,0:0:0:0:
192,192,163219,1,0,0:0:0:0:
448,192,163446,1,0,0:0:0:0:
320,192,163446,1,0,0:0:0:0:
64,192,163446,1,0,0:0:0:0:
192,192,163674,1,0,0:0:0:0:
64,192,163901,1,0,0:0:0:0:
448,192,163901,1,0,0:0:0:0:
192,192,164128,1,0,0:0:0:0:
320,192,164128,1,0,0:0:0:0:
64,192,164355,1,0,0:0:0:0:
320,192,164355,1,0,0:0:0:0:
448,192,164355,1,0,0:0:0:0:
192,192,164583,1,0,0:0:0:0:
320,192,164810,1,0,0:0:0:0:
64,192,165037,1,0,0:0:0:0:
192,192,165037,1,0,0:0:0:0:
192,192,165265,1,0,0:0:0:0:
320,192,165265,1,0,0:0:0:0:
448,192,165265,1,0,0:0:0:0:
64,192,165492,1,0,0:0:0:0:
320,192,165719,1,0,0:0:0:0:
448,192,165719,1,0,0:0:0:0:
64,192,165946,1,0,0:0:0:0:
320,192,165946,1,0,0:0:0:0:
448,192,166174,1,0,0:0:0:0:
192,192,166174,1,0,0:0:0:0:
64,192,166174,1,0,0:0:0:0:
320,192,166401,1,0,0:0:0:0:
448,192,166628,1,0,0:0:0:0:
64,192,166855,1,0,0:0:0:0:
192,192,166855,1,0,0:0:0:0:
448,192,167083,1,0,0:0:0:0:
320,192,167083,1,0,0:0:0:0:
64,192,167083,1,0,0:0:0:0:
192,192,167310,1,0,0:0:0:0:
64,192,167537,1,0,0:0:0:0:
192,192,167537,1,0,0:0:0:0:
320,192,167765,1,0,0:0:0:0:
448,192,167765,1,0,0:0:0:0:
64,192,167878,1,0,0:0:0:0:
192,192,167992,1,0,0:0:0:0:
320,192,167992,1,0,0:0:0:0:
448,192,167992,1,0,0:0:0:0:
192,192,168446,128,0,168674:0:0:0:0:
448,192,168674,128,0,168901:0:0:0:0:
320,192,168901,1,0,0:0:0:0:
192,192,169015,1,0,0:0:0:0:
320,192,169128,1,0,0:0:0:0:
192,192,169242,1,0,0:0:0:0:
64,192,169355,128,0,169469:0:0:0:0:
448,192,169355,1,0,0:0:0:0:
64,192,169810,1,0,0:0:0:0:
192,192,169867,1,0,0:0:0:0:
320,192,169924,1,0,0:0:0:0:
448,192,169980,1,0,0:0:0:0:
64,192,170037,1,0,0:0:0:0:
192,192,170094,1,0,0:0:0:0:
320,192,170151,1,0,0:0:0:0:
448,192,170208,1,0,0:0:0:0:
192,192,170265,128,0,170378:0:0:0:0:
320,192,170719,128,0,170833:0:0:0:0:
64,192,170719,1,0,0:0:0:0:
448,192,171174,128,0,171287:0:0:0:0:
192,192,171401,1,0,0:0:0:0:
64,192,171628,128,0,171742:0:0:0:0:
320,192,171855,128,0,171969:0:0:0:0:
192,192,172083,128,0,172196:0:0:0:0:
64,192,172083,1,0,0:0:0:0:
64,192,172424,1,0,0:0:0:0:
448,192,172537,128,0,172651:0:0:0:0:
64,192,172765,1,0,0:0:0:0:
192,192,172878,1,0,0:0:0:0:
320,192,172992,1,0,0:0:0:0:
448,192,172992,1,0,0:0:0:0:
320,192,173219,1,0,0:0:0:0:
448,192,173219,1,0,0:0:0:0:
64,192,173446,1,0,0:0:0:0:
192,192,173446,1,0,0:0:0:0:
448,192,173446,1,0,0:0:0:0:
320,192,173674,1,0,0:0:0:0:
64,192,173901,1,0,0:0:0:0:
192,192,174128,1,0,0:0:0:0:
320,192,174128,1,0,0:0:0:0:
448,192,174355,1,0,0:0:0:0:
320,192,174355,1,0,0:0:0:0:
64,192,174355,1,0,0:0:0:0:
448,192,174583,1,0,0:0:0:0:
64,192,174810,1,0,0:0:0:0:
192,192,174810,1,0,0:0:0:0:
320,192,174924,1,0,0:0:0:0:
192,192,175037,1,0,0:0:0:0:
448,192,175037,1,0,0:0:0:0:
64,192,175265,1,0,0:0:0:0:
320,192,175265,1,0,0:0:0:0:
448,192,175265,1,0,0:0:0:0:
192,192,175492,1,0,0:0:0:0:
192,192,175719,128,0,176174:0:0:0:0:
64,192,176174,1,0,0:0:0:0:
320,192,176174,1,0,0:0:0:0:
448,192,176174,1,0,0:0:0:0:
64,192,176628,1,0,0:0:0:0:
448,192,176628,1,0,0:0:0:0:
192,192,176855,1,0,0:0:0:0:
320,192,176855,1,0,0:0:0:0:
448,192,177083,1,0,0:0:0:0:
64,192,177083,1,0,0:0:0:0:
192,192,177083,1,0,0:0:0:0:
320,192,177310,1,0,0:0:0:0:
320,192,177537,1,0,0:0:0:0:
192,192,177651,1,0,0:0:0:0:
64,192,177765,1,0,0:0:0:0:
320,192,177765,1,0,0:0:0:0:
64,192,177992,1,0,0:0:0:0:
192,192,177992,1,0,0:0:0:0:
448,192,177992,1,0,0:0:0:0:
320,192,178219,1,0,0:0:0:0:
64,192,178446,1,0,0:0:0:0:
192,192,178446,1,0,0:0:0:0:
320,192,178674,1,0,0:0:0:0:
448,192,178674,1,0,0:0:0:0:
192,192,178901,1,0,0:0:0:0:
320,192,178901,1,0,0:0:0:0:
448,192,178901,1,0,0:0:0:0:
64,192,179128,1,0,0:0:0:0:
192,192,179242,1,0,0:0:0:0:
320,192,179355,1,0,0:0:0:0:
64,192,179469,1,0,0:0:0:0:
448,192,179583,1,0,0:0:0:0:
192,192,179583,1,0,0:0:0:0:
64,192,179810,1,0,0:0:0:0:
192,192,179810,1,0,0:0:0:0:
320,192,179810,1,0,0:0:0:0:
448,192,180037,1,0,0:0:0:0:
64,192,180265,1,0,0:0:0:0:
192,192,180265,1,0,0:0:0:0:
320,192,180492,1,0,0:0:0:0:
448,192,180492,1,0,0:0:0:0:
64,192,180719,1,0,0:0:0:0:
192,192,180719,1,0,0:0:0:0:
320,192,180719,1,0,0:0:0:0:
448,192,180946,1,0,0:0:0:0:
320,192,181060,1,0,0:0:0:0:
64,192,181174,1,0,0:0:0:0:
320,192,181401,1,0,0:0:0:0:
192,192,181401,1,0,0:0:0:0:
64,192,181628,1,0,0:0:0:0:
320,192,181628,1,0,0:0:0:0:
448,192,181628,1,0,0:0:0:0:
448,192,181855,1,0,0:0:0:0:
192,192,182083,1,0,0:0:0:0:
320,192,182083,1,0,0:0:0:0:
192,192,182310,1,0,0:0:0:0:
448,192,182310,1,0,0:0:0:0:
320,192,182424,1,0,0:0:0:0:
64,192,182537,1,0,0:0:0:0:
192,192,182537,1,0,0:0:0:0:
448,192,182537,1,0,0:0:0:0:
320,192,182765,1,0,0:0:0:0:
448,192,182992,1,0,0:0:0:0:
192,192,183105,1,0,0:0:0:0:
320,192,183219,1,0,0:0:0:0:
64,192,183219,1,0,0:0:0:0:
448,192,183333,1,0,0:0:0:0:
64,192,183446,1,0,0:0:0:0:
192,192,183446,1,0,0:0:0:0:
320,192,183446,1,0,0:0:0:0:
448,192,183674,1,0,0:0:0:0:
64,192,183901,1,0,0:0:0:0:
192,192,183901,1,0,0:0:0:0:
192,192,184128,1,0,0:0:0:0:
320,192,184128,1,0,0:0:0:0:
448,192,184355,1,0,0:0:0:0:
64,192,184355,1,0,0:0:0:0:
320,192,184355,1,0,0:0:0:0:
192,192,184583,1,0,0:0:0:0:
320,192,184810,1,0,0:0:0:0:
192,192,185037,1,0,0:0:0:0:
448,192,185037,1,0,0:0:0:0:
192,192,185265,1,0,0:0:0:0:
448,192,185265,1,0,0:0:0:0:
64,192,185265,1,0,0:0:0:0:
320,192,185378,1,0,0:0:0:0:
192,192,185492,1,0,0:0:0:0:
64,192,185719,1,0,0:0:0:0:
448,192,185719,1,0,0:0:0:0:
448,192,185946,1,0,0:0:0:0:
320,192,185946,1,0,0:0:0:0:
64,192,186174,1,0,0:0:0:0:
192,192,186174,1,0,0:0:0:0:
320,192,186174,1,0,0:0:0:0:
448,192,186401,1,0,0:0:0:0:
64,192,186628,1,0,0:0:0:0:
192,192,186855,1,0,0:0:0:0:
320,192,186855,1,0,0:0:0:0:
64,192,187083,1,0,0:0:0:0:
192,192,187083,1,0,0:0:0:0:
320,192,187083,1,0,0:0:0:0:
64,192,187537,1,0,0:0:0:0:
320,192,187537,1,0,0:0:0:0:
192,192,187765,1,0,0:0:0:0:
448,192,187765,1,0,0:0:0:0:
64,192,187992,1,0,0:0:0:0:
320,192,187992,1,0,0:0:0:0:
448,192,187992,1,0,0:0:0:0:
192,192,188219,1,0,0:0:0:0:
320,192,188446,1,0,0:0:0:0:
64,192,188674,1,0,0:0:0:0:
192,192,188674,1,0,0:0:0:0:
192,192,188901,1,0,0:0:0:0:
320,192,188901,1,0,0:0:0:0:
448,192,188901,1,0,0:0:0:0:
64,192,189128,1,0,0:0:0:0:
320,192,189355,1,0,0:0:0:0:
192,192,189355,1,0,0:0:0:0:
64,192,189583,1,0,0:0:0:0:
448,192,189583,1,0,0:0:0:0:
192,192,189696,1,0,0:0:0:0:
64,192,189810,1,0,0:0:0:0:
320,192,189810,1,0,0:0:0:0:
448,192,189810,1,0,0:0:0:0:
192,192,189924,1,0,0:0:0:0:
320,192,190037,1,0,0:0:0:0:
448,192,190151,1,0,0:0:0:0:
64,192,190265,1,0,0:0:0:0:
320,192,190378,1,0,0:0:0:0:
192,192,190492,1,0,0:0:0:0:
448,192,190492,1,0,0:0:0:0:
192,192,190719,1,0,0:0:0:0:
320,192,190719,1,0,0:0:0:0:
448,192,190719,1,0,0:0:0:0:
320,192,191174,128,0,191628:0:0:0:0:
448,192,191628,1,0,0:0:0:0:
64,192,191628,1,0,0:0:0:0:
192,192,191628,1,0,0:0:0:0:
320,192,191855,1,0,0:0:0:0:
64,192,191969,1,0,0:0:0:0:
192,192,192083,1,0,0:0:0:0:
448,192,192196,1,0,0:0:0:0:
64,192,192310,1,0,0:0:0:0:
320,192,192310,1,0,0:0:0:0:
64,192,192537,1,0,0:0:0:0:
192,192,192537,1,0,0:0:0:0:
448,192,192537,1,0,0:0:0:0:
320,192,192765,1,0,0:0:0:0:
64,192,192992,1,0,0:0:0:0:
192,192,192992,1,0,0:0:0:0:
64,192,193219,1,0,0:0:0:0:
192,192,193219,1,0,0:0:0:0:
192,192,193446,1,0,0:0:0:0:
320,192,193446,1,0,0:0:0:0:
448,192,193446,1,0,0:0:0:0:
64,192,193674,1,0,0:0:0:0:
192,192,193787,1,0,0:0:0:0:
320,192,193901,1,0,0:0:0:0:
64,192,194015,1,0,0:0:0:0:
448,192,194128,1,0,0:0:0:0:
192,192,194128,1,0,0:0:0:0:
64,192,194355,1,0,0:0:0:0:
192,192,194355,1,0,0:0:0:0:
320,192,194355,1,0,0:0:0:0:
448,192,194583,1,0,0:0:0:0:
64,192,194810,1,0,0:0:0:0:
192,192,194810,1,0,0:0:0:0:
320,192,195037,1,0,0:0:0:0:
448,192,195037,1,0,0:0:0:0:
64,192,195265,1,0,0:0:0:0:
192,192,195265,1,0,0:0:0:0:
320,192,195265,1,0,0:0:0:0:
448,192,195492,1,0,0:0:0:0:
64,192,195719,128,0,195946:0:0:0:0:
192,192,195719,1,0,0:0:0:0:
448,192,195946,128,0,196174:0:0:0:0:
320,192,195946,1,0,0:0:0:0:
64,192,196174,128,0,196401:0:0:0:0:
192,192,196174,1,0,0:0:0:0:
320,192,196401,128,0,196628:0:0:0:0:
448,192,196401,1,0,0:0:0:0:
64,192,196628,1,0,0:0:0:0:
192,192,196855,1,0,0:0:0:0:
320,192,196969,1,0,0:0:0:0:
448,192,197083,1,0,0:0:0:0:
64,192,197083,1,0,0:0:0:0:
192,192,197196,1,0,0:0:0:0:
64,192,197537,128,0,197765:0:0:0:0:
320,192,197537,1,0,0:0:0:0:
448,192,197992,128,0,198219:0:0:0:0:
192,192,197992,1,0,0:0:0:0:
320,192,198446,1,0,0:0:0:0:
192,192,198446,1,0,0:0:0:0:
64,192,198674,1,0,0:0:0:0:
448,192,198674,1,0,0:0:0:0:
192,192,198901,1,0,0:0:0:0:
320,192,198901,1,0,0:0:0:0:
64,192,198901,1,0,0:0:0:0:
448,192,199128,1,0,0:0:0:0:
320,192,199242,1,0,0:0:0:0:
192,192,199355,1,0,0:0:0:0:
64,192,199469,1,0,0:0:0:0:
192,192,199583,1,0,0:0:0:0:
320,192,199583,1,0,0:0:0:0:
64,192,199810,1,0,0:0:0:0:
448,192,199810,1,0,0:0:0:0:
320,192,199810,1,0,0:0:0:0:
192,192,200037,1,0,0:0:0:0:
320,192,200265,1,0,0:0:0:0:
448,192,200265,1,0,0:0:0:0:
320,192,200492,1,0,0:0:0:0:
448,192,200492,1,0,0:0:0:0:
64,192,200719,1,0,0:0:0:0:
192,192,200719,1,0,0:0:0:0:
448,192,200719,1,0,0:0:0:0:
320,192,200946,1,0,0:0:0:0:
448,192,201060,1,0,0:0:0:0:
64,192,201174,1,0,0:0:0:0:
192,192,201287,1,0,0:0:0:0:
320,192,201401,1,0,0:0:0:0:
448,192,201401,1,0,0:0:0:0:
64,192,201628,1,0,0:0:0:0:
192,192,201628,1,0,0:0:0:0:
448,192,201628,1,0,0:0:0:0:
192,192,201855,1,0,0:0:0:0:
320,192,202083,1,0,0:0:0:0:
448,192,202083,1,0,0:0:0:0:
64,192,202310,1,0,0:0:0:0:
192,192,202310,1,0,0:0:0:0:
64,192,202537,1,0,0:0:0:0:
320,192,202537,1,0,0:0:0:0:
448,192,202537,1,0,0:0:0:0:
192,192,202765,1,0,0:0:0:0:
320,192,202992,128,0,203219:0:0:0:0:
448,192,202992,1,0,0:0:0:0:
192,192,203219,128,0,203446:0:0:0:0:
64,192,203219,1,0,0:0:0:0:
320,192,203446,128,0,203674:0:0:0:0:
448,192,203446,1,0,0:0:0:0:
192,192,203674,128,0,203901:0:0:0:0:
64,192,203674,1,0,0:0:0:0:
448,192,203901,1,0,0:0:0:0:
64,192,204128,1,0,0:0:0:0:
320,192,204128,1,0,0:0:0:0:
192,192,204355,1,0,0:0:0:0:
320,192,204355,1,0,0:0:0:0:
448,192,204355,1,0,0:0:0:0:
64,192,204583,1,0,0:0:0:0:
448,192,204810,1,0,0:0:0:0:
320,192,204810,128,0,205037:0:0:0:0:
192,192,204924,128,0,205037:0:0:0:0:
64,192,205265,128,0,205492:0:0:0:0:
448,192,205265,1,0,0:0:0:0:
