osu file format v14

[General]
AudioFilename: audio.mp3
AudioLeadIn: 0
PreviewTime: 14624
Countdown: 0
SampleSet: Soft
StackLeniency: 0.7
Mode: 0
LetterboxInBreaks: 0
WidescreenStoryboard: 1

[Editor]
DistanceSpacing: 1.2
BeatDivisor: 4
GridSize: 4
TimelineZoom: 1

[Metadata]
Title:LIKEY
TitleUnicode:LIKEY
Artist:TWICE
ArtistUnicode:트와이스
Creator:CharmCaster
Version:cosmiccc's Hard
Source:
Tags:TWICETAGRAM 1ST ALBUM JYP Entertainment Nayeon Jeongyeon Momo Sana Jihyo Mina Dahyun Chaeyoung Tzuyu 나연 정연 모모 사나 지효 미나 다현 채영 쯔위 kpop cosmiccc leviza sing simuzax 트와이스 라이키
BeatmapID:1460222
BeatmapSetID:688158

[Difficulty]
HPDrainRate:5.5
CircleSize:4
OverallDifficulty:6.5
ApproachRate:7.4
SliderMultiplier:1.4
SliderTickRate:1

[Events]
//Background and Video events
0,0,"dthjdfg.jpg",0,0
Video,-7888,"LIKEY3.avi"
//Break Periods
2,10960,12194
2,147778,154012
2,176869,188785
//Storyboard Layer 0 (Background)
//Storyboard Layer 1 (Fail)
//Storyboard Layer 2 (Pass)
//Storyboard Layer 3 (Foreground)
//Storyboard Sound Samples

[TimingPoints]
306,454.545454545455,4,2,20,66,1,0
14851,-83.3333333333333,4,2,20,80,0,1
15306,-83.3333333333333,4,2,21,80,0,1
16669,-83.3333333333333,4,2,20,80,0,1
17124,-83.3333333333333,4,2,21,80,0,1
18487,-83.3333333333333,4,2,20,80,0,1
18942,-83.3333333333333,4,2,21,80,0,1
20533,-83.3333333333333,4,2,21,66,0,1
20760,-83.3333333333333,4,2,20,66,0,0
21215,-62.5,4,2,20,66,0,0
22124,-83.3333333333333,4,2,20,80,0,1
22578,-83.3333333333333,4,2,21,80,0,1
23942,-83.3333333333333,4,2,20,80,0,1
24396,-83.3333333333333,4,2,21,80,0,1
25760,-83.3333333333333,4,2,20,80,0,1
26215,-83.3333333333333,4,2,21,80,0,1
27578,-83.3333333333333,4,2,20,80,0,1
28033,-83.3333333333333,4,2,21,80,0,1
29396,-100,4,2,21,66,0,0
31669,-100,4,2,21,66,0,0
32124,-100,4,2,21,66,0,0
47465,-100,4,2,21,66,0,0
47578,-100,4,2,21,66,0,0
63033,-83.3333333333333,4,2,20,66,0,0
63487,-100,4,2,20,66,0,0
65760,-90.9090909090909,4,2,21,35,0,0
73033,-90.9090909090909,4,2,21,80,0,1
73260,-90.9090909090909,4,2,21,66,0,0
87578,-83.3333333333333,4,2,20,80,0,1
88033,-83.3333333333333,4,2,21,80,0,1
89396,-83.3333333333333,4,2,20,80,0,1
89851,-83.3333333333333,4,2,21,80,0,1
91215,-83.3333333333333,4,2,20,80,0,1
91669,-83.3333333333333,4,2,21,80,0,1
93487,-83.3333333333333,4,2,20,66,0,0
93942,-62.5,4,2,20,66,0,0
94851,-83.3333333333333,4,2,20,80,0,1
95306,-83.3333333333333,4,2,21,80,0,1
96669,-83.3333333333333,4,2,20,80,0,1
97124,-83.3333333333333,4,2,21,80,0,1
98487,-83.3333333333333,4,2,20,80,0,1
98942,-83.3333333333333,4,2,21,80,0,1
102124,-142.857142857143,4,2,20,66,0,0
112919,-142.857142857143,4,2,20,5,0,0
113033,-142.857142857143,4,2,20,66,0,0
116669,-100,4,2,20,66,0,0
123942,-90.9090909090909,4,2,21,35,0,0
131215,-90.9090909090909,4,2,21,80,0,1
131442,-90.9090909090909,4,2,21,66,0,0
154851,-100,4,2,21,45,0,0
158487,-83.3333333333334,4,2,20,45,0,0
161669,-83.3333333333334,4,2,60,20,0,0
162124,-83.3333333333334,4,2,20,55,0,0
163260,-83.3333333333334,4,2,21,55,0,0
163942,-83.3333333333334,4,2,20,55,0,0
165306,-83.3333333333334,4,2,21,55,0,0
166215,-83.3333333333334,4,2,21,55,0,0
169396,-200,4,2,20,66,0,0
169851,-200,4,2,61,66,0,0
170306,-200,4,2,20,66,0,0
172578,-200,4,2,20,80,0,1
173033,-100,4,2,20,55,0,0
174396,-100,4,2,21,55,0,0
176669,-100,4,2,20,55,0,0
191669,-83.3333333333333,4,2,21,80,0,1
193033,-83.3333333333333,4,2,20,80,0,1
193487,-83.3333333333333,4,2,21,80,0,1
194851,-83.3333333333333,4,2,20,80,0,1
195306,-83.3333333333333,4,2,21,80,0,1
197124,-83.3333333333333,4,2,20,66,0,0
197578,-62.5,4,2,20,66,0,0
198487,-83.3333333333333,4,2,20,80,0,1
198942,-83.3333333333333,4,2,21,80,0,1
200306,-83.3333333333333,4,2,20,80,0,1
200760,-83.3333333333333,4,2,21,80,0,1
202124,-83.3333333333333,4,2,20,80,0,1
202578,-83.3333333333333,4,2,21,80,0,1
203942,-83.3333333333333,4,2,20,80,0,1
204396,-83.3333333333333,4,2,21,60,0,1
204851,-83.3333333333333,4,2,20,35,0,0

[Colours]
Combo1 : 252,255,128
Combo2 : 255,151,153
Combo3 : 255,205,151
Combo4 : 176,255,251
Combo5 : 146,222,141
SliderBorder : 246,172,207
SliderTrackOverride : 43,119,197

[HitObjects]
88,265,306,5,0,0:0:0:0:
40,91,760,2,0,L|157:88,1,105
335,137,1442,5,0,0:0:0:0:
268,213,1669,1,0,0:0:0:0:
240,117,1896,1,0,0:0:0:0:
306,54,2124,5,0,0:0:0:0:
433,267,2578,2,0,L|316:270,1,105
138,227,3260,5,0,0:0:0:0:
248,212,3487,1,0,0:0:0:0:
57,137,3942,5,0,0:0:0:0:
245,107,4396,2,0,L|248:224,1,105
76,288,5078,5,0,0:0:0:0:
143,212,5305,1,0,0:0:0:0:
171,308,5532,1,0,0:0:0:0:
105,371,5760,5,0,0:0:0:0:
15,225,6214,2,0,L|12:108,1,105
216,59,6896,5,0,0:0:0:0:
195,166,7123,1,0,0:0:0:0:
118,105,7351,1,0,0:0:0:0:
140,0,7578,5,0,0:0:0:0:
293,163,8033,2,0,P|243:179|194:164,1,105
376,59,8715,1,0,0:0:0:0:
388,147,8942,1,0,0:0:0:0:
293,163,9169,1,0,0:0:0:0:
282,77,9396,5,0,0:0:0:0:
404,246,9851,2,0,P|453:262|502:247,1,105
497,80,10533,5,0,0:0:0:0:
459,173,10760,1,0,0:0:0:0:
256,192,13033,12,0,14396,0:0:0:0:
28,107,14851,5,8,0:0:0:0:
95,171,15078,2,0,P|137:180|178:172,1,83.9999974365235,8|8,0:0|0:0,0:0:0:0:
248,120,15533,1,0,0:0:0:0:
256,128,15646,1,0,0:0:0:0:
256,128,15760,1,0,0:0:0:0:
308,203,15987,1,0,0:0:0:0:
240,282,16215,1,0,0:0:0:0:
308,362,16442,1,0,0:0:0:0:
375,283,16669,5,8,0:0:0:0:
465,331,16896,1,8,0:0:0:0:
465,331,17124,2,0,L|453:239,1,83.9999974365235,8|0,0:0|0:0,0:0:0:0:
457,228,17465,1,0,0:0:0:0:
457,228,17578,1,0,0:0:0:0:
496,128,17806,1,0,0:0:0:0:
452,48,18033,1,0,0:0:0:0:
360,32,18260,1,0,0:0:0:0:
295,106,18487,5,8,0:0:0:0:
323,199,18715,1,8,0:0:0:0:
323,199,18942,2,0,P|275:203|236:182,1,83.9999974365235,8|0,0:0|0:0,0:0:0:0:
157,103,19396,2,0,B|161:58|161:58|137:11,1,83.9999974365235
41,79,19851,2,0,B|37:124|37:124|61:171,1,83.9999974365235
86,254,20306,5,0,0:0:0:0:
46,340,20533,1,8,0:0:0:0:
54,348,20646,1,8,0:0:0:0:
54,348,20760,2,0,L|96:348,1,41.9999987182618,8|0,0:0|0:0,0:0:0:0:
208,368,21215,6,0,B|215:342|215:342|198:295|198:295|208:254,1,112
356,168,21669,2,0,B|348:202|348:202|364:249|364:249|357:275,1,112
276,232,22124,5,8,0:0:0:0:
196,188,22351,2,0,L|112:196,1,83.9999974365235,8|8,0:0|0:0,0:0:0:0:
23,203,22806,1,0,0:0:0:0:
13,104,23033,1,0,0:0:0:0:
106,99,23260,1,0,0:0:0:0:
99,7,23487,1,0,0:0:0:0:
196,2,23715,1,0,0:0:0:0:
201,99,23942,5,8,0:0:0:0:
300,60,24169,1,8,0:0:0:0:
300,60,24396,2,0,P|343:72|387:65,1,83.9999974365235,8|0,0:0|0:0,0:0:0:0:
411,69,24737,1,0,0:0:0:0:
411,69,24851,1,0,0:0:0:0:
392,156,25078,1,0,0:0:0:0:
468,252,25306,1,0,0:0:0:0:
492,164,25533,1,0,0:0:0:0:
384,240,25760,5,8,0:0:0:0:
308,184,25987,1,8,0:0:0:0:
308,184,26215,2,0,B|267:193|267:193|223:185,1,83.9999974365235,8|0,0:0|0:0,0:0:0:0:
107,166,26669,2,0,B|19:158,1,83.9999974365235
49,247,27124,2,0,B|137:255,1,83.9999974365235
188,324,27578,6,0,P|146:343|103:334,2,83.9999974365235,8|8|8,0:0|0:0|0:0,0:0:0:0:
388,16,29396,6,0,L|396:88,1,70
480,64,29851,1,8,0:0:0:0:
464,144,30078,1,0,0:0:0:0:
440,228,30306,2,0,P|396:240|368:236,1,70
336,256,30646,1,0,0:0:0:0:
336,256,30760,2,0,L|324:336,2,70,8|0|0,0:0|0:0|0:0,0:0:0:0:
296,168,31442,1,0,0:0:0:0:
208,200,31669,5,0,0:0:0:0:
100,328,32124,6,0,L|28:332,1,70
16,232,32578,1,8,0:0:0:0:
40,136,32806,1,0,0:0:0:0:
40,136,32919,1,0,0:0:0:0:
40,136,33033,2,0,L|128:140,1,70
200,108,33487,5,0,0:0:0:0:
232,12,33715,1,0,0:0:0:0:
304,84,33942,2,0,P|340:88|388:76,1,70
464,32,34396,2,0,L|467:101,1,70
488,188,34851,1,0,0:0:0:0:
400,168,35078,1,0,0:0:0:0:
308,184,35306,5,0,0:0:0:0:
400,300,35760,6,0,P|408:352|404:376,1,70
311,340,36215,1,8,0:0:0:0:
216,371,36442,1,0,0:0:0:0:
116,332,36669,2,0,L|46:338,1,70
11,260,37124,1,8,0:0:0:0:
11,260,37351,1,0,0:0:0:0:
164,177,38033,2,0,L|160:217,2,35,8|0|0,0:0|0:0|0:0,0:0:0:0:
96,112,38487,6,0,P|84:72|164:52,1,140,0|8,0:0|0:0,0:0:0:0:
244,24,39169,1,0,0:0:0:0:
332,40,39396,1,0,0:0:0:0:
420,24,39624,1,0,0:0:0:0:
512,40,39851,6,0,L|508:96,1,35,8|0,0:0|0:0,0:0:0:0:
368,136,40192,1,0,0:0:0:0:
368,136,40306,2,0,P|324:144|284:128,2,70,0|0|8,0:0|0:0|0:0,0:0:0:0:
428,200,40987,1,0,0:0:0:0:
376,272,41215,1,0,0:0:0:0:
288,240,41442,1,0,0:0:0:0:
200,232,41669,2,0,L|116:228,1,70,8|0,0:0|0:0,0:0:0:0:
196,320,42124,6,0,L|265:323,1,70
348,368,42578,1,8,0:0:0:0:
432,352,42806,1,0,0:0:0:0:
464,264,43033,2,0,L|429:261,3,35
405,221,43487,2,0,B|399:189|399:189|411:153,1,70,8|0,0:0|0:0,0:0:0:0:
468,84,43942,5,0,0:0:0:0:
400,24,44169,1,0,0:0:0:0:
400,24,44283,1,0,0:0:0:0:
400,24,44396,1,8,0:0:0:0:
312,64,44624,1,0,0:0:0:0:
208,28,44851,6,0,P|224:80|216:112,1,70
188,128,45192,1,0,0:0:0:0:
188,128,45306,2,0,P|172:76|180:44,1,70,8|0,0:0|0:0,0:0:0:0:
88,24,45760,2,0,B|64:16|64:16|80:80,1,70
32,152,46215,2,0,B|116:160,1,70,8|0,0:0|0:0,0:0:0:0:
116,200,46556,1,0,0:0:0:0:
120,204,46669,6,0,L|200:200,1,70
256,260,47124,2,0,P|236:292|236:340,1,70,2|0,0:0|0:0,0:0:0:0:
324,320,47578,2,0,L|404:316,1,70
474,279,48033,1,8,0:0:0:0:
503,182,48260,1,0,0:0:0:0:
503,182,48487,2,0,B|510:142|510:142|500:110,1,70
440,24,48942,6,8,L|528:16,2,70,0|0|0,0:0|0:0|0:0,0:0:0:0:
360,92,49624,1,0,0:0:0:0:
300,20,49851,1,8,0:0:0:0:
252,96,50078,1,0,0:0:0:0:
292,180,50306,2,0,P|251:187|208:176,1,70
144,260,50760,2,0,P|136:219|148:176,1,70,8|0,0:0|0:0,0:0:0:0:
147,96,51215,6,0,B|111:87|111:87|73:98,1,70
47,112,51556,1,0,0:0:0:0:
47,112,51669,1,8,0:0:0:0:
40,192,51896,2,0,L|52:268,1,70
24,348,52351,1,0,0:0:0:0:
108,328,52578,1,8,0:0:0:0:
192,356,52806,1,0,0:0:0:0:
284,348,53033,6,0,P|264:304|240:284,1,70
344,264,53487,1,0,0:0:0:0:
388,352,53715,1,0,0:0:0:0:
388,352,53942,2,0,L|460:360,1,70
512,256,54396,2,0,L|440:248,1,70,8|0,0:0|0:0,0:0:0:0:
468,156,54851,6,0,B|483:73|483:73|463:21,1,140,0|8,0:0|0:0,0:0:0:0:
379,73,55533,1,0,0:0:0:0:
379,73,55646,1,0,0:0:0:0:
379,73,55760,2,0,L|307:65,1,70
228,36,56215,1,8,0:0:0:0:
192,120,56442,1,0,0:0:0:0:
244,200,56669,6,0,L|292:196,3,35
142,212,57124,2,0,L|146:187,6,17.5
168,240,57578,2,0,P|176:288|172:316,1,70
104,368,58033,1,0,0:0:0:0:
24,316,58260,1,0,0:0:0:0:
52,223,58487,5,0,0:0:0:0:
52,223,58715,1,0,0:0:0:0:
52,223,58942,2,0,L|68:71,1,140
144,28,59624,1,0,0:0:0:0:
240,8,59851,1,0,0:0:0:0:
328,44,60078,1,0,0:0:0:0:
328,44,60306,2,0,L|304:112,1,70
340,196,60760,2,0,P|306:204|220:132,1,140
304,112,61442,1,0,0:0:0:0:
404,116,61669,2,0,P|440:117|480:146,1,70
416,204,62124,6,0,L|424:276,1,70
512,280,62578,2,0,L|504:352,1,70
400,356,63033,2,0,B|360:368|360:368|312:356,1,83.9999974365235
228,356,63487,1,0,0:0:0:0:
144,328,63715,2,0,P|104:320|64:332,3,70
44,248,64624,1,0,0:0:0:0:
44,248,64737,1,0,0:0:0:0:
44,248,64851,1,0,0:0:0:0:
144,228,65078,1,0,0:0:0:0:
144,228,65192,1,0,0:0:0:0:
144,228,65306,2,0,L|220:232,1,70
292,176,65760,5,8,0:0:0:0:
292,176,65987,1,8,0:0:0:0:
292,176,66215,1,8,0:0:0:0:
292,176,66442,1,8,0:0:0:0:
180,135,66669,5,8,0:0:0:0:
180,135,66896,1,8,0:0:0:0:
180,135,67124,1,8,0:0:0:0:
180,135,67351,1,8,0:0:0:0:
248,38,67578,6,8,L|332:46,3,77.0000023498536
415,35,68487,2,8,L|492:28,3,77.0000023498536
492,112,69396,5,2,0:0:0:0:
492,140,69509,1,2,0:0:0:0:
492,168,69623,1,2,0:0:0:0:
492,196,69737,1,2,0:0:0:0:
460,216,69851,2,2,L|404:224,3,38.5000011749268
417,267,70306,2,2,L|361:275,3,38.5000011749268
376,309,70760,2,2,L|320:317,2,38.5000011749268
256,192,71215,8,0,72578,0:0:0:0:
36,24,73033,6,0,L|28:144,1,115.50000352478
44,168,73487,2,0,P|104:180|160:152,1,115.50000352478,8|0,0:0|0:0,0:0:0:0:
183,140,73942,1,0,0:0:0:0:
183,140,74056,1,0,0:0:0:0:
183,140,74169,1,0,0:0:0:0:
213,47,74396,1,8,0:0:0:0:
280,104,74624,1,0,0:0:0:0:
256,192,74851,2,0,L|264:284,1,77.0000023498536
208,348,75306,2,0,B|248:364|248:364|324:352,1,115.50000352478,8|0,0:0|0:0,0:0:0:0:
348,348,75760,5,0,0:0:0:0:
348,348,75874,1,0,0:0:0:0:
348,348,75987,1,0,0:0:0:0:
468,360,76215,2,0,B|480:332|480:332|472:280,1,77.0000023498536,8|0,0:0|0:0,0:0:0:0:
492,200,76669,2,0,P|453:198|419:214,1,77.0000023498536
324,196,77124,1,8,0:0:0:0:
248,252,77351,1,0,0:0:0:0:
248,252,77465,2,0,L|236:288,3,38.5000011749268
144,256,78033,5,8,0:0:0:0:
83,330,78260,2,0,P|56:296|50:257,1,77.0000023498536
32,180,78715,1,0,0:0:0:0:
32,180,78829,1,0,0:0:0:0:
32,180,78942,1,8,0:0:0:0:
76,96,79169,1,0,0:0:0:0:
60,16,79396,2,0,B|91:5|126:22|126:22|155:0|155:0|205:6,1,154.000004699707,0|2,0:0|0:0,0:0:0:0:
280,44,80078,1,0,0:0:0:0:
376,20,80306,6,0,L|368:120,1,77.0000023498536
428,160,80760,2,0,P|384:180|316:168,1,115.50000352478,8|0,0:0|0:0,0:0:0:0:
276,180,81215,2,0,L|218:182,2,38.5000011749268
362,268,81669,2,0,L|446:264,2,77.0000023498536
260,288,82351,1,0,0:0:0:0:
189,351,82578,2,0,P|164:295|189:223,1,115.50000352478,2|0,0:0|0:0,0:0:0:0:
197,210,83033,5,0,0:0:0:0:
197,210,83146,1,0,0:0:0:0:
197,210,83260,1,0,0:0:0:0:
92,228,83487,1,8,0:0:0:0:
0,244,83715,1,0,0:0:0:0:
86,302,83942,2,0,B|98:266|98:266|90:218,1,77.0000023498536
28,164,84396,2,0,P|72:140|144:156,1,115.50000352478,8|0,0:0|0:0,0:0:0:0:
168,156,84851,1,0,0:0:0:0:
168,156,84965,1,0,0:0:0:0:
168,156,85078,1,0,0:0:0:0:
211,76,85306,5,8,0:0:0:0:
256,192,85760,8,0,87124,0:0:0:0:
196,344,87578,5,8,0:0:0:0:
288,316,87806,1,8,0:0:0:0:
394,370,88033,2,0,B|402:330|402:330|390:278,1,83.9999974365235,8|0,0:0|0:0,0:0:0:0:
390,269,88374,1,0,0:0:0:0:
390,270,88488,1,0,0:0:0:0:
344,176,88715,1,0,0:0:0:0:
440,200,88942,1,0,0:0:0:0:
396,96,89169,1,0,0:0:0:0:
504,120,89396,5,8,0:0:0:0:
396,96,89624,2,0,L|288:104,1,83.9999974365235,8|8,0:0|0:0,0:0:0:0:
232,56,90078,1,0,0:0:0:0:
232,56,90192,1,0,0:0:0:0:
232,56,90306,1,0,0:0:0:0:
216,148,90533,1,0,0:0:0:0:
128,56,90760,1,0,0:0:0:0:
108,160,90987,1,0,0:0:0:0:
152,256,91215,5,8,0:0:0:0:
139,356,91442,1,8,0:0:0:0:
68,263,91669,2,8,L|160:255,1,83.9999974365235,8|0,0:0|0:0,0:0:0:0:
272,285,92124,2,0,B|255:333|283:373,1,83.9999974365235
377,325,92579,2,0,B|394:277|366:237,1,83.9999974365235
296,180,93033,5,0,0:0:0:0:
420,172,93260,1,8,0:0:0:0:
420,172,93373,1,8,0:0:0:0:
420,172,93487,2,8,L|426:131,1,41.9999987182618,8|0,0:0|0:0,0:0:0:0:
468,24,93942,6,0,P|413:16|366:44,1,112
188,36,94396,2,0,P|242:43|289:15,1,112
216,124,94851,5,8,0:0:0:0:
108,96,95078,1,8,0:0:0:0:
8,136,95306,2,0,L|12:260,1,83.9999974365235,8|0,0:0|0:0,0:0:0:0:
15,242,95646,1,0,0:0:0:0:
15,242,95760,1,0,0:0:0:0:
0,336,95987,1,0,0:0:0:0:
101,361,96215,1,0,0:0:0:0:
122,259,96442,1,0,0:0:0:0:
208,323,96669,6,8,P|256:335|296:327,1,83.9999974365235
421,336,97124,2,0,L|409:252,1,83.9999974365235,8|0,0:0|0:0,0:0:0:0:
410,226,97465,1,0,0:0:0:0:
410,226,97578,1,0,0:0:0:0:
496,169,97806,1,0,0:0:0:0:
455,59,98033,1,0,0:0:0:0:
347,74,98260,1,0,0:0:0:0:
300,174,98487,5,8,0:0:0:0:
214,93,98715,1,8,0:0:0:0:
214,93,98942,2,0,B|180:81|180:81|133:93,1,83.9999974365235,8|0,0:0|0:0,0:0:0:0:
21,150,99396,2,0,L|17:66,1,83.9999974365235
133,92,99851,2,0,L|137:180,1,83.9999974365235
45,234,100306,5,0,0:0:0:0:
130,253,100533,1,0,0:0:0:0:
79,332,100760,2,0,P|127:348|199:317,1,125.999996154785
209,306,101215,1,0,0:0:0:0:
412,348,102124,6,0,L|492:356,2,73.4999977569581
320,308,103033,2,0,B|313:289|313:289|322:241,1,48.9999985046387
428,208,103487,2,0,B|434:226|434:226|425:274,1,48.9999985046387
304,184,103942,6,0,L|230:191,2,73.4999977569581
212,268,104851,2,0,L|163:274,1,48.9999985046387
45,294,105306,1,0,0:0:0:0:
36,196,105533,1,0,0:0:0:0:
36,196,105646,1,0,0:0:0:0:
36,196,105760,6,0,L|28:122,2,73.4999977569581
124,140,106669,1,0,0:0:0:0:
200,188,106896,1,0,0:0:0:0:
212,96,107124,2,0,P|199:73|169:49,1,48.9999985046387
296,32,107578,6,0,L|364:36,1,48.9999985046387
432,120,108033,2,0,L|360:124,1,48.9999985046387
288,208,108487,2,0,B|279:175|279:175|288:142|288:142|275:106|275:106,1,97.9999970092774,0|4,0:0|0:0,0:0:0:0:
192,236,109396,6,0,L|198:156,2,73.4999977569581
312,252,110306,2,0,L|376:244,1,48.9999985046387
424,340,110760,2,0,L|375:345,1,48.9999985046387
266,340,111215,6,0,P|220:335|184:311,2,73.4999977569581
300,337,112010,1,0,0:0:0:0:
300,337,112124,1,0,0:0:0:0:
321,251,112351,1,0,0:0:0:0:
340,155,112578,2,0,B|417:163,1,73.4999977569581
445,166,113033,1,0,0:0:0:0:
461,69,113374,1,0,0:0:0:0:
256,192,113715,8,0,116215,0:0:0:0:
80,328,116669,5,0,0:0:0:0:
88,336,116897,1,0,0:0:0:0:
88,336,117124,2,0,P|144:356|232:332,1,140
312,304,117806,5,0,0:0:0:0:
396,340,118033,1,0,0:0:0:0:
456,268,118260,1,0,0:0:0:0:
392,196,118487,2,0,B|356:188|356:188|312:196,1,70
232,216,118942,2,0,B|196:224|196:224|84:192,1,140
76,108,119624,1,0,0:0:0:0:
76,108,119737,1,0,0:0:0:0:
76,108,119851,2,0,L|152:128,1,70
208,36,120306,6,0,L|288:32,1,70
356,92,120760,2,0,L|432:96,1,70
484,180,121215,2,0,P|492:220|484:250,1,70
432,328,121669,1,0,0:0:0:0:
392,224,121897,6,0,L|312:228,3,70
312,328,122806,1,0,0:0:0:0:
312,328,122919,1,0,0:0:0:0:
312,328,123033,1,0,0:0:0:0:
212,360,123260,1,0,0:0:0:0:
212,360,123374,1,0,0:0:0:0:
212,360,123488,2,0,P|204:316|216:284,1,70
252,208,123942,5,8,0:0:0:0:
252,208,124169,1,8,0:0:0:0:
252,208,124397,1,8,0:0:0:0:
252,208,124624,1,8,0:0:0:0:
146,193,124851,5,8,0:0:0:0:
146,193,125078,1,8,0:0:0:0:
146,193,125306,1,8,0:0:0:0:
146,193,125533,1,8,0:0:0:0:
36,188,125760,6,8,L|28:272,3,77.0000023498536
120,352,126669,2,8,L|113:275,3,77.0000023498536
212,360,127578,5,2,0:0:0:0:
240,360,127691,1,2,0:0:0:0:
268,360,127805,1,2,0:0:0:0:
296,360,127919,1,2,0:0:0:0:
316,328,128033,2,2,L|324:272,3,38.5000011749268
361,274,128488,2,2,L|367:236,3,38.5000011749268
411,221,128942,2,2,L|417:183,2,38.5000011749268
256,192,129283,8,0,130760,0:0:0:0:
128,252,131215,6,0,P|168:260|224:244,1,77.0000023498536
57,185,131669,2,0,P|33:233|49:301,1,115.50000352478,8|0,0:0|0:0,0:0:0:0:
64,315,132124,1,0,0:0:0:0:
64,315,132238,1,0,0:0:0:0:
64,315,132351,1,0,0:0:0:0:
174,360,132578,1,8,0:0:0:0:
288,321,132806,1,0,0:0:0:0:
412,356,133033,6,0,L|400:260,1,77.0000023498536
368,192,133487,2,0,P|436:192|480:232,1,115.50000352478,8|0,0:0|0:0,0:0:0:0:
491,247,133942,1,0,0:0:0:0:
491,247,134056,1,0,0:0:0:0:
491,247,134169,1,0,0:0:0:0:
425,344,134396,1,8,0:0:0:0:
324,294,134624,1,0,0:0:0:0:
224,240,134851,6,0,B|216:200|216:200|224:164,1,77.0000023498536
284,80,135306,2,0,B|228:64|228:64|168:80,1,115.50000352478,8|0,0:0|0:0,0:0:0:0:
147,92,135760,1,0,0:0:0:0:
147,92,135874,1,0,0:0:0:0:
147,92,135987,1,0,0:0:0:0:
31,109,136215,1,8,0:0:0:0:
80,196,136442,6,0,L|76:276,1,77.0000023498536
24,352,136897,1,0,0:0:0:0:
32,360,137011,1,0,0:0:0:0:
32,360,137124,1,8,0:0:0:0:
136,340,137351,1,0,0:0:0:0:
236,368,137578,2,0,B|247:337|230:302|230:302|252:273|252:273|246:223,1,154.000004699707,0|2,0:0|0:0,0:0:0:0:
216,40,138487,6,0,L|316:36,1,77.0000023498536
356,96,138942,2,0,P|411:107|472:88,1,115.50000352478,8|0,0:0|0:0,0:0:0:0:
496,92,139396,2,0,L|499:53,2,38.5000011749268
464,188,139851,1,8,0:0:0:0:
504,296,140078,1,0,0:0:0:0:
504,296,140192,1,0,0:0:0:0:
504,296,140306,2,0,L|408:308,1,77.0000023498536
332,352,140760,2,0,B|324:308|324:308|332:280|332:280|324:236,1,115.50000352478,8|0,0:0|0:0,0:0:0:0:
292,224,141215,6,0,L|244:232,2,38.5000011749268
328,136,141669,1,8,0:0:0:0:
256,68,141896,1,0,0:0:0:0:
176,128,142124,2,0,P|109:155|36:112,1,154.000004699707,0|8,0:0|0:0,0:0:0:0:
16,232,142806,1,0,0:0:0:0:
16,232,142919,1,0,0:0:0:0:
16,232,143033,2,0,L|20:276,2,38.5000011749268
120,240,143487,2,0,P|160:232|208:244,1,77.0000023498536,8|0,0:0|0:0,0:0:0:0:
256,192,143942,8,0,145533,0:0:0:0:
256,192,145760,8,0,147578,0:0:0:0:
40,348,154851,6,8,L|124:356,1,70
232,256,155306,2,8,L|152:260,1,70
48,260,155760,2,8,B|40:224|40:224|52:184,1,70
184,108,156215,2,8,B|192:144|192:144|180:184,1,70
80,104,156669,5,8,0:0:0:0:
148,20,156896,1,8,0:0:0:0:
252,44,157124,1,8,0:0:0:0:
360,28,157351,1,8,0:0:0:0:
448,104,157578,1,8,0:0:0:0:
308,124,157805,5,8,0:0:0:0:
360,28,158033,1,8,0:0:0:0:
388,180,158260,1,8,0:0:0:0:
388,180,158487,2,2,L|404:224,3,41.9999987182618
331,249,158942,2,2,L|315:293,3,41.9999987182618
246,246,159396,2,2,L|194:238,3,41.9999987182618
271,203,159851,5,2,0:0:0:0:
271,203,159965,1,2,0:0:0:0:
271,203,160078,1,2,0:0:0:0:
271,203,160192,1,2,0:0:0:0:
256,192,160306,8,4,161669,0:0:0:0:
292,56,162124,5,8,0:0:0:0:
380,24,162351,1,8,0:0:0:0:
480,56,162578,2,0,L|466:142,1,83.9999974365235,0|2,0:0|0:0,0:0:0:0:
463,159,162919,1,2,0:0:0:0:
459,179,163033,1,2,0:0:0:0:
460,288,163260,2,0,L|416:284,1,41.9999987182618,8|0,0:0|0:0,0:0:0:0:
359,230,163487,2,8,L|303:238,1,41.9999987182618
104,288,163942,2,0,P|88:241|96:196,1,83.9999974365235
193,249,164396,5,2,0:0:0:0:
193,249,164510,1,2,0:0:0:0:
193,249,164624,2,0,L|181:337,1,83.9999974365235,2|0,0:0|0:0,0:0:0:0:
284,312,165078,1,0,0:0:0:0:
287,204,165306,2,0,B|287:176|287:176|259:127,1,83.9999974365235,8|0,0:0|0:0,0:0:0:0:
184,68,165760,6,0,L|180:26,3,41.9999987182618
152,88,166215,2,0,L|60:72,1,83.9999974365235,8|0,0:0|0:0,0:0:0:0:
20,168,166669,1,2,0:0:0:0:
20,168,166783,1,2,0:0:0:0:
20,168,166896,1,2,0:0:0:0:
20,168,167010,1,2,0:0:0:0:
20,168,167124,2,0,L|102:182,1,83.9999974365235
128,264,167578,5,0,0:0:0:0:
96,352,167806,1,8,0:0:0:0:
96,352,167919,1,8,0:0:0:0:
96,352,168033,2,0,P|137:356|187:338,1,83.9999974365235,8|0,0:0|0:0,0:0:0:0:
292,328,168487,5,0,0:0:0:0:
408,360,168715,1,0,0:0:0:0:
368,256,168942,2,0,L|360:184,2,55.9999982910157
464,192,169396,6,0,L|484:116,1,70,0|4,0:0|0:0,0:0:0:0:
384,64,170306,6,0,L|352:68,2,23.3333333333333
291,37,170760,2,0,L|259:33,2,23.3333333333333
201,61,171215,2,0,L|170:66,2,23.3333333333333
112,37,171669,2,0,L|80:33,2,23.3333333333333
35,101,172124,2,0,L|27:73,2,23.3333333333333
64,174,172578,1,0,0:0:0:0:
40,340,173033,6,8,P|76:332|116:340,1,70
200,348,173487,1,2,0:0:0:0:
200,348,173601,1,2,0:0:0:0:
200,348,173715,1,2,0:0:0:0:
228,256,173942,1,0,0:0:0:0:
212,156,174169,1,0,0:0:0:0:
212,156,174283,1,0,0:0:0:0:
212,156,174396,2,0,B|250:151|250:151|292:160,1,70,8|0,0:0|0:0,0:0:0:0:
384,216,174851,6,2,L|404:168,3,35
356,244,175306,2,0,L|364:324,1,70,8|0,0:0|0:0,0:0:0:0:
468,360,175760,2,0,L|474:290,2,70
256,192,176669,5,8,0:0:0:0:
256,192,189624,12,0,191215,0:0:0:0:
212,311,191669,6,0,P|256:323|308:303,1,83.9999974365235,8|0,0:0|0:0,0:0:0:0:
321,299,192010,1,0,0:0:0:0:
321,299,192124,1,0,0:0:0:0:
353,198,192351,1,0,0:0:0:0:
288,108,192578,1,0,0:0:0:0:
252,200,192806,1,0,0:0:0:0:
380,116,193033,6,8,L|476:124,1,83.9999974365235
414,25,193487,2,0,B|324:17,1,83.9999974365235,8|0,0:0|0:0,0:0:0:0:
304,20,193828,1,0,0:0:0:0:
304,20,193942,1,0,0:0:0:0:
200,48,194169,1,0,0:0:0:0:
92,32,194396,1,0,0:0:0:0:
148,136,194624,1,0,0:0:0:0:
200,48,194851,5,8,0:0:0:0:
59,114,195078,1,8,0:0:0:0:
59,114,195306,2,0,P|56:155|75:192,1,83.9999974365235,8|0,0:0|0:0,0:0:0:0:
135,276,195760,2,0,B|51:283,1,83.9999974365235
96,362,196215,2,0,B|179:354,1,83.9999974365235
296,348,196669,5,0,0:0:0:0:
383,291,196896,1,8,0:0:0:0:
383,291,197010,1,8,0:0:0:0:
383,291,197124,2,0,L|379:231,1,41.9999987182618,8|0,0:0|0:0,0:0:0:0:
312,160,197578,6,0,B|291:130|291:130|376:144,1,112
492,64,198033,2,0,B|527:70|527:70|458:121,1,112
376,48,198487,6,8,P|332:40|272:56,1,83.9999974365235
188,63,198942,2,0,L|176:151,1,83.9999974365235,8|0,0:0|0:0,0:0:0:0:
177,175,199283,1,0,0:0:0:0:
177,175,199396,1,0,0:0:0:0:
273,139,199624,1,0,0:0:0:0:
363,192,199851,1,0,0:0:0:0:
464,166,200078,1,0,0:0:0:0:
460,297,200306,2,8,P|417:306|372:297,1,83.9999974365235
254,316,200760,5,0,0:0:0:0:
160,264,200987,1,0,0:0:0:0:
160,264,201101,1,0,0:0:0:0:
160,264,201215,1,0,0:0:0:0:
72,328,201442,1,0,0:0:0:0:
0,252,201669,1,0,0:0:0:0:
32,160,201896,1,0,0:0:0:0:
32,160,202124,6,8,L|124:172,1,83.9999974365235
176,236,202578,2,0,P|200:204|200:148,1,83.9999974365235
165,77,203033,2,0,P|206:70|247:79,1,83.9999974365235
309,147,203487,2,0,P|361:155|397:147,1,83.9999974365235
469,114,203942,2,8,L|484:31,2,83.9999974365235
437,264,204851,5,0,0:0:0:0:
437,264,205306,1,0,0:0:0:0:
