osu file format v14

[General]
AudioFilename: audio.mp3
AudioLeadIn: 0
PreviewTime: 14624
Countdown: 0
SampleSet: Soft
StackLeniency: 0.2
Mode: 0
LetterboxInBreaks: 0
WidescreenStoryboard: 1

[Editor]
Bookmarks: 453,28634,57953,87725,102043,116134,145680,162043,169543,176816,191816,205680
DistanceSpacing: 1.6
BeatDivisor: 4
GridSize: 16
TimelineZoom: 3.999998

[Metadata]
Title:LIKEY
TitleUnicode:LIKEY
Artist:TWICE
ArtistUnicode:트와이스
Creator:CharmCaster
Version:Sing's HEART HEART
Source:
Tags:TWICETAGRAM 1ST ALBUM JYP Entertainment Nayeon Jeongyeon Momo Sana Jihyo Mina Dahyun Chaeyoung Tzuyu 나연 정연 모모 사나 지효 미나 다현 채영 쯔위 kpop cosmiccc leviza sing simuzax 트와이스 라이키
BeatmapID:1532967
BeatmapSetID:688158

[Difficulty]
HPDrainRate:6
CircleSize:4
OverallDifficulty:9
ApproachRate:9.4
SliderMultiplier:3.2
SliderTickRate:1

[Events]
//Background and Video events
Video,-7888,"LIKEY3.avi"
0,0,"twice.jpg",0,0
//Break Periods
2,147778,152493
//Storyboard Layer 0 (Background)
//Storyboard Layer 1 (Fail)
//Storyboard Layer 2 (Pass)
//Storyboard Layer 3 (Foreground)
//Storyboard Sound Samples

[TimingPoints]
306,454.545454545455,4,2,69,40,1,0
306,-133.333333333333,4,2,69,40,0,0
760,-200,4,2,69,40,0,0
1896,-133.333333333333,4,2,69,40,0,0
2124,-200,4,2,69,40,0,0
3260,-166.666666666667,4,2,69,40,0,0
3942,-133.333333333333,4,2,69,40,0,0
4396,-200,4,2,69,40,0,0
5306,-133.333333333333,4,2,69,40,0,0
5760,-200,4,2,69,40,0,0
6215,-133.333333333333,4,2,69,40,0,0
6556,-200,4,2,69,40,0,0
6896,-80,4,2,69,40,0,0
7578,-100,4,2,69,40,0,0
8033,-133.333333333333,4,2,69,40,0,0
9169,-100,4,2,69,40,0,0
9851,-133.333333333333,4,2,69,40,0,0
10533,-111.111111111111,4,2,69,40,0,0
11215,-100,4,2,69,40,0,0
12578,-80,4,2,69,40,0,0
14624,-200,4,2,69,40,0,0
14851,-66.6666666666667,4,2,69,60,0,1
15533,-100,4,2,69,60,0,1
15760,-66.6666666666667,4,2,69,60,0,1
17351,-100,4,2,69,60,0,1
17578,-66.6666666666667,4,2,69,60,0,1
18942,-100,4,2,69,60,0,1
19965,-133.333333333333,4,2,69,60,0,1
21215,-100,4,2,69,60,0,1
22124,-66.6666666666667,4,2,69,60,0,1
22806,-100,4,2,69,60,0,1
23033,-66.6666666666667,4,2,69,60,0,1
24624,-100,4,2,69,60,0,1
24851,-66.6666666666667,4,2,69,60,0,1
26215,-100,4,2,69,60,0,1
28487,-200,4,2,69,40,0,0
29851,-166.666666666667,4,2,69,40,0,0
30306,-142.857142857143,4,2,69,40,0,0
31215,-200,4,2,69,40,0,0
31669,-83.3333333333333,4,2,69,40,0,0
32351,-142.857142857143,4,2,69,40,0,0
32578,-125,4,2,69,40,0,0
33033,-166.666666666667,4,2,69,40,0,0
33487,-142.857142857143,4,2,69,40,0,0
33942,-125,4,2,69,40,0,0
34851,-166.666666666667,4,2,69,40,0,0
35306,-71.4285714285714,4,2,69,40,0,0
35987,-125,4,2,69,40,0,0
36669,-200,4,2,69,40,0,0
37351,-166.666666666667,4,2,69,40,0,0
37692,-142.857142857143,4,2,69,40,0,0
38033,-125,4,2,69,40,0,0
38487,-200,4,2,69,40,0,0
38942,-83.3333333333333,4,2,69,40,0,0
39624,-142.857142857143,4,2,69,40,0,0
39965,-125,4,2,69,40,0,0
40306,-166.666666666667,4,2,69,40,0,0
40760,-142.857142857143,4,2,69,40,0,0
41215,-125,4,2,69,40,0,0
41669,-111.111111111111,4,2,69,40,0,0
42578,-125,4,2,69,40,0,0
43033,-142.857142857143,4,2,69,40,0,0
43487,-166.666666666666,4,2,69,40,0,0
43715,-200,4,2,69,40,0,0
43942,-100,4,2,69,40,0,0
46215,-66.6666666666667,4,2,69,40,0,0
46669,-100,4,2,69,40,0,0
47237,-200,4,2,69,40,0,0
47578,-100,4,2,69,40,0,0
49851,-66.6666666666667,4,2,69,40,0,0
50533,-76.9230769230769,4,2,69,40,0,0
51215,-100,4,2,69,40,0,0
53487,-66.6666666666667,4,2,69,40,0,0
54396,-200,4,2,69,40,0,0
54851,-80,4,2,69,40,0,0
55306,-100,4,2,69,40,0,0
57124,-66.6666666666667,4,2,69,40,0,0
58033,-200,4,2,69,40,0,0
58487,-80,4,2,69,40,0,0
58942,-133.333333333333,4,2,69,40,0,0
59624,-200,4,2,69,40,0,0
60306,-80,4,2,69,40,0,0
60760,-133.333333333333,4,2,69,40,0,0
61442,-100,4,2,69,40,0,0
61669,-200,4,2,69,40,0,0
62351,-166.666666666667,4,2,69,40,0,0
62578,-142.857142857143,4,2,69,40,0,0
62806,-125,4,2,69,40,0,0
63487,-100,4,2,69,40,0,0
63942,-200,4,2,69,40,0,0
65306,-133.333333333333,4,2,69,40,0,0
65533,-100,4,2,69,40,0,0
65760,-100,4,2,69,50,0,0
73033,-66.6666666666667,4,2,69,60,0,1
73487,-133.333333333333,4,2,69,60,0,1
73942,-66.6666666666667,4,2,69,60,0,1
75306,-133.333333333333,4,2,69,60,0,1
75760,-66.6666666666667,4,2,69,60,0,1
75987,-71.4285714285714,4,2,69,60,0,1
76215,-76.9230769230769,4,2,69,60,0,1
76442,-83.3333333333333,4,2,69,60,0,1
77124,-133.333333333333,4,2,69,60,0,1
77578,-100,4,2,69,60,0,1
78033,-66.6666666666667,4,2,69,60,0,1
79056,-200,4,2,69,60,0,1
79851,-133.333333333333,4,2,69,60,0,1
80078,-100,4,2,69,60,0,1
80306,-66.6666666666667,4,2,69,60,0,1
80760,-133.333333333333,4,2,69,60,0,1
81215,-66.6666666666667,4,2,69,60,0,1
82578,-133.333333333333,4,2,69,60,0,1
83033,-200,4,2,69,60,0,1
83260,-133.333333333333,4,2,69,60,0,1
83487,-100,4,2,69,60,0,1
83715,-80,4,2,69,60,0,1
84396,-66.6666666666667,4,2,69,60,0,1
85760,-200,4,2,69,60,0,1
86215,-66.6666666666667,4,2,69,60,0,1
86896,-100,4,2,69,60,0,1
87124,-133.333333333333,4,2,69,60,0,1
87351,-200,4,2,69,60,0,1
87578,-66.6666666666667,4,2,69,60,0,1
88260,-100,4,2,69,60,0,1
88487,-66.6666666666667,4,2,69,60,0,1
90078,-100,4,2,69,60,0,1
90305,-66.6666666666667,4,2,69,60,0,1
91669,-100,4,2,69,60,0,1
92692,-133.333333333333,4,2,69,60,0,1
93942,-100,4,2,69,60,0,1
94851,-66.6666666666667,4,2,69,60,0,1
95533,-100,4,2,69,60,0,1
95760,-66.6666666666667,4,2,69,60,0,1
97351,-100,4,2,69,60,0,1
97578,-66.6666666666667,4,2,69,60,0,1
98942,-100,4,2,69,60,0,1
100760,-133.333333333333,4,2,69,60,0,1
101215,-200,4,2,69,40,0,0
102465,-166.666666666667,4,2,69,40,0,0
102806,-71.4285714285714,4,2,69,40,0,0
103033,-125,4,2,69,40,0,0
103374,-111.111111111111,4,2,69,40,0,0
103715,-100,4,2,69,40,0,0
104851,-200,4,2,69,40,0,0
105078,-133.333333333333,4,2,69,40,0,0
105306,-100,4,2,69,40,0,0
105760,-166.666666666667,4,2,69,40,0,0
106101,-142.857142857143,4,2,69,40,0,0
106442,-62.5,4,2,69,40,0,0
107124,-200,4,2,69,40,0,0
107578,-100,4,2,69,40,0,0
108487,-200,4,2,69,40,0,0
108942,-66.6666666666667,4,2,69,40,0,0
109396,-133.333333333333,4,2,69,40,0,0
111215,-200,4,2,69,40,0,0
112578,-66.6666666666667,4,2,69,40,0,0
113033,-200,4,2,69,40,0,0
113942,-166.666666666667,4,2,69,40,0,0
114169,-142.857142857143,4,2,69,40,0,0
114396,-125,4,2,69,40,0,0
114624,-111.111111111111,4,2,69,40,0,0
116215,-200,4,2,69,40,0,0
116669,-80,4,2,69,40,0,0
117124,-133.333333333333,4,2,69,40,0,0
117806,-200,4,2,69,40,0,0
118487,-80,4,2,69,40,0,0
118942,-133.333333333333,4,2,69,40,0,0
119624,-100,4,2,69,40,0,0
119851,-200,4,2,69,40,0,0
120533,-166.666666666667,4,2,69,40,0,0
120760,-142.857142857143,4,2,69,40,0,0
120987,-125,4,2,69,40,0,0
121669,-100,4,2,69,40,0,0
122124,-200,4,2,69,40,0,0
123488,-133.333333333333,4,2,69,40,0,0
123715,-100,4,2,69,40,0,0
123942,-100,4,2,69,50,0,0
131215,-66.6666666666667,4,2,69,60,0,1
131669,-133.333333333333,4,2,69,60,0,1
132124,-66.6666666666667,4,2,69,60,0,1
133487,-133.333333333333,4,2,69,60,0,1
133942,-66.6666666666667,4,2,69,60,0,1
134169,-71.4285714285714,4,2,69,60,0,1
134396,-76.9230769230769,4,2,69,60,0,1
134624,-83.3333333333333,4,2,69,60,0,1
135306,-133.333333333333,4,2,69,60,0,1
135760,-100,4,2,69,60,0,1
136215,-66.6666666666667,4,2,69,60,0,1
137237,-200,4,2,69,60,0,1
138033,-133.333333333333,4,2,69,60,0,1
138260,-100,4,2,69,60,0,1
138487,-66.6666666666667,4,2,69,60,0,1
138942,-133.333333333333,4,2,69,60,0,1
139396,-66.6666666666667,4,2,69,60,0,1
140760,-133.333333333333,4,2,69,60,0,1
141215,-200,4,2,69,60,0,1
141442,-133.333333333333,4,2,69,60,0,1
141669,-100,4,2,69,60,0,1
141897,-80,4,2,69,60,0,1
142578,-66.6666666666667,4,2,69,60,0,1
143942,-200,4,2,69,60,0,1
144396,-100,4,2,69,60,0,1
145306,-200,4,2,69,60,0,1
145760,-200,4,2,69,40,0,0
153033,-200,4,2,69,30,0,0
154283,-133.333333333333,4,2,69,40,0,0
154624,-100,4,2,69,50,0,0
160306,-1000,4,2,69,30,0,0
161669,-50,4,2,69,40,0,0
161896,-57.1428571428571,4,2,69,50,0,0
162124,-66.6666666666667,4,2,69,60,0,1
168942,-133.333333333333,4,2,69,60,0,1
169396,-200,4,2,69,50,0,0
169851,-66.6666666666667,4,2,69,50,0,0
172578,-100,4,2,69,50,0,0
173033,-66.6666666666667,4,2,69,60,0,1
175760,-200,4,2,69,40,0,0
176215,-66.6666666666667,4,2,69,60,0,1
176669,-80,4,2,69,60,0,1
183260,-66.6666666666667,4,2,69,60,0,1
183487,-100,4,2,69,60,0,1
183715,-200,4,2,69,60,0,1
183942,-80,4,2,69,60,0,1
187124,-66.6666666666667,4,2,69,60,0,1
187578,-80,4,2,69,60,0,1
190306,-66.6666666666667,4,2,69,60,0,1
190533,-100,4,2,69,60,0,1
190761,-133.333333333333,4,2,69,60,0,1
190988,-200,4,2,69,60,0,1
191215,-400,4,2,69,40,0,0
191669,-50,4,2,69,60,0,1
192124,-66.6666666666667,4,2,69,60,0,1
193715,-100,4,2,69,60,0,1
193942,-66.6666666666667,4,2,69,60,0,1
195306,-100,4,2,69,60,0,1
196329,-133.333333333333,4,2,69,60,0,1
197578,-100,4,2,69,60,0,1
198487,-66.6666666666667,4,2,69,60,0,1
199169,-100,4,2,69,60,0,1
199396,-66.6666666666667,4,2,69,60,0,1
200987,-100,4,2,69,60,0,1
201215,-66.6666666666667,4,2,69,60,0,1
202578,-100,4,2,69,60,0,1
204396,-133.333333333333,4,2,69,60,0,1
204851,-200,4,2,69,40,0,0

[Colours]
Combo1 : 252,255,128
Combo2 : 255,151,153
Combo3 : 255,205,151
Combo4 : 176,255,251
Combo5 : 146,222,141
SliderBorder : 246,172,207
SliderTrackOverride : 43,119,197

[HitObjects]
9,332,306,6,0,P|78:268|85:179,1,180.000006866455,6|0,0:0|0:0,0:0:0:0:
189,270,760,2,0,P|178:181|138:133,2,120,2|2|2,0:0|0:0|0:0,0:0:0:0:
63,134,1669,1,2,0:0:0:0:
63,134,1896,2,0,P|78:176|108:203,1,60.0000022888184,2|0,0:0|0:0,0:0:0:0:
246,295,2124,6,0,P|297:258|380:260,1,120,2|0,0:0|0:0,0:0:0:0:
405,195,2578,2,0,P|462:220|502:293,1,120,2|2,0:0|0:0,0:0:0:0:
495,265,3033,1,0,0:0:0:0:
506,83,3260,6,0,P|474:113|467:147,1,47.9999985351563,2|0,0:0|0:0,0:0:0:0:
398,101,3487,2,0,P|395:169|421:219,1,95.9999970703126,2|0,0:0|0:0,0:0:0:0:
355,384,3942,6,0,P|372:296|323:220,1,180.000006866455,2|0,0:0|0:0,0:0:0:0:
188,349,4396,2,0,P|228:309|235:224,2,120,2|2|2,0:0|0:0|0:0,0:0:0:0:
56,236,5306,6,0,P|59:265|75:290,1,60.0000022888184,2|0,0:0|0:0,0:0:0:0:
136,209,5533,2,0,P|152:235|156:264,1,60.0000022888184,2|0,0:0|0:0,0:0:0:0:
0,151,5760,6,0,P|61:135|111:61,1,120,2|0,0:0|0:0,0:0:0:0:
174,113,6215,6,0,P|198:44|186:-9,1,120.000004577637,2|0,0:0|0:0,0:0:0:0:
189,0,6556,2,0,P|230:31|282:35,1,80,2|0,0:0|0:0,0:0:0:0:
316,176,6896,6,0,B|200:145|243:230|110:181,2,200,2|2|2,0:0|0:0|0:0,0:0:0:0:
376,17,7578,6,0,P|464:18|456:158,1,240,2|0,0:0|0:0,0:0:0:0:
472,231,8033,2,0,P|409:190|392:124,1,120.000004577637,10|0,0:0|0:0,0:0:0:0:
304,209,8374,2,0,P|294:134|334:78,1,120.000004577637,2|0,0:0|0:0,0:0:0:0:
212,66,8715,2,0,P|263:11|331:5,1,120.000004577637,2|10,0:0|0:0,0:0:0:0:
85,14,9169,6,0,P|134:74|119:178,2,160,2|2|0,0:0|0:0|0:0,0:0:0:0:
91,291,9851,6,0,P|53:245|51:186,1,120.000004577637,10|0,0:0|0:0,0:0:0:0:
172,256,10192,2,0,P|169:198|132:152,1,120.000004577637,2|0,0:0|0:0,0:0:0:0:
133,370,10533,6,0,P|177:342|230:342,1,71.9999978027344,2|0,0:0|0:0,0:0:0:0:
250,282,10760,2,0,P|299:297|333:338,1,71.9999978027344,10|0,0:0|0:0,0:0:0:0:
392,315,10987,2,0,P|411:363|402:415,1,71.9999978027344,0|0,0:0|0:0,0:0:0:0:
481,306,11215,6,0,P|486:269|503:219,1,80,2|0,0:0|0:0,0:0:0:0:
474,145,11442,1,0,0:0:0:0:
392,315,11669,6,0,P|372:283|353:234,1,80,10|0,0:0|0:0,0:0:0:0:
303,186,11896,2,0,P|314:150|339:104,1,80,2|2,0:0|0:0,0:0:0:0:
329,379,12124,6,0,P|293:367|247:342,1,80,2|0,0:0|0:0,0:0:0:0:
178,337,12351,2,0,P|163:302|154:251,1,80,2|0,0:0|0:0,0:0:0:0:
13,171,12578,6,0,B|139:130|74:221|235:164,2,200,10|2|2,0:0|0:0|0:0,0:0:0:0:
256,192,13146,12,4,14396,0:1:0:0:
206,172,14624,6,0,P|221:146|217:108,1,40,2|0,0:0|0:0,0:0:0:0:
238,138,14851,6,0,P|187:13|44:30,2,240.000009155274,6|2|8,1:2|1:2|0:1,0:0:0:0:
512,54,15533,6,0,P|472:65|435:117,1,80,2|0,0:0|0:0,0:0:0:0:
439,77,15760,6,0,P|405:152|452:249,1,120.000004577637,2|0,0:0|0:0,0:0:0:0:
322,164,15987,2,0,P|344:243|442:287,1,120.000004577637,2|0,1:2|0:0,0:0:0:0:
226,384,16215,6,0,P|219:301|297:226,1,120.000004577637,8|0,0:1|0:0,0:0:0:0:
145,262,16442,2,0,P|192:195|300:187,1,120.000004577637,2|0,0:0|0:0,0:0:0:0:
81,9,16669,6,0,P|74:91|152:166,1,120.000004577637,2|0,1:2|0:0,0:0:0:0:
0,130,16896,2,0,P|47:196|155:204,1,120.000004577637,2|0,1:2|0:0,0:0:0:0:
256,48,17124,1,8,0:1:0:0:
145,262,17351,6,0,P|127:226|64:231,1,80,2|0,0:0|0:0,0:0:0:0:
86,198,17578,6,0,P|-2:276|17:353,1,120.000004577637,2|0,0:0|0:0,0:0:0:0:
145,262,17806,2,0,P|107:373|162:430,1,120.000004577637,2|0,1:2|0:0,0:0:0:0:
225,180,18033,6,0,P|187:68|242:11,1,120.000004577637,8|0,0:1|0:0,0:0:0:0:
308,154,18261,2,0,P|331:38|407:16,1,120.000004577637,2|0,0:0|0:0,0:0:0:0:
386,214,18487,6,0,P|348:325|403:382,1,120.000004577637,2|0,1:2|0:0,0:0:0:0:
469,239,18715,2,0,P|492:354|568:376,1,120.000004577637,2|0,1:2|0:0,0:0:0:0:
453,66,18942,6,0,B|447:35|415:2|293:27|296:161,1,240,8|0,0:1|0:0,0:0:0:0:
307,153,19396,5,2,0:0:0:0:
248,21,19510,1,2,0:0:0:0:
199,168,19624,5,2,1:2:0:0:
207,92,19737,1,2,0:0:0:0:
124,130,19851,5,8,0:1:0:0:
132,119,19965,2,0,P|54:93|10:-13,1,180.000006866455,2|0,0:0|1:0,0:0:0:0:
0,303,20533,5,8,1:2:0:0:
75,322,20646,1,8,0:0:0:0:
137,274,20760,1,8,0:1:0:0:
192,355,20874,6,0,P|188:297|142:262,1,120.000004577637,8|8,0:0|0:0,0:0:0:0:
55,235,21215,6,0,B|-18:231|-32:115|48:173|48:173|106:93|124:205|59:234,1,320,2|12,1:2|0:1,0:0:0:0:
131,63,21896,6,0,P|160:87|180:149,1,80,2|0,0:0|0:0,0:0:0:0:
169,136,22124,6,0,P|314:81|302:-34,2,240.000009155274,2|2|8,1:2|1:2|0:1,0:0:0:0:
431,0,22806,6,0,P|414:46|440:128,1,80,2|0,0:0|0:0,0:0:0:0:
396,73,23033,6,0,P|430:136|517:128,1,120.000004577637,2|0,0:0|0:0,0:0:0:0:
472,147,23260,2,0,P|437:83|350:91,1,120.000004577637,2|0,1:2|0:0,0:0:0:0:
289,96,23487,6,0,P|274:166|347:216,1,120.000004577637,8|0,0:1|0:0,0:0:0:0:
300,202,23714,2,0,P|314:131|241:81,1,120.000004577637,2|0,0:0|0:0,0:0:0:0:
191,43,23942,6,0,P|134:87|158:172,1,120.000004577637,2|0,1:2|0:0,0:0:0:0:
131,131,24169,2,0,P|187:86|163:1,1,120.000004577637,2|0,1:2|0:0,0:0:0:0:
0,184,24396,1,8,0:1:0:0:
16,0,24624,6,0,P|45:21|61:106,1,80,2|0,0:0|0:0,0:0:0:0:
52,69,24851,6,0,P|49:143|-27:203,1,120.000004577637,2|0,0:0|0:0,0:0:0:0:
145,162,25078,2,0,P|118:214|66:242,1,120.000004577637,2|0,1:2|0:0,0:0:0:0:
162,384,25306,6,0,P|184:313|133:231,1,120.000004577637,8|0,0:1|0:0,0:0:0:0:
282,327,25533,2,0,P|273:269|234:225,1,120.000004577637,2|0,0:0|0:0,0:0:0:0:
406,109,25760,6,0,P|377:177|285:207,1,120.000004577637,2|0,1:2|0:0,0:0:0:0:
461,228,25987,2,0,P|418:267|359:276,1,120.000004577637,2|0,1:2|0:0,0:0:0:0:
166,53,26215,6,0,B|172:-11|251:-27|328:41|314:147,1,240,8|0,0:1|0:0,0:0:0:0:
427,266,26669,5,2,0:0:0:0:
492,175,26783,1,2,0:0:0:0:
320,119,26896,5,2,1:2:0:0:
320,231,27010,1,2,0:0:0:0:
427,84,27124,5,8,0:1:0:0:
437,96,27237,2,0,P|355:115|268:-8,1,240,2|0,0:0|1:0,0:0:0:0:
35,81,27806,6,0,P|72:83|101:140,1,80,8|8,1:2|0:0,0:0:0:0:
115,104,28033,2,0,P|125:221|-6:303,1,240,8|8,0:1|0:0,0:0:0:0:
28,289,28487,5,2,1:2:0:0:
320,231,28715,1,2,0:0:0:0:
320,231,28828,2,0,P|272:253|248:302,1,80,2|2,0:0|0:0,0:0:0:0:
194,370,29169,5,2,0:0:0:0:
170,227,29283,1,2,0:0:0:0:
403,325,29396,6,0,P|353:306|301:324,1,80,6|2,1:2|0:2,0:0:0:0:
190,336,29851,6,0,P|232:314|255:273,1,95.9999970703126,8|2,0:1|0:2,0:0:0:0:
295,128,30306,6,0,P|291:183|319:231,1,111.999996582031,2|0,0:2|1:0,0:0:0:0:
481,286,30760,5,8,0:1:0:0:
214,201,30987,1,2,1:2:0:0:
455,0,31215,6,0,P|484:43|483:93,1,80,2|0,0:2|0:0,0:0:0:0:
376,27,31669,6,0,P|372:68|351:96,8,47.9999985351563,8|2|2|2|2|2|2|2|2,0:1|0:0|0:0|0:0|0:0|0:0|0:0|0:0|0:0,0:0:0:0:
295,128,32351,6,0,P|272:94|229:80,1,55.9999982910157,2|2,1:2|0:2,0:0:0:0:
78,179,32578,2,0,P|133:121|202:123,1,128,8|2,0:1|0:2,0:0:0:0:
368,164,32919,1,2,0:2:0:0:
323,296,33033,6,0,P|294:248|304:191,1,95.9999970703126,2|2,1:2|0:2,0:0:0:0:
269,364,33487,6,0,P|215:345|186:295,1,111.999996582031,8|2,0:1|0:2,0:0:0:0:
413,292,33942,6,0,P|422:229|472:187,1,128,2|0,0:2|1:0,0:0:0:0:
213,197,34396,5,8,0:1:0:0:
488,324,34624,1,2,1:2:0:0:
368,74,34851,6,0,P|306:107|286:156,1,95.9999970703126,2|0,0:2|1:0,0:0:0:0:
177,155,35306,6,0,P|210:189|211:241,8,55.9999982910157,8|2|2|2|2|2|2|2|2,0:1|0:0|0:0|0:0|0:0|0:0|0:0|0:0|0:0,0:0:0:0:
99,274,35987,6,0,P|130:237|130:175,1,64,2|2,1:2|0:2,0:0:0:0:
58,44,36215,1,12,0:1:0:0:
221,78,36328,5,2,0:2:0:0:
147,100,36442,1,2,0:2:0:0:
73,122,36556,1,2,0:2:0:0:
156,325,36669,6,0,P|123:285|90:272,1,80,2|2,1:2|0:2,0:0:0:0:
304,108,37124,1,8,0:1:0:0:
235,365,37351,6,0,P|261:303|250:254,1,95.9999970703126,2|2,0:2|0:2,0:0:0:0:
258,197,37692,6,0,P|290:198|318:239,1,55.9999982910157,2|0,0:2|1:0,0:0:0:0:
98,273,38033,6,0,P|110:243|133:221,1,64,8|2,0:1|0:2,0:0:0:0:
352,287,38260,1,2,1:2:0:0:
50,346,38487,6,0,P|13:297|12:245,1,80,2|0,0:2|0:0,0:0:0:0:
154,179,38942,6,0,P|134:212|136:248,8,47.9999985351563,8|2|2|2|2|2|2|2|2,0:1|0:0|0:0|0:0|0:0|0:0|0:0|0:0|0:0,0:0:0:0:
126,24,39624,6,0,P|182:57|198:116,1,111.999996582031,2|8,1:2|0:1,0:0:0:0:
294,21,39965,2,0,P|304:85|269:135,1,128,2|2,0:2|0:2,0:0:0:0:
131,154,40306,6,0,P|89:134|42:142,1,95.9999970703126,2|2,1:2|0:2,0:0:0:0:
95,231,40760,2,0,P|42:254|14:304,1,111.999996582031,8|2,0:1|0:2,0:0:0:0:
269,134,41215,6,0,P|252:78|195:38,1,128,2|0,0:2|1:0,0:0:0:0:
341,182,41669,2,0,P|367:142|354:39,1,143.999995605469,8|2,0:1|1:2,0:0:0:0:
276,283,42124,5,2,0:2:0:0:
392,262,42237,1,8,0:2:0:0:
510,242,42351,1,8,0:2:0:0:
510,242,42578,6,0,P|494:330|525:386,1,128,8|10,0:2|0:2,0:0:0:0:
442,165,43033,6,0,P|401:219|393:284,1,111.999996582031,10|2,0:2|1:2,0:0:0:0:
297,323,43374,5,2,0:0:0:0:
297,323,43487,2,0,P|275:284|279:243,1,47.9999985351563,8|2,0:1|0:2,0:0:0:0:
249,384,43715,2,0,P|218:372|200:346,1,40,0|2,0:0|0:2,0:0:0:0:
240,78,43942,6,0,P|267:162|189:293,1,240,6|0,1:2|1:0,0:0:0:0:
114,357,44396,2,0,P|106:303|120:354,1,160,8|2,0:1|1:2,0:0:0:0:
48,123,44851,6,0,P|119:152|144:245,1,160,2|2,0:0|0:0,0:0:0:0:
197,288,45192,1,2,0:0:0:0:
197,288,45306,1,8,0:1:0:0:
311,57,45533,2,0,P|269:56|226:121,1,80,2|0,0:0|0:0,0:0:0:0:
62,230,45760,6,0,B|210:179|130:297|326:213,1,240,2|0,1:2|1:0,0:0:0:0:
370,117,46215,6,0,P|357:155|374:192,4,60.0000022888184,8|2|2|2|2,0:1|0:0|0:0|0:0|1:2,0:0:0:0:
391,40,46556,1,2,0:0:0:0:
511,164,46669,6,0,P|436:113|347:127,1,160,2|2,0:0|0:0,0:0:0:0:
197,288,47010,1,2,0:0:0:0:
197,288,47124,1,8,0:1:0:0:
260,240,47237,6,0,P|247:189|220:159,1,80,0|0,0:0|0:0,0:0:0:0:
303,74,47578,6,0,B|374:33|308:-67|206:-4|205:105,1,240,2|0,1:2|1:0,0:0:0:0:
0,114,48033,2,0,P|23:113|87:210,1,80,8|0,0:1|0:0,0:0:0:0:
197,288,48260,1,2,1:2:0:0:
135,97,48487,6,0,P|93:164|82:243,1,160,2|0,0:0|0:0,0:0:0:0:
46,318,48942,2,0,P|11:286|13:195,1,80,8|0,0:1|0:0,0:0:0:0:
230,168,49169,1,2,0:0:0:0:
230,168,49283,1,2,0:0:0:0:
197,288,49396,6,0,P|178:226|282:273,1,240,2|2,1:2|1:2,0:0:0:0:
364,100,49851,6,0,P|320:110|297:151,8,60.0000022888184,8|2|2|2|2|2|2|2|2,0:1|0:0|0:0|0:0|1:2|0:0|0:0|0:0|0:0,0:0:0:0:
422,338,50533,6,0,B|298:298|348:388|205:324,2,207.999990478516,2|8|2,0:0|0:1|0:0,0:0:0:0:
430,43,51215,6,0,P|373:111|370:202,1,160,2|2,1:2|0:0,0:0:0:0:
422,338,51556,2,0,P|413:287|371:261,1,80,0|8,1:0|0:1,0:0:0:0:
339,358,51783,2,0,P|294:332|247:347,1,80,2|2,0:0|1:2,0:0:0:0:
189,162,52010,5,2,0:0:0:0:
262,187,52124,2,0,P|302:242|311:282,1,80,0|0,0:0|0:0,0:0:0:0:
71,166,52351,5,2,0:0:0:0:
187,142,52464,1,2,0:0:0:0:
288,77,52578,1,8,0:1:0:0:
288,77,52806,2,0,P|354:93|387:118,1,80,2|0,0:0|0:0,0:0:0:0:
147,310,53033,6,0,P|187:235|165:103,1,160,2|2,1:2|0:0,0:0:0:0:
100,36,53374,1,2,1:2:0:0:
111,127,53487,6,0,P|84:139|71:166,8,60.0000022888184,8|2|2|2|2|2|2|2|2,0:1|0:0|0:0|0:0|1:2|0:0|0:0|0:0|0:0,0:0:0:0:
305,252,54169,1,2,0:0:0:0:
51,259,54396,6,0,P|102:261|150:332,1,120,8|0,0:1|0:0,0:0:0:0:
146,309,54851,6,0,P|234:291|230:175,1,200,2|2,1:2|0:0,0:0:0:0:
355,15,55192,1,0,1:0:0:0:
355,15,55306,6,0,P|312:116|347:206,1,160,8|2,0:1|1:2,0:0:0:0:
467,62,55646,1,2,0:0:0:0:
467,62,55760,2,0,P|412:87|396:133,1,80,0|0,0:0|0:0,0:0:0:0:
306,253,55987,5,2,0:0:0:0:
229,230,56215,5,8,0:1:0:0:
152,207,56442,5,2,0:0:0:0:
152,207,56556,1,0,0:0:0:0:
152,207,56669,1,10,1:2:0:0:
184,363,56783,5,8,0:0:0:0:
210,151,56896,1,10,0:0:0:0:
18,263,57010,1,2,1:2:0:0:
306,253,57124,6,0,P|280:284|275:328,2,60.0000022888184,8|2|2,0:1|0:0|0:0,0:0:0:0:
380,281,57351,2,0,P|380:321|404:358,2,60.0000022888184,10|2|2,1:2|0:0|0:0,0:0:0:0:
184,363,57578,1,10,0:0:0:0:
133,128,57806,5,2,0:0:0:0:
132,127,58033,2,0,P|161:177|165:230,1,80,2|2,0:0|0:0,0:0:0:0:
344,47,58487,6,0,P|287:87|285:163,1,100,14|0,0:0|0:0,0:0:0:0:
402,101,58715,2,0,P|384:168|431:227,1,100,2|0,0:0|0:0,0:0:0:0:
486,284,58942,6,0,P|419:244|290:241,1,180.000006866455,10|2,0:0|0:0,0:0:0:0:
319,234,59396,1,8,0:0:0:0:
277,113,59624,6,0,P|273:137|288:176,1,40,2|0,0:0|0:0,0:0:0:0:
191,248,59851,2,0,P|214:238|239:206,1,40,10|0,0:0|0:0,0:0:0:0:
352,255,60078,2,0,P|332:239|291:233,1,40,2|0,0:0|0:0,0:0:0:0:
89,363,60306,6,0,P|110:315|95:245,1,100,10|0,0:0|0:0,0:0:0:0:
7,348,60533,2,0,P|3:298|24:253,1,100,2|0,0:0|0:0,0:0:0:0:
194,334,60760,6,0,P|256:334|318:367,1,120.000004577637,10|0,0:0|0:0,0:0:0:0:
381,332,61101,1,2,0:0:0:0:
381,332,61215,1,8,0:0:0:0:
191,248,61442,6,0,P|205:207|180:137,1,80,2|0,0:0|0:0,0:0:0:0:
106,268,61669,2,0,P|72:199|11:171,1,120,10|0,0:0|0:0,0:0:0:0:
265,296,62124,6,0,P|299:281|312:262,1,40,10|0,0:0|0:0,0:0:0:0:
290,376,62351,2,0,P|325:386|347:380,1,47.9999985351563,2|0,0:0|0:0,0:0:0:0:
393,194,62578,6,0,P|423:214|433:235,1,55.9999982910157,10|0,0:0|0:0,0:0:0:0:
431,119,62806,2,0,P|467:114|494:131,1,64,2|2,0:0|0:0,0:0:0:0:
412,341,63033,5,10,0:0:0:0:
347,112,63260,1,2,0:0:0:0:
131,204,63487,6,0,P|172:175|236:179,1,80,10|0,0:0|0:0,0:0:0:0:
60,162,63715,2,0,P|72:113|124:75,1,80,2|0,0:0|0:0,0:0:0:0:
347,112,63942,6,0,P|290:81|272:50,1,80,10|0,0:0|0:0,0:0:0:0:
196,257,64396,1,10,0:0:0:0:
120,14,64624,1,0,0:0:0:0:
120,14,64737,1,2,0:0:0:0:
120,14,64851,1,8,0:0:0:0:
61,245,65078,5,2,0:0:0:0:
131,204,65192,1,2,0:0:0:0:
196,257,65306,6,0,P|212:309|200:344,1,60.0000022888184,10|0,0:0|0:0,0:0:0:0:
307,302,65533,2,0,P|285:352|254:372,1,80,2|0,0:0|0:0,0:0:0:0:
43,232,65760,5,6,1:2:0:0:
134,178,65987,1,2,1:2:0:0:
220,247,66215,1,10,1:2:0:0:
347,112,66442,5,0,1:0:0:0:
347,112,66556,1,2,0:0:0:0:
347,112,66669,1,0,1:0:0:0:
415,210,66896,5,2,1:2:0:0:
434,132,67010,1,2,0:0:0:0:
453,54,67124,1,10,1:2:0:0:
307,302,67351,1,2,1:2:0:0:
477,40,67578,5,2,1:2:0:0:
455,132,67806,1,2,1:2:0:0:
433,224,68033,1,10,1:2:0:0:
260,92,68260,5,0,1:0:0:0:
260,92,68374,1,2,0:0:0:0:
260,92,68487,1,0,1:0:0:0:
100,362,68715,5,2,1:2:0:0:
152,152,68942,1,10,1:2:0:0:
307,302,69169,1,2,1:2:0:0:
23,260,69396,5,2,1:2:0:0:
26,265,69510,1,0,1:0:0:0:
36,280,69624,5,2,1:2:0:0:
47,292,69737,1,0,1:0:0:0:
70,311,69851,5,2,1:2:0:0:
94,329,69965,1,0,1:0:0:0:
139,348,70078,5,2,1:2:0:0:
186,353,70192,1,0,1:0:0:0:
251,339,70306,5,2,1:2:0:0:
307,302,70419,1,0,1:0:0:0:
346,238,70533,5,0,1:0:0:0:
349,145,70646,1,0,1:0:0:0:
303,60,70760,5,2,1:2:0:0:
212,8,70874,1,0,1:0:0:0:
101,21,70987,5,2,1:2:0:0:
256,192,71101,12,4,72578,0:1:0:0:
101,21,73033,6,0,P|98:77|156:142,1,120.000004577637,6|0,1:2|0:0,0:0:0:0:
254,0,73260,2,0,P|215:40|218:128,1,120.000004577637,0|0,1:0|0:0,0:0:0:0:
117,210,73487,6,0,P|198:150|284:143,1,180.000006866455,8|2,0:1|0:0,0:0:0:0:
450,161,73942,6,0,P|394:154|340:85,1,120.000004577637,2|2,0:0|0:0,0:0:0:0:
320,244,74169,2,0,P|281:203|284:115,1,120.000004577637,2|0,1:2|0:0,0:0:0:0:
431,24,74396,6,0,P|505:52|428:32,1,240.000009155274,8|2,0:1|0:0,0:0:0:0:
335,237,74737,1,2,0:0:0:0:
349,111,74851,6,0,P|391:152|450:161,1,120.000004577637,2|0,1:2|0:0,0:0:0:0:
274,141,75078,2,0,P|280:200|320:244,1,120.000004577637,2|0,1:2|0:0,0:0:0:0:
294,344,75306,6,0,B|406:309|347:380|482:333,1,180.000006866455,8|2,0:1|0:0,0:0:0:0:
468,337,75760,6,0,P|510:288|502:211,1,120.000004577637,2|2,0:0|0:0,0:0:0:0:
413,269,75987,2,0,P|414:204|358:150,1,111.999996582031,2|0,1:2|0:0,0:0:0:0:
243,48,76215,6,0,P|276:103|254:177,1,103.999995239258,8|0,0:1|0:0,0:0:0:0:
177,105,76442,2,0,P|167:168|102:211,1,95.9999970703126,2|0,0:0|0:0,0:0:0:0:
42,222,76669,5,2,0:0:0:0:
42,222,76896,1,0,1:0:0:0:
42,222,77124,6,0,B|26:281|149:289|161:194,1,180.000006866455,8|2,0:1|0:0,0:0:0:0:
284,10,77578,6,0,P|202:42|179:133,1,160,2|2,0:0|1:2,0:0:0:0:
0,384,78033,6,0,P|47:353|163:364,1,120.000004577637,8|0,0:1|0:0,0:0:0:0:
147,191,78260,2,0,P|200:207|267:303,1,120.000004577637,2|0,0:0|0:0,0:0:0:0:
413,269,78487,5,2,0:0:0:0:
121,0,78715,1,10,1:2:0:0:
140,100,78828,1,8,0:0:0:0:
159,201,78942,1,8,0:1:0:0:
56,148,79056,6,0,P|32:182|60:150,1,120,0|8,1:0|0:0,0:0:0:0:
121,0,79624,5,10,0:0:0:0:
140,100,79737,1,8,0:0:0:0:
159,201,79851,6,0,P|207:186|234:156,1,60.0000022888184,8|0,0:1|0:0,0:0:0:0:
260,265,80078,2,0,P|287:223|289:182,1,80,2|0,0:0|0:0,0:0:0:0:
315,0,80306,6,0,P|274:56|282:117,1,120.000004577637,2|0,1:2|0:0,0:0:0:0:
391,28,80533,2,0,P|389:86|352:132,1,120.000004577637,0|0,1:0|0:0,0:0:0:0:
159,201,80760,6,0,P|217:265|241:374,1,180.000006866455,8|2,0:1|0:0,0:0:0:0:
241,353,81215,6,0,P|338:328|356:266,1,120.000004577637,2|2,0:0|0:0,0:0:0:0:
422,298,81442,2,0,P|430:198|378:160,1,120.000004577637,2|0,1:2|0:0,0:0:0:0:
220,61,81669,6,0,B|228:-8|307:-9|367:51|351:142,1,240.000009155274,8|2,0:1|0:0,0:0:0:0:
439,196,82010,1,2,0:0:0:0:
422,297,82124,6,0,P|443:243|423:187,1,120.000004577637,2|0,1:2|0:0,0:0:0:0:
241,353,82351,2,0,P|300:354|345:316,1,120.000004577637,0|0,1:0|0:0,0:0:0:0:
488,62,82578,6,0,P|393:66|353:163,1,180.000006866455,8|2,0:1|0:0,0:0:0:0:
270,187,83033,6,0,P|301:192|321:220,1,40,2|2,0:0|0:0,0:0:0:0:
232,260,83260,6,0,P|252:284|250:319,1,60.0000022888184,2|0,1:2|0:0,0:0:0:0:
162,302,83487,6,0,P|161:342|131:373,1,80,8|0,0:1|0:0,0:0:0:0:
84,288,83715,6,0,P|54:323|3:329,1,100,2|0,0:0|0:0,0:0:0:0:
152,47,83942,5,2,0:0:0:0:
152,47,84169,1,0,1:0:0:0:
270,187,84396,6,0,B|215:97|45:69|-3:263|97:250|107:74,1,360.000013732911,8|2,0:1|0:0,0:0:0:0:
6,37,84851,6,0,P|17:32|0:46,1,120.000004577637,0|2,0:0|0:0,0:0:0:0:
143,328,85078,2,0,P|143:255|184:191,1,120.000004577637,2|0,1:2|0:0,0:0:0:0:
308,25,85306,6,0,P|263:86|176:102,1,120.000004577637,8|0,0:1|0:0,0:0:0:0:
389,0,85533,2,0,P|393:75|337:143,1,120.000004577637,2|2,0:0|0:0,0:0:0:0:
259,350,85760,6,0,P|251:322|257:297,1,40,2|0,0:0|0:0,0:0:0:0:
336,336,85987,2,0,P|336:316|329:297,1,40,0|0,1:0|0:0,0:0:0:0:
70,186,86215,6,0,P|26:251|123:183,1,360.000013732911,8|2,0:1|1:2,0:0:0:0:
216,58,86669,6,0,P|144:103|137:172,1,120.000004577637,2|8,0:0|0:1,0:0:0:0:
287,112,86896,6,0,P|267:155|282:210,1,80,2|0,1:2|0:0,0:0:0:0:
374,113,87124,6,0,P|395:143|427:158,1,60.0000022888184,4|0,0:1|0:0,0:0:0:0:
437,58,87351,6,0,P|471:52|487:36,1,40,2|0,0:0|0:0,0:0:0:0:
478,36,87578,6,0,P|363:24|286:111,2,240.000009155274,6|2|8,1:2|1:2|0:1,0:0:0:0:
410,372,88260,6,0,P|449:351|439:302,1,80,2|0,0:0|0:0,0:0:0:0:
460,310,88487,6,0,P|406:269|295:318,1,120.000004577637,2|0,0:0|0:0,0:0:0:0:
409,172,88715,2,0,P|341:175|287:284,1,120.000004577637,2|0,1:2|0:0,0:0:0:0:
200,374,88942,6,0,P|233:328|221:250,1,120.000004577637,8|0,0:1|0:0,0:0:0:0:
123,352,89169,2,0,P|119:293|153:245,1,120.000004577637,2|0,0:0|0:0,0:0:0:0:
193,37,89396,6,0,P|143:83|172:200,1,120.000004577637,2|0,1:2|0:0,0:0:0:0:
47,63,89624,2,0,P|38:130|136:201,1,120.000004577637,2|0,1:2|0:0,0:0:0:0:
322,353,89851,1,8,0:1:0:0:
9,248,90078,6,0,P|37:203|116:187,1,80,2|0,0:0|0:0,0:0:0:0:
62,173,90306,6,0,P|133:173|183:242,1,120.000004577637,2|0,0:0|0:0,0:0:0:0:
168,202,90533,2,0,P|97:202|47:133,1,120.000004577637,2|0,1:2|0:0,0:0:0:0:
199,373,90760,6,0,P|270:373|320:304,1,120.000004577637,8|0,0:1|0:0,0:0:0:0:
305,344,90987,2,0,P|234:344|184:413,1,120.000004577637,2|0,0:0|0:0,0:0:0:0:
374,113,91215,6,0,P|445:113|495:182,1,120.000004577637,2|0,1:2|0:0,0:0:0:0:
480,142,91442,2,0,P|409:142|359:73,1,120.000004577637,2|0,1:2|0:0,0:0:0:0:
223,8,91669,6,0,B|273:23|299:119|189:179|102:114,1,240,8|0,0:1|0:0,0:0:0:0:
141,115,92124,5,2,0:0:0:0:
237,299,92237,1,2,0:0:0:0:
285,124,92351,5,2,1:2:0:0:
281,222,92465,1,2,0:0:0:0:
379,189,92578,5,8,0:1:0:0:
363,199,92692,2,0,B|458:223|395:282|507:307,1,180.000006866455,2|0,0:0|1:0,0:0:0:0:
219,378,93260,5,8,1:2:0:0:
265,307,93374,1,8,0:0:0:0:
345,284,93487,1,8,0:1:0:0:
498,305,93601,6,0,P|443:350|367:337,1,120.000004577637,8|8,0:0|0:0,0:0:0:0:
281,222,93942,6,0,B|256:163|207:197|225:76|290:156|290:156|371:91|358:209|315:175|285:222,1,320,2|12,1:2|0:1,0:0:0:0:
219,378,94624,6,0,P|212:328|171:286,1,80,2|0,0:0|0:0,0:0:0:0:
208,299,94851,6,0,P|90:246|-18:320,2,240.000009155274,2|2|8,1:2|1:2|0:1,0:0:0:0:
201,84,95533,6,0,P|213:132|277:155,1,80,2|0,0:0|0:0,0:0:0:0:
235,166,95760,6,0,P|309:99|372:110,1,120.000004577637,2|0,0:0|0:0,0:0:0:0:
356,28,95987,2,0,P|451:58|472:118,1,120.000004577637,2|0,1:2|0:0,0:0:0:0:
328,327,96215,6,0,P|306:229|348:180,1,120.000004577637,8|0,0:1|0:0,0:0:0:0:
247,173,96442,2,0,P|321:106|383:116,1,120.000004577637,2|0,0:0|0:0,0:0:0:0:
498,305,96669,6,0,P|402:274|381:214,1,120.000004577637,2|0,1:2|0:0,0:0:0:0:
342,329,96896,2,0,P|320:231|362:182,1,120.000004577637,2|0,1:2|0:0,0:0:0:0:
468,55,97124,1,8,0:1:0:0:
171,84,97351,6,0,P|132:59|79:69,1,80,2|0,0:0|0:0,0:0:0:0:
90,53,97578,6,0,P|17:101|15:184,1,120.000004577637,2|0,0:0|0:0,0:0:0:0:
113,135,97806,2,0,P|89:218|140:283,1,120.000004577637,2|0,1:2|0:0,0:0:0:0:
209,378,98033,6,0,P|170:299|210:226,1,120.000004577637,8|0,0:1|0:0,0:0:0:0:
269,318,98261,2,0,P|290:233|367:202,1,120.000004577637,2|0,0:0|0:0,0:0:0:0:
342,34,98487,6,0,P|348:121|418:164,1,120.000004577637,2|0,1:2|0:0,0:0:0:0:
423,55,98715,2,0,P|483:117|565:105,1,120.000004577637,2|0,1:2|0:0,0:0:0:0:
490,345,98942,6,0,B|461:243|342:230|306:311|377:366,1,240,8|0,0:1|0:0,0:0:0:0:
344,352,99396,5,2,0:0:0:0:
367,142,99510,1,2,0:0:0:0:
269,318,99624,5,2,1:2:0:0:
247,210,99737,1,2,0:0:0:0:
172,288,99851,5,8,0:1:0:0:
176,270,99965,2,0,P|55:244|0:133,1,240,2|0,0:0|1:0,0:0:0:0:
196,376,100533,5,8,1:2:0:0:
1,149,100760,2,0,P|74:199|78:313,1,180.000006866455,8|8,0:1|0:0,0:0:0:0:
163,175,101215,6,0,B|200:171|210:116|167:147|167:147|136:104|130:158|163:175,1,160,2|2,0:2|0:0,0:0:0:0:
247,38,101896,5,2,0:0:0:0:
293,117,102010,1,2,0:0:0:0:
263,204,102124,6,0,P|327:206|363:179,1,80,2|0,1:2|0:0,0:0:0:0:
351,212,102465,2,0,P|401:172|411:128,1,95.9999970703126,0|0,1:0|0:0,0:0:0:0:
402,38,102806,6,0,P|430:86|425:140,1,111.999996582031,10|2,0:0|0:0,0:0:0:0:
417,278,103033,6,0,P|472:294|493:369,1,128,2|2,0:0|0:0,0:0:0:0:
495,355,103374,2,0,P|455:367|430:401,1,71.9999978027344,2|8,0:0|0:0,0:0:0:0:
351,212,103601,1,2,0:0:0:0:
339,214,103715,2,0,P|314:248|317:290,1,80,2|0,0:0|0:0,0:0:0:0:
12,312,103942,5,0,1:0:0:0:
104,338,104283,5,0,1:0:0:0:
196,363,104624,5,10,0:0:0:0:
199,355,104737,1,0,0:0:0:0:
195,315,104851,6,0,P|197:346|204:382,1,40,2|0,0:0|0:0,0:0:0:0:
96,278,105078,6,0,P|98:309|105:345,1,60.0000022888184,2|0,0:0|0:0,0:0:0:0:
2,232,105306,6,0,P|4:272|13:319,1,80,10|0,0:0|0:0,0:0:0:0:
256,262,105533,5,2,0:0:0:0:
255,253,105646,1,2,0:0:0:0:
266,171,105760,6,0,P|314:168|361:215,1,95.9999970703126,2|0,1:2|0:0,0:0:0:0:
351,212,106101,2,0,P|393:177|400:123,1,111.999996582031,0|0,1:0|0:0,0:0:0:0:
409,114,106442,6,0,P|449:66|513:75,1,128,10|2,0:0|0:0,0:0:0:0:
183,206,106669,5,2,0:0:0:0:
183,206,106896,1,2,0:0:0:0:
18,113,107124,2,0,P|71:137|91:215,1,120,10|0,0:0|0:0,0:0:0:0:
93,191,107578,6,0,P|186:171|203:84,1,160,2|2,1:2|0:0,0:0:0:0:
288,157,107919,1,0,1:0:0:0:
284,175,108033,2,0,P|312:85|245:26,1,160,2|2,0:0|0:0,0:0:0:0:
124,332,108487,6,0,P|156:304|136:342,1,120,2|0,0:0|0:0,0:0:0:0:
12,312,108942,6,0,B|84:308|100:229|100:229|98:226|98:226|102:228|102:228|196:202|272:281|224:385,1,360.000013732911,10|0,0:0|0:0,0:0:0:0:
264,199,109396,6,0,P|236:116|275:38,1,180.000006866455,0|0,1:0|1:0,0:0:0:0:
273,24,109851,5,2,0:0:0:0:
346,51,109965,1,2,0:0:0:0:
418,77,110078,1,10,0:0:0:0:
94,221,110306,5,0,0:0:0:0:
70,97,110533,1,0,0:0:0:0:
430,66,110760,5,10,0:0:0:0:
449,166,110874,1,2,0:0:0:0:
468,265,110987,1,2,0:0:0:0:
94,221,111215,6,0,P|149:210|190:267,1,120,0|2,1:0|1:2,0:0:0:0:
218,347,111669,5,2,0:0:0:0:
264,199,111783,1,2,0:0:0:0:
348,318,111896,5,10,0:0:0:0:
330,243,112010,1,2,0:0:0:0:
415,268,112124,5,2,0:0:0:0:
415,268,112351,1,2,0:0:0:0:
451,94,112578,6,0,B|535:128|528:271|267:303|225:131,1,360.000013732911,10|0,0:0|0:0,0:0:0:0:
2,160,113033,6,0,P|51:168|96:245,1,120,0|0,1:0|1:0,0:0:0:0:
93,220,113487,1,2,0:0:0:0:
244,119,113715,6,0,P|279:110|310:127,1,40,10|0,0:0|0:0,0:0:0:0:
257,220,113942,6,0,P|276:251|270:286,1,47.9999985351563,2|0,0:0|0:0,0:0:0:0:
165,265,114169,6,0,P|141:292|106:297,1,55.9999982910157,2|0,0:0|0:0,0:0:0:0:
94,191,114396,6,0,P|60:177|44:145,1,64,10|0,0:0|0:0,0:0:0:0:
143,100,114624,6,0,P|145:63|171:38,1,71.9999978027344,2|0,0:0|0:0,0:0:0:0:
351,25,114851,5,2,0:0:0:0:
344,23,115078,1,2,0:0:0:0:
344,16,115306,1,2,0:0:0:0:
351,14,115533,1,2,0:0:0:0:
354,19,115760,1,2,0:0:0:0:
351,157,115987,5,2,0:0:0:0:
351,157,116215,2,0,P|397:190|415:234,1,80,2|2,0:0|0:0,0:0:0:0:
237,308,116669,6,0,P|229:259|256:219,1,100,10|0,0:0|0:0,0:0:0:0:
313,323,116896,2,0,P|338:290|327:226,1,100,2|0,0:0|0:0,0:0:0:0:
10,349,117124,6,0,P|95:350|150:256,1,180.000006866455,10|2,0:0|0:0,0:0:0:0:
148,279,117578,1,8,0:0:0:0:
282,28,117806,6,0,P|260:39|241:62,1,40,2|0,0:0|0:0,0:0:0:0:
175,27,118033,2,0,P|170:50|175:80,1,40,10|0,0:0|0:0,0:0:0:0:
106,108,118260,2,0,P|121:126|147:142,1,40,2|0,0:0|0:0,0:0:0:0:
332,234,118487,6,0,B|371:156|269:102|190:167,1,200,10|2,0:0|0:0,0:0:0:0:
0,196,118942,6,0,B|114:205|22:277|188:283,1,180.000006866455,10|2,0:0|0:0,0:0:0:0:
149,279,119396,1,8,0:0:0:0:
399,279,119624,6,0,P|452:234|451:181,1,80,2|0,0:0|0:0,0:0:0:0:
332,234,119851,2,0,P|324:175|283:131,1,120,10|0,0:0|0:0,0:0:0:0:
325,316,120306,6,0,P|312:342|304:388,1,40,10|0,0:0|0:0,0:0:0:0:
223,338,120533,2,0,P|229:366|253:406,1,47.9999985351563,2|0,0:0|0:0,0:0:0:0:
211,152,120760,6,0,P|196:128|193:100,1,55.9999982910157,10|0,0:0|0:0,0:0:0:0:
102,115,120987,2,0,P|109:84|126:57,1,64,2|2,0:0|0:0,0:0:0:0:
273,102,121215,5,10,0:0:0:0:
0,196,121442,1,2,0:0:0:0:
325,316,121669,6,0,P|342:280|341:240,1,80,10|0,0:0|0:0,0:0:0:0:
267,222,121896,2,0,P|249:257|250:297,1,80,2|0,0:0|0:0,0:0:0:0:
483,136,122124,6,0,P|420:147|397:168,1,80,10|0,0:0|0:0,0:0:0:0:
272,375,122578,1,10,0:0:0:0:
493,333,122806,1,0,0:0:0:0:
493,333,122919,1,2,0:0:0:0:
493,333,123033,1,8,0:0:0:0:
267,222,123260,5,2,0:0:0:0:
230,150,123374,1,2,0:0:0:0:
268,80,123487,6,0,P|302:58|328:58,1,40,10|0,0:0|0:0,0:0:0:0:
348,0,123715,2,0,P|386:11|415:44,1,80,2|0,0:0|0:0,0:0:0:0:
253,239,123942,5,2,1:2:0:0:
208,151,124169,1,2,1:2:0:0:
254,67,124396,1,10,1:2:0:0:
463,215,124624,5,0,1:0:0:0:
463,215,124737,1,2,0:0:0:0:
463,215,124851,1,0,1:0:0:0:
152,340,125078,5,2,1:2:0:0:
238,327,125191,1,2,0:0:0:0:
324,314,125305,1,10,1:2:0:0:
88,197,125533,1,2,1:2:0:0:
145,356,125760,5,2,1:2:0:0:
241,341,125987,1,2,1:2:0:0:
337,326,126215,1,10,1:2:0:0:
455,115,126442,5,0,1:0:0:0:
455,115,126556,1,2,0:0:0:0:
455,115,126669,1,0,1:0:0:0:
477,352,126896,5,2,1:2:0:0:
175,252,127124,1,10,1:2:0:0:
412,40,127351,1,2,1:2:0:0:
12,190,127578,5,2,1:2:0:0:
18,185,127692,1,0,1:0:0:0:
24,188,127805,5,2,1:2:0:0:
38,191,127919,1,0,1:0:0:0:
48,181,128032,5,2,1:2:0:0:
73,180,128146,1,0,1:0:0:0:
88,197,128260,5,2,1:2:0:0:
130,193,128373,1,0,1:0:0:0:
151,161,128487,5,2,1:2:0:0:
214,179,128601,1,0,1:0:0:0:
241,240,128714,5,0,1:0:0:0:
317,182,128828,1,0,1:0:0:0:
326,86,128942,5,2,1:2:0:0:
415,185,129055,1,0,1:0:0:0:
407,320,129169,5,2,1:2:0:0:
256,192,129283,12,4,130760,0:1:0:0:
407,320,131215,6,0,P|356:331|305:388,1,120.000004577637,6|0,1:2|0:0,0:0:0:0:
271,254,131442,2,0,P|239:295|237:371,1,120.000004577637,0|0,1:0|0:0,0:0:0:0:
511,333,131669,6,0,P|439:311|408:196,1,180.000006866455,8|2,0:1|0:0,0:0:0:0:
402,219,132124,6,0,P|341:172|263:210,1,120.000004577637,2|2,0:0|0:0,0:0:0:0:
345,70,132351,2,0,P|269:85|249:169,1,120.000004577637,2|0,1:2|0:0,0:0:0:0:
132,176,132578,6,0,B|76:238|150:323|268:289|314:204,1,240.000009155274,8|2,0:1|0:0,0:0:0:0:
243,103,132919,1,2,0:0:0:0:
345,70,133033,6,0,P|269:85|249:169,1,120.000004577637,2|0,1:2|0:0,0:0:0:0:
402,219,133260,2,0,P|341:172|263:210,1,120.000004577637,2|0,1:2|0:0,0:0:0:0:
234,361,133487,6,0,P|252:269|203:180,1,180.000006866455,8|2,0:1|0:0,0:0:0:0:
50,0,133942,6,0,P|23:21|61:6,1,120.000004577637,2|2,0:0|0:0,0:0:0:0:
134,74,134169,2,0,P|130:105|145:70,1,111.999996582031,2|0,1:2|0:0,0:0:0:0:
243,103,134396,6,0,P|259:125|246:95,1,103.999995239258,8|0,0:1|0:0,0:0:0:0:
341,49,134624,2,0,P|357:70|344:43,1,95.9999970703126,2|0,0:0|0:0,0:0:0:0:
76,158,134851,5,2,0:0:0:0:
76,158,135078,1,0,1:0:0:0:
216,193,135306,6,0,B|108:181|160:270|15:231,1,180.000006866455,8|2,0:1|0:0,0:0:0:0:
301,149,135760,6,0,P|279:117|242:102,1,80,2|2,0:0|0:0,0:0:0:0:
10,305,135987,1,2,1:2:0:0:
276,248,136215,6,0,P|307:298|302:357,1,120.000004577637,8|0,0:1|0:0,0:0:0:0:
193,274,136442,2,0,P|174:330|126:364,1,120.000004577637,2|0,0:0|0:0,0:0:0:0:
134,74,136669,5,2,0:0:0:0:
397,220,136896,1,10,1:2:0:0:
419,113,137010,1,8,0:0:0:0:
441,6,137124,1,8,0:1:0:0:
321,5,137237,6,0,P|318:45|328:6,1,120,0|8,1:0|0:0,0:0:0:0:
397,220,137806,5,10,0:0:0:0:
419,113,137920,1,8,0:0:0:0:
441,6,138033,6,0,P|486:15|519:51,1,60.0000022888184,12|0,0:1|0:0,0:0:0:0:
483,103,138260,2,0,P|437:98|400:66,1,80,2|0,0:0|0:0,0:0:0:0:
187,5,138487,6,0,P|239:65|223:150,1,120.000004577637,2|0,1:2|0:0,0:0:0:0:
123,59,138715,2,0,P|124:138|57:193,1,120.000004577637,0|0,1:0|0:0,0:0:0:0:
164,240,138942,6,0,P|101:198|-20:192,1,180.000006866455,8|2,0:1|0:0,0:0:0:0:
0,187,139396,6,0,P|-7:259|49:309,1,120.000004577637,2|2,0:0|0:0,0:0:0:0:
102,169,139624,2,0,P|132:219|121:276,1,120.000004577637,2|0,1:2|0:0,0:0:0:0:
273,271,139851,6,0,P|295:343|201:293,1,240.000009155274,8|2,0:1|0:0,0:0:0:0:
114,264,140192,1,2,0:0:0:0:
102,169,140306,6,0,P|132:219|121:276,1,120.000004577637,2|0,1:2|0:0,0:0:0:0:
0,187,140533,2,0,P|-10:244|19:294,1,120.000004577637,0|0,1:0|0:0,0:0:0:0:
232,199,140760,6,0,B|343:163|287:251|431:197,1,180.000006866455,8|2,0:1|0:0,0:0:0:0:
375,90,141215,6,0,P|359:116|358:155,1,40,2|2,0:0|0:0,0:0:0:0:
455,110,141442,2,0,P|459:140|483:170,1,60.0000022888184,2|0,1:2|0:0,0:0:0:0:
165,384,141669,6,0,P|140:355|131:308,1,80,8|0,0:1|0:0,0:0:0:0:
241,360,141896,2,0,P|240:323|278:267,1,100,2|0,0:0|0:0,0:0:0:0:
42,101,142124,5,2,0:0:0:0:
42,101,142351,1,0,1:0:0:0:
251,23,142578,6,0,B|150:27|56:163|96:238|150:177|160:100|104:34,1,360.000013732911,8|2,0:1|0:0,0:0:0:0:
36,5,143033,6,0,P|-6:2|35:9,1,120.000004577637,0|2,0:0|0:0,0:0:0:0:
223,240,143260,2,0,P|212:166|241:99,1,120.000004577637,2|0,1:2|0:0,0:0:0:0:
144,310,143487,6,0,P|80:270|47:205,1,120.000004577637,8|0,0:1|0:0,0:0:0:0:
328,256,143715,2,0,P|377:200|447:179,1,120.000004577637,2|2,0:0|0:0,0:0:0:0:
215,347,143942,6,0,P|219:377|236:394,1,40,2|0,0:0|0:0,0:0:0:0:
290,328,144169,2,0,P|299:345|299:365,1,40,0|0,1:0|0:0,0:0:0:0:
328,256,144396,6,0,P|419:243|443:163,1,160,8|0,0:1|0:0,0:0:0:0:
457,202,144737,2,0,P|448:110|484:43,1,160,2|8,1:2|0:1,0:0:0:0:
477,50,145078,1,2,1:2:0:0:
196,193,145306,6,0,P|224:223|218:278,2,80,8|0|0,0:1|1:0|0:0,0:0:0:0:
256,192,145874,12,4,147578,0:0:0:0:
196,193,153033,5,8,0:1:0:0:
196,193,153487,2,0,P|143:203|111:229,1,80,8|0,0:1|1:0,0:0:0:0:
61,268,153828,5,0,1:0:0:0:
45,271,153942,2,0,P|22:256|10:215,1,40,8|0,0:1|0:0,0:0:0:0:
122,217,154169,5,2,1:2:0:0:
109,206,154283,2,0,P|105:178|129:143,1,60.0000022888184,2|8,1:2|0:1,0:0:0:0:
200,230,154510,5,2,0:0:0:0:
200,213,154624,2,0,P|218:192|281:181,1,80,2|2,1:2|1:2,0:0:0:0:
308,94,154851,5,8,0:1:0:0:
364,344,155078,1,2,1:2:0:0:
497,152,155306,5,8,0:1:0:0:
466,283,155533,1,0,1:0:0:0:
200,230,155760,5,8,0:1:0:0:
279,243,155874,1,2,0:0:0:0:
357,255,155987,1,0,1:0:0:0:
133,146,156215,5,8,0:1:0:0:
235,122,156328,1,2,0:0:0:0:
339,98,156442,1,0,1:0:0:0:
45,271,156669,5,8,0:1:0:0:
103,157,156896,1,0,1:0:0:0:
211,309,157124,5,8,0:1:0:0:
153,66,157351,1,0,1:0:0:0:
263,375,157578,5,8,0:1:0:0:
310,0,157806,2,0,P|250:44|235:127,1,160,2|8,1:2|0:1,0:0:0:0:
120,150,158146,1,2,0:0:0:0:
103,157,158260,2,0,P|129:197|185:212,1,80,0|0,1:0|0:0,0:0:0:0:
469,22,158487,5,8,0:1:0:0:
462,17,158600,1,8,0:1:0:0:
450,11,158715,5,8,0:1:0:0:
434,6,158827,1,8,0:1:0:0:
415,7,158942,5,8,0:1:0:0:
431,27,159055,1,8,0:1:0:0:
436,66,159169,5,8,0:1:0:0:
419,110,159282,1,8,0:1:0:0:
384,144,159396,5,8,0:1:0:0:
350,92,159509,1,8,0:1:0:0:
293,48,159624,5,8,0:1:0:0:
215,43,159736,1,8,0:1:0:0:
143,77,159851,5,8,0:1:0:0:
193,149,159964,1,8,0:1:0:0:
180,246,160078,5,8,0:1:0:0:
106,318,160191,1,8,0:1:0:0:
6,341,160306,6,0,P|4:310|39:261,1,88,2|0,0:0|0:0,0:0:0:0:
33,250,161669,6,0,P|126:242|181:326,1,160,4|0,1:2|0:0,0:0:0:0:
247,224,161896,2,0,P|286:325|251:387,1,140.000001335144,2|0,0:0|0:0,0:0:0:0:
350,84,162124,5,4,1:0:0:0:
278,350,162351,2,0,P|348:355|401:288,1,120.000004577637,2|2,1:2|0:0,0:0:0:0:
414,147,162578,5,8,0:1:0:0:
472,356,162692,1,2,0:0:0:0:
344,202,162806,5,2,0:0:0:0:
319,281,162919,1,2,0:0:0:0:
247,224,163033,6,0,P|177:257|137:315,1,120.000004577637,2|0,0:0|0:0,0:0:0:0:
0,107,163260,5,2,1:2:0:0:
87,326,163374,1,0,0:0:0:0:
208,113,163487,5,8,0:1:0:0:
57,165,163601,2,0,B|13:119|53:39|174:54|212:150,1,240.000009155274,2|0,0:0|0:0,0:0:0:0:
443,55,163942,5,0,1:0:0:0:
278,350,164169,2,0,P|239:249|274:187,1,120.000004577637,2|2,1:2|0:0,0:0:0:0:
362,99,164396,5,8,0:1:0:0:
145,183,164510,1,2,0:0:0:0:
351,250,164624,5,2,0:0:0:0:
247,224,164737,1,2,0:0:0:0:
278,350,164851,5,2,0:0:0:0:
263,326,164965,1,0,0:0:0:0:
492,303,165078,6,0,P|433:294|384:326,1,120.000004577637,2|2,1:2|0:0,0:0:0:0:
362,99,165306,5,8,0:1:0:0:
263,326,165419,1,0,0:0:0:0:
15,111,165533,6,0,P|100:117|154:212,1,180.000006866455,2|0,0:0|0:0,0:0:0:0:
163,194,165760,5,2,1:2:0:0:
163,45,165874,1,2,0:0:0:0:
388,120,165987,5,2,1:2:0:0:
301,238,166101,1,2,0:0:0:0:
300,1,166215,6,0,P|268:55|255:119,1,120.000004577637,8|0,0:1|0:0,0:0:0:0:
46,204,166442,2,0,P|73:256|116:298,1,120.000004577637,2|2,0:0|0:0,0:0:0:0:
281,242,166669,5,2,0:0:0:0:
48,343,166783,1,2,0:0:0:0:
233,331,166896,5,2,1:2:0:0:
116,298,167010,1,2,0:0:0:0:
190,262,167124,5,8,0:1:0:0:
243,106,167237,2,0,P|201:233|234:333,1,240.000009155274,2|2,0:0|0:0,0:0:0:0:
233,331,167578,6,0,P|319:337|363:379,1,120.000004577637,10|2,1:2|0:0,0:0:0:0:
472,173,167806,6,0,P|466:212|476:248,1,60.0000022888184,10|0,0:0|0:0,0:0:0:0:
362,219,167919,2,0,P|383:253|414:274,1,60.0000022888184,10|0,0:0|0:0,0:0:0:0:
464,309,168033,5,10,0:0:0:0:
398,138,168146,2,0,P|403:75|465:19,2,120.000004577637,10|2|2,0:0|0:0|0:0,0:0:0:0:
344,355,168487,6,0,P|292:327|233:331,1,120.000004577637,2|0,0:0|0:0,0:0:0:0:
190,262,168715,2,0,P|135:284|99:331,1,120.000004577637,2|2,0:0|0:0,0:0:0:0:
27,374,168942,6,0,P|-2:324|2:290,2,80.0000030517579,10|2|2,0:0|0:0|0:0,0:0:0:0:
218,42,169396,6,0,P|174:41|159:112,1,120,6|0,1:2|0:0,0:0:0:0:
145,120,169851,6,0,P|161:137|170:163,12,30.0000011444092,2|0|2|0|2|0|2|0|2|0|2|0|2,0:0|0:0|0:0|0:0|0:0|0:0|0:0|0:0|0:0|0:0|0:0|0:0|0:0,0:0:0:0:
94,188,170306,5,2,0:0:0:0:
242,120,170457,1,2,0:0:0:0:
157,244,170609,1,2,0:0:0:0:
254,291,170760,5,2,1:2:0:0:
28,113,170912,1,2,0:0:0:0:
313,22,171063,1,2,0:0:0:0:
157,244,171215,6,0,P|219:195|243:120,2,160.000006103516,2|2|2,0:0|0:0|0:0,0:0:0:0:
302,36,171669,2,0,P|355:94|366:173,2,160.000006103516,2|2|2,1:2|0:0|0:0,0:0:0:0:
506,66,172124,5,10,0:0:0:0:
458,129,172275,1,2,0:0:0:0:
438,206,172427,1,2,0:0:0:0:
448,285,172578,6,0,P|450:347|366:344,1,160,2|8,0:0|0:0,0:0:0:0:
354,359,172919,2,0,P|347:303|365:266,1,80,8|0,0:0|1:0,0:0:0:0:
242,120,173260,5,2,1:2:0:0:
512,236,173374,1,2,0:0:0:0:
238,244,173487,6,0,P|220:173|248:110,1,120.000004577637,8|2,0:1|0:0,0:0:0:0:
309,194,173715,2,0,P|351:135|418:115,1,120.000004577637,2|2,0:0|0:0,0:0:0:0:
107,39,173942,6,0,B|31:24|-10:105|33:188|150:220|302:68,1,360.000013732911,2|2,0:0|0:0,0:0:0:0:
290,33,174396,5,8,0:1:0:0:
319,107,174510,1,2,0:0:0:0:
425,1,174624,5,2,0:0:0:0:
393,212,174737,1,2,0:0:0:0:
195,84,174851,6,0,P|234:107|242:152,1,60.0000022888184,10|0,1:2|0:0,0:0:0:0:
129,139,174965,2,0,P|136:183|107:218,1,60.0000022888184,10|0,0:0|0:0,0:0:0:0:
21,4,175078,6,0,P|86:18|128:80,1,120.000004577637,10|2,1:2|0:0,0:0:0:0:
238,244,175306,6,0,B|101:192|147:312|-15:223,1,240.000009155274,8|2,0:1|0:0,0:0:0:0:
120,56,175646,1,2,0:0:0:0:
233,16,175760,6,0,P|195:82|196:111,1,80,2|2,0:0|0:0,0:0:0:0:
129,139,176101,1,2,0:0:0:0:
105,140,176215,6,0,B|197:238|200:358|86:393|105:223|208:164,1,360.000013732911,4|0,0:1|0:0,0:0:0:0:
445,171,176669,6,0,P|336:117|237:139,1,200,6|0,1:2|1:0,0:0:0:0:
8,235,177124,2,0,B|-42:267|-25:342|77:351|115:258,1,200,8|0,0:1|0:0,0:0:0:0:
138,24,177465,2,0,P|125:139|172:264,1,200,2|2,0:0|0:0,0:0:0:0:
146,219,177806,1,2,1:2:0:0:
330,166,178033,6,0,P|361:230|410:249,1,100,8|0,0:1|0:0,0:0:0:0:
261,127,178260,2,0,P|231:192|248:242,1,100,2|0,0:0|0:0,0:0:0:0:
151,368,178487,5,2,1:2:0:0:
477,258,178715,1,0,1:0:0:0:
267,5,178942,6,0,P|200:68|320:35,1,300,8|2,0:1|0:0,0:0:0:0:
329,78,179396,2,0,P|402:49|453:67,1,100,0|2,0:0|0:0,0:0:0:0:
330,166,179624,2,0,P|399:202|418:252,1,100,2|0,1:2|0:0,0:0:0:0:
497,6,179851,5,8,0:1:0:0:
426,321,180078,1,2,0:0:0:0:
420,51,180306,6,0,P|506:145|489:262,1,200,2|0,0:0|1:0,0:0:0:0:
151,368,180760,2,0,P|257:334|361:341,1,200,8|0,0:1|0:0,0:0:0:0:
494,286,181101,2,0,P|514:344|427:313,1,200,2|2,0:0|0:0,0:0:0:0:
330,166,181442,2,0,P|363:229|363:297,1,100,2|0,1:2|0:0,0:0:0:0:
151,368,181669,6,0,P|203:330|217:247,1,100,8|0,0:1|0:0,0:0:0:0:
71,328,181896,2,0,P|75:263|20:199,1,100,2|0,0:0|0:0,0:0:0:0:
169,103,182124,5,2,0:0:0:0:
0,379,182351,1,0,1:0:0:0:
282,237,182578,5,8,0:1:0:0:
127,184,182692,2,0,B|249:218|195:117|355:162,2,200,0|2|0,1:0|1:2|1:0,0:0:0:0:
512,72,183260,6,0,P|431:110|419:188,1,120.000004577637,2|0,0:0|0:0,0:0:0:0:
382,10,183487,6,0,P|353:63|357:101,1,80,8|0,0:1|0:0,0:0:0:0:
261,35,183715,6,0,P|264:62|281:88,1,40,2|0,0:0|0:0,0:0:0:0:
256,85,183942,6,0,P|316:182|280:285,1,200,2|0,1:2|1:0,0:0:0:0:
22,338,184396,2,0,B|-60:295|4:202|134:217|172:353,1,300,8|2,0:1|0:0,0:0:0:0:
165,332,184851,2,0,P|218:318|229:262,1,100,0|2,0:0|0:0,0:0:0:0:
152,14,185078,1,2,1:2:0:0:
376,366,185306,6,0,P|409:328|454:307,1,100,8|0,0:1|0:0,0:0:0:0:
299,384,185533,2,0,P|299:334|320:289,1,100,2|0,0:0|0:0,0:0:0:0:
98,80,185760,5,2,1:2:0:0:
165,332,185987,1,0,1:0:0:0:
232,107,186215,2,0,P|119:103|12:164,1,200,8|0,0:1|0:0,0:0:0:0:
165,332,186556,2,0,B|114:361|35:280|113:203,1,200,2|2,0:0|0:0,0:0:0:0:
31,48,186896,2,0,P|90:49|76:108,1,100,2|0,1:2|0:0,0:0:0:0:
236,380,187124,6,0,P|234:282|204:242,1,120.000004577637,8|0,0:1|0:0,0:0:0:0:
10,227,187351,2,0,P|96:225|116:188,1,120.000004577637,2|0,0:0|0:0,0:0:0:0:
279,13,187578,6,0,P|205:88|203:224,1,200,2|0,0:0|1:0,0:0:0:0:
506,247,188033,2,0,B|394:225|434:329|297:282,1,200,8|0,0:1|0:0,0:0:0:0:
213,255,188374,2,0,P|224:281|220:259,1,100,2|0,0:0|0:0,0:0:0:0:
143,345,188601,1,2,0:0:0:0:
143,345,188715,2,0,P|115:305|111:256,1,100,2|0,1:2|0:0,0:0:0:0:
356,208,188942,5,8,0:1:0:0:
36,328,189169,1,2,0:0:0:0:
376,366,189396,6,0,P|387:258|442:184,1,200,2|0,0:0|1:0,0:0:0:0:
512,151,189737,1,0,0:0:0:0:
512,151,189851,2,0,P|498:85|431:64,1,100,8|0,0:1|1:0,0:0:0:0:
439,186,190078,2,0,P|379:154|320:192,1,100,0|2,0:0|1:2,0:0:0:0:
361,380,190306,6,0,P|312:332|299:249,1,120.000004577637,2|0,0:0|1:0,0:0:0:0:
214,332,190533,6,0,P|205:281|221:239,1,80,2|0,0:0|0:0,0:0:0:0:
111,256,190760,6,0,P|129:211|165:186,1,80,8|0,0:1|0:0,0:0:0:0:
67,138,190987,6,0,P|110:118|139:120,1,60.0000022888184,2|0,0:0|0:0,0:0:0:0:
144,36,191215,6,0,P|173:48|186:67,1,40,2|2,0:0|0:0,0:0:0:0:
192,50,191669,6,0,B|310:69|377:-51|264:-31|234:36|234:36|170:126|46:122|7:54,1,480,12|0,0:1|0:0,0:0:0:0:
28,78,192124,6,0,P|-27:130|-15:194,1,120.000004577637,2|0,0:0|0:0,0:0:0:0:
94,150,192351,2,0,P|84:224|134:265,1,120.000004577637,2|0,1:2|0:0,0:0:0:0:
214,361,192578,6,0,P|191:289|234:239,1,120.000004577637,8|0,0:1|0:0,0:0:0:0:
306,331,192805,2,0,P|335:261|399:250,1,120.000004577637,2|0,0:0|0:0,0:0:0:0:
281,50,193033,6,0,P|297:123|359:145,1,120.000004577637,2|0,1:2|0:0,0:0:0:0:
374,29,193260,2,0,P|433:74|494:51,1,120.000004577637,2|0,1:2|0:0,0:0:0:0:
387,366,193487,1,8,0:1:0:0:
473,67,193715,6,0,P|447:101|441:154,1,80,2|0,0:0|0:0,0:0:0:0:
423,147,193942,6,0,P|457:227|539:245,1,120.000004577637,2|0,0:0|0:0,0:0:0:0:
482,241,194169,2,0,P|448:161|366:143,1,120.000004577637,2|0,1:2|0:0,0:0:0:0:
255,208,194396,6,0,P|237:273|266:332,1,120.000004577637,8|0,0:1|0:0,0:0:0:0:
256,320,194624,2,0,P|274:255|245:196,1,120.000004577637,2|0,0:0|0:0,0:0:0:0:
89,146,194851,6,0,P|43:183|30:241,1,120.000004577637,2|0,1:2|0:0,0:0:0:0:
29,241,195078,2,0,P|75:204|89:147,1,120.000004577637,2|0,1:2|0:0,0:0:0:0:
256,96,195306,6,0,B|307:36|223:-34|116:-6|58:79,1,240,8|0,0:1|0:0,0:0:0:0:
87,26,195760,5,2,0:0:0:0:
115,227,195874,1,2,0:0:0:0:
256,96,195987,5,2,1:2:0:0:
226,181,196101,1,2,0:0:0:0:
350,132,196215,5,8,0:1:0:0:
361,149,196328,2,0,P|451:138|505:7,1,240,2|0,0:0|1:0,0:0:0:0:
218,343,196896,5,8,1:2:0:0:
307,328,197010,1,8,0:0:0:0:
396,314,197124,1,8,0:1:0:0:
483,238,197237,6,0,P|421:290|411:341,1,120.000004577637,8|8,0:0|0:0,0:0:0:0:
339,241,197578,6,0,B|285:221|267:185|290:156|290:156|315:153|331:177|331:177|340:150|366:147|366:147|394:169|386:209|339:241,1,320,2|12,1:2|0:1,0:0:0:0:
218,343,198260,6,0,P|215:302|244:265,1,80,2|0,0:0|0:0,0:0:0:0:
225,262,198487,6,0,P|115:242|37:361,2,240.000009155274,2|2|8,1:2|1:2|0:1,0:0:0:0:
373,12,199169,6,0,P|422:39|423:105,1,80,2|0,0:0|0:0,0:0:0:0:
449,70,199396,6,0,P|391:116|370:219,1,120.000004577637,2|0,0:0|0:0,0:0:0:0:
512,122,199624,2,0,P|497:194|547:286,1,120.000004577637,2|0,1:2|0:0,0:0:0:0:
221,371,199851,6,0,P|171:315|169:210,1,120.000004577637,8|0,0:1|0:0,0:0:0:0:
292,330,200079,2,0,P|289:256|355:173,1,120.000004577637,2|0,0:0|0:0,0:0:0:0:
87,26,200306,6,0,P|48:89|63:193,1,120.000004577637,2|0,1:2|0:0,0:0:0:0:
164,54,200534,2,0,P|174:127|253:196,1,120.000004577637,2|0,1:2|0:0,0:0:0:0:
449,70,200760,1,8,0:1:0:0:
292,330,200987,6,0,P|332:347|373:310,1,80,2|0,0:0|0:0,0:0:0:0:
371,344,201215,6,0,P|411:269|390:197,1,120.000004577637,2|0,0:0|0:0,0:0:0:0:
512,272,201442,2,0,P|480:193|411:162,1,120.000004577637,2|0,1:2|0:0,0:0:0:0:
219,52,201669,6,0,P|198:123|246:187,1,120.000004577637,8|0,0:1|0:0,0:0:0:0:
293,161,201896,2,0,P|314:90|266:26,1,120.000004577637,2|0,0:0|0:0,0:0:0:0:
0,272,202124,6,0,P|31:193|100:162,1,120.000004577637,2|0,1:2|0:0,0:0:0:0:
141,344,202351,2,0,P|101:269|122:197,1,120.000004577637,2|0,1:2|0:0,0:0:0:0:
23,38,202578,6,0,B|163:52|71:143|233:165,1,240,8|0,0:1|0:0,0:0:0:0:
224,140,203033,5,2,0:0:0:0:
200,67,203146,1,2,0:0:0:0:
285,195,203260,5,2,1:2:0:0:
333,48,203374,1,2,0:0:0:0:
334,276,203487,5,8,0:1:0:0:
512,40,203601,2,0,B|483:-17|387:8|371:118|454:176,1,240,2|0,0:0|1:0,0:0:0:0:
239,279,204169,5,8,1:2:0:0:
0,370,204396,2,0,P|67:343|189:344,1,180.000006866455,8|8,0:1|0:0,0:0:0:0:
233,283,204851,6,0,B|220:253|196:270|205:210|237:250|237:250|278:217|271:276|250:259|235:283,1,160,2|2,0:2|0:0,0:0:0:0:
