osu file format v14

[General]
AudioFilename: audio.mp3
AudioLeadIn: 0
PreviewTime: 14624
Countdown: 0
SampleSet: Soft
StackLeniency: 0.5
Mode: 0
LetterboxInBreaks: 0
WidescreenStoryboard: 1

[Editor]
DistanceSpacing: 0.9
BeatDivisor: 4
GridSize: 4
TimelineZoom: 1.6

[Metadata]
Title:LIKEY
TitleUnicode:LIKEY
Artist:TWICE
ArtistUnicode:트와이스
Creator:CharmCaster
Version:Normal
Source:
Tags:TWICETAGRAM 1ST ALBUM JYP Entertainment Nayeon Jeongyeon Momo Sana Jihyo Mina Dahyun Chaeyoung Tzuyu 나연 정연 모모 사나 지효 미나 다현 채영 쯔위 kpop cosmiccc leviza sing simuzax 트와이스 라이키
BeatmapID:1496145
BeatmapSetID:688158

[Difficulty]
HPDrainRate:3.5
CircleSize:3.5
OverallDifficulty:3
ApproachRate:4
SliderMultiplier:1.3
SliderTickRate:1

[Events]
//Background and Video events
Video,-7888,"LIKEY3.avi"
0,0,"better likey.jpg",0,0
//Break Periods
2,102324,108076
2,147778,153531
2,176669,182622
//Storyboard Layer 0 (Background)
//Storyboard Layer 1 (Fail)
//Storyboard Layer 2 (Pass)
//Storyboard Layer 3 (Foreground)
//Storyboard Sound Samples

[TimingPoints]
306,454.545454545455,4,2,0,80,1,0
14396,-100,4,2,45,100,0,0
14851,-100,4,2,0,80,0,1
20760,-100,4,2,0,80,0,0
21669,-100,4,2,45,100,0,0
22124,-100,4,2,0,80,0,1
28487,-100,4,2,0,80,0,0
29396,-100,4,3,0,80,0,0
58487,-100,4,2,0,80,0,0
72578,-100,4,2,45,100,0,0
73033,-100,4,2,0,80,0,1
79851,-100,4,2,45,100,0,1
80078,-100,4,2,0,80,0,1
87124,-100,4,2,45,100,0,0
87578,-100,4,2,0,80,0,1
93487,-100,4,2,0,80,0,0
94396,-100,4,2,45,100,0,0
94851,-100,4,2,0,80,0,1
101215,-100,4,2,0,80,0,0
109396,-100,4,3,0,80,0,0
116669,-100,4,2,0,80,0,0
130760,-100,4,2,45,100,0,0
131215,-100,4,2,0,80,0,1
138033,-100,4,2,45,100,0,1
138260,-100,4,2,0,80,0,1
145760,-100,4,2,0,80,0,0
154851,-100,4,2,0,80,0,0
162124,-100,4,2,0,80,0,0
169396,-100,4,2,60,80,0,0
170306,-100,4,2,0,80,0,0
172578,-100,4,2,61,80,0,0
173033,-100,4,2,0,80,0,0
175760,-100,4,1,0,80,0,0
176215,-100,4,2,0,80,0,0
191669,-100,4,2,45,100,0,1
191896,-100,4,2,0,80,0,1
197124,-100,4,2,0,80,0,0
198033,-100,4,2,45,100,0,0
198487,-100,4,2,0,80,0,1
204851,-100,4,2,0,80,0,0

[Colours]
Combo1 : 252,255,128
Combo2 : 255,151,153
Combo3 : 255,205,151
Combo4 : 176,255,251
Combo5 : 146,222,141
SliderBorder : 246,172,207
SliderTrackOverride : 43,119,197

[HitObjects]
456,224,306,6,0,P|392:272|336:260,1,130,4|2,0:0|0:0,0:0:0:0:
234,231,1215,2,0,L|78:251,1,130,0|2,0:0|0:0,0:0:0:0:
144,140,2124,2,0,L|272:123,2,130,0|2|0,0:0|0:0|0:0,0:0:0:0:
88,128,3260,2,0,P|64:72|76:44,1,65,0|2,0:0|0:0,0:0:0:0:
172,28,3942,6,0,L|300:11,1,130,0|2,0:0|0:0,0:0:0:0:
404,68,4851,2,0,B|444:132|444:132|428:212,1,130,0|2,0:0|0:0,0:0:0:0:
396,232,5533,2,0,P|312:268|216:220,2,195,0|2|0,0:0|0:0|0:0,0:0:0:0:
433,185,7124,2,0,L|345:141,1,65
320,132,7578,6,0,B|280:48|280:48|236:32,1,130,4|8,0:0|0:0,0:0:0:0:
128,36,8487,2,0,B|93:48|93:48|53:132,1,130,2|8,0:0|0:0,0:0:0:0:
32,188,9169,1,0,0:0:0:0:
16,244,9396,6,0,P|80:252|168:212,1,130,2|8,0:0|0:0,0:0:0:0:
236,164,10306,1,2,0:0:0:0:
236,224,10533,2,0,L|236:308,1,65,0|8,0:0|0:0,0:0:0:0:
328,348,11215,6,0,P|387:370|449:353,1,130,2|8,0:0|0:0,0:0:0:0:
460,236,12124,2,0,P|400:213|338:230,1,130,2|8,0:0|0:0,0:0:0:0:
232,280,13033,6,0,P|108:220|264:164,1,390,2|4,0:0|0:0,0:0:0:0:
340,240,14851,6,0,B|388:204|388:204|364:112,1,130,4|0,0:0|0:0,0:0:0:0:
324,100,15533,1,2,0:0:0:0:
276,68,15760,2,0,P|220:56|204:60,1,65,2|0,0:0|0:0,0:0:0:0:
160,84,16215,2,0,P|124:128|120:156,1,65,10|0,0:0|0:0,0:0:0:0:
100,188,16669,6,0,L|140:344,1,130,2|8,0:0|0:0,0:0:0:0:
248,320,17578,2,0,L|320:308,1,65,2|0,0:0|0:0,0:0:0:0:
368,300,18033,2,0,L|440:288,1,65,10|0,0:0|0:0,0:0:0:0:
488,276,18487,2,0,P|504:204|484:132,1,130,2|8,0:0|0:0,0:0:0:0:
392,92,19396,6,0,L|352:8,2,65,2|0|10,0:0|0:0|0:0,0:0:0:0:
324,188,20306,2,0,P|264:204|200:168,1,130,0|8,0:0|0:0,0:0:0:0:
116,96,21215,1,2,0:0:0:0:
228,56,21669,1,6,0:0:0:0:
205,174,22124,6,0,P|185:290|201:310,1,130,2|8,0:0|0:0,0:0:0:0:
236,324,22806,1,2,0:0:0:0:
288,348,23033,2,0,L|372:336,1,65,2|0,0:0|0:0,0:0:0:0:
372,284,23487,2,0,L|436:274,1,65,10|0,0:0|0:0,0:0:0:0:
456,220,23942,2,0,P|448:128|420:92,1,130,2|8,0:0|0:0,0:0:0:0:
328,36,24851,6,0,P|280:40|252:64,1,65,2|0,0:0|0:0,0:0:0:0:
244,104,25306,2,0,P|214:117|182:116,1,65,10|0,0:0|0:0,0:0:0:0:
128,104,25760,2,0,P|60:108|24:160,1,130,2|8,0:0|0:0,0:0:0:0:
72,260,26669,6,0,L|40:324,2,65,2|0|10,0:0|0:0|0:0,0:0:0:0:
176,208,27578,2,0,P|252:188|324:220,1,130,2|0,0:0|0:0,0:0:0:0:
388,280,28487,1,8,0:0:0:0:
472,60,29396,6,0,P|408:48|348:88,1,130,4|2,0:0|0:0,0:0:0:0:
316,124,30078,1,0,0:0:0:0:
264,152,30306,2,0,L|180:156,1,65
140,156,30760,1,2,0:0:0:0:
48,228,31215,6,0,P|80:272|160:272,1,130,0|10,0:0|0:0,0:0:0:0:
208,260,31896,1,0,0:0:0:0:
264,240,32124,2,0,P|326:240|367:288,1,130,0|2,0:0|0:0,0:0:0:0:
448,204,33033,6,0,L|428:48,1,130,8|2,0:0|0:0,0:0:0:0:
326,23,33942,2,0,P|270:23|242:31,1,65
206,45,34396,1,2,0:0:0:0:
161,82,34624,1,0,0:0:0:0:
124,128,34851,6,0,P|108:192|136:272,1,130,2|8,0:0|0:0,0:0:0:0:
232,212,35760,1,0,0:0:0:0:
288,200,35987,1,0,0:0:0:0:
344,212,36215,2,0,P|388:232|408:256,1,65,2|0,0:0|0:0,0:0:0:0:
444,280,36669,6,0,L|472:132,1,130,8|2,0:0|0:0,0:0:0:0:
396,60,37578,2,0,L|320:108,1,65,2|0,0:0|0:0,0:0:0:0:
292,124,38033,2,0,L|228:68,1,65,8|0,0:0|0:0,0:0:0:0:
200,40,38487,2,0,P|140:40|76:104,1,130,0|2,0:0|0:0,0:0:0:0:
60,132,39169,1,0,0:0:0:0:
44,188,39396,2,0,L|56:268,1,65,2|0,0:0|0:0,0:0:0:0:
96,292,39851,1,8,0:0:0:0:
184,212,40306,6,0,P|268:184|320:220,1,130,2|0,0:0|0:0,0:0:0:0:
348,232,40987,1,0,0:0:0:0:
396,264,41215,2,0,P|440:264|472:248,1,65,2|2,0:0|0:0,0:0:0:0:
492,212,41669,2,0,L|480:76,2,130,2|0|0,0:0|0:0|0:0,0:0:0:0:
496,328,43033,1,2,0:0:0:0:
396,264,43487,1,2,0:0:0:0:
288,308,43942,6,0,P|208:316|164:284,1,130,12|0,0:0|0:0,0:0:0:0:
148,236,44624,1,0,0:0:0:0:
132,180,44851,2,0,L|136:24,1,130,2|2,0:0|0:0,0:0:0:0:
248,16,45760,6,0,P|310:17|384:68,1,130,8|0,0:0|0:0,0:0:0:0:
400,100,46442,1,0,0:0:0:0:
428,152,46669,2,0,L|428:240,1,65,2|0,0:0|0:0,0:0:0:0:
396,264,47124,1,2,0:0:0:0:
292,320,47578,6,0,B|224:360|156:284,1,130,8|0,0:0|0:0,0:0:0:0:
140,256,48260,1,0,0:0:0:0:
108,208,48487,1,2,0:0:0:0:
132,100,48942,1,2,0:0:0:0:
248,124,49396,6,0,P|348:128|392:96,2,130,8|0|2,0:0|0:0|0:0,0:0:0:0:
208,16,50760,1,2,0:0:0:0:
132,100,51215,6,0,P|100:144|96:184,1,65,8|0,0:0|0:0,0:0:0:0:
92,212,51669,2,0,P|124:288|188:316,1,130,2|2,0:0|0:0,0:0:0:0:
276,292,52578,1,0,0:0:0:0:
328,264,52806,1,0,0:0:0:0:
376,232,53033,6,0,P|384:192|324:112,1,130,2|0,0:0|0:0,0:0:0:0:
232,72,53942,1,0,0:0:0:0:
116,84,54396,2,0,L|92:144,1,65,8|0,0:0|0:0,0:0:0:0:
76,196,54851,6,0,P|108:252|196:268,1,130,2|0,0:0|0:0,0:0:0:0:
224,284,55533,1,2,0:0:0:0:
280,292,55760,2,0,L|428:268,1,130,2|2,0:0|0:0,0:0:0:0:
444,164,56669,6,0,P|456:92|456:80,2,65,8|0|8,0:0|0:0|0:0,0:0:0:0:
384,180,57351,2,8,L|300:196,1,65,8|10,0:0|0:0,0:0:0:0:
112,83,58487,6,0,P|52:95|28:175,1,130,4|0,0:0|0:0,0:0:0:0:
76,260,59396,2,0,P|124:276|168:268,1,65,0|2,0:0|0:0,0:0:0:0:
196,276,59851,2,0,P|228:273|257:260,1,65,2|2,0:0|0:0,0:0:0:0:
304,224,60306,6,0,L|312:80,1,130
404,24,61215,2,0,P|472:44|492:112,1,130,0|6,0:0|0:0,0:0:0:0:
416,180,62124,6,0,P|404:228|412:268,1,65,8|0,0:0|0:0,0:0:0:0:
412,300,62578,2,0,P|372:288|336:300,1,65,8|0,0:0|0:0,0:0:0:0:
296,312,63033,1,8,0:0:0:0:
191,260,63487,1,0,0:0:0:0:
108,344,63942,6,0,P|76:288|84:220,1,130,2|0,0:0|0:0,0:0:0:0:
160,136,64851,2,0,L|180:-16,1,130,2|0,0:0|0:0,0:0:0:0:
268,84,65760,6,0,L|248:236,1,130,8|2,0:0|0:0,0:0:0:0:
344,280,66669,2,0,L|364:128,1,130,8|2,0:0|0:0,0:0:0:0:
372,92,67351,1,0,0:0:0:0:
380,36,67578,1,8,0:0:0:0:
272,76,68033,1,2,0:0:0:0:
172,12,68487,1,8,0:0:0:0:
92,96,68942,1,2,0:0:0:0:
256,192,69396,12,0,70987,0:0:0:0:
348,120,72578,5,4,0:0:0:0:
304,228,73033,2,0,P|192:276|172:263,1,130,4|8,0:0|0:0,0:0:0:0:
117,194,73942,1,2,0:0:0:0:
108,136,74169,1,0,0:0:0:0:
128,80,74396,2,0,L|200:68,1,65,10|0,0:0|0:0,0:0:0:0:
248,60,74851,2,0,P|304:92|388:68,1,130,2|8,0:0|0:0,0:0:0:0:
468,36,75760,6,0,L|472:116,1,65,2|0,0:0|0:0,0:0:0:0:
440,148,76215,2,0,L|444:228,1,65,10|0,0:0|0:0,0:0:0:0:
412,260,76669,2,0,P|344:296|280:280,1,130,2|10,0:0|0:0,0:0:0:0:
216,208,77578,2,0,P|152:200|80:244,1,130,2|10,0:0|0:0,0:0:0:0:
44,260,78260,2,0,L|40:116,1,130,2|0,0:0|0:0,0:0:0:0:
56,72,78942,5,10,0:0:0:0:
160,24,79396,1,0,0:0:0:0:
228,116,79851,1,4,0:0:0:0:
284,128,80078,1,2,0:0:0:0:
340,144,80306,6,0,P|380:202|382:275,1,130,2|8,0:0|0:0,0:0:0:0:
306,346,81215,1,2,0:0:0:0:
257,314,81442,1,0,0:0:0:0:
208,288,81669,2,0,P|160:280|132:292,1,65,10|0,0:0|0:0,0:0:0:0:
92,296,82124,2,0,P|44:280|12:184,1,130,2|8,0:0|0:0,0:0:0:0:
48,104,83033,6,0,L|120:92,1,65,2|0,0:0|0:0,0:0:0:0:
164,124,83487,2,0,L|236:112,1,65,10|0,0:0|0:0,0:0:0:0:
268,156,83942,2,0,P|328:164|392:108,1,130,2|10,0:0|0:0,0:0:0:0:
476,56,84851,2,0,L|480:192,1,130,2|8,0:0|0:0,0:0:0:0:
416,284,85760,6,0,P|384:304|332:304,1,65,2|2,0:0|0:0,0:0:0:0:
304,288,86215,1,8,0:0:0:0:
248,184,86669,1,2,0:0:0:0:
132,172,87124,1,6,0:0:0:0:
92,212,87351,1,2,0:0:0:0:
100,268,87578,6,0,P|172:268|228:212,1,130,4|8,0:0|0:0,0:0:0:0:
248,184,88260,1,0,0:0:0:0:
292,148,88487,2,0,P|356:140|372:144,1,65,2|0,0:0|0:0,0:0:0:0:
404,148,88942,2,0,P|440:192|444:220,1,65,10|0,0:0|0:0,0:0:0:0:
448,256,89396,6,0,P|396:336|348:340,1,130,2|8,0:0|0:0,0:0:0:0:
260,292,90305,2,0,L|188:280,1,65,2|0,0:0|0:0,0:0:0:0:
140,296,90760,2,0,L|68:284,1,65,10|0,0:0|0:0,0:0:0:0:
20,296,91214,2,0,P|4:224|24:152,1,130,2|8,0:0|0:0,0:0:0:0:
112,100,92124,6,0,L|136:36,2,65,2|0|10,0:0|0:0|0:0,0:0:0:0:
188,188,93033,2,0,P|248:204|312:168,1,130,0|8,0:0|0:0,0:0:0:0:
396,96,93942,1,2,0:0:0:0:
288,56,94396,1,6,0:0:0:0:
307,174,94851,6,0,P|327:290|311:310,1,130,2|8,0:0|0:0,0:0:0:0:
276,324,95533,1,0,0:0:0:0:
224,348,95760,2,0,L|140:336,1,65,2|0,0:0|0:0,0:0:0:0:
140,284,96214,2,2,L|76:274,1,65,10|2,0:0|0:0,0:0:0:0:
56,220,96669,2,0,P|64:128|92:92,1,130,2|8,0:0|0:0,0:0:0:0:
184,36,97578,6,0,P|232:40|260:64,1,65,2|0,0:0|0:0,0:0:0:0:
268,104,98033,2,0,P|298:117|330:116,1,65,10|0,0:0|0:0,0:0:0:0:
384,104,98487,2,0,P|452:108|488:160,1,130,2|8,0:0|0:0,0:0:0:0:
440,260,99396,6,0,L|472:332,2,65,2|0|10,0:0|0:0|0:0,0:0:0:0:
336,208,100305,2,0,P|260:188|188:220,1,130,0|8,0:0|0:0,0:0:0:0:
164,236,100987,1,0,0:0:0:0:
120,276,101215,2,0,P|64:272|96:224,1,130,2|2,0:0|0:0,0:0:0:0:
120,112,102124,5,4,0:0:0:0:
136,284,109396,6,0,P|72:248|52:176,1,130,4|2,0:0|0:0,0:0:0:0:
68,136,110078,1,0,0:0:0:0:
88,80,110306,2,0,L|168:72,1,65,2|0,0:0|0:0,0:0:0:0:
196,112,110760,2,0,L|284:104,1,65,2|0,0:0|0:0,0:0:0:0:
312,76,111215,6,0,L|288:216,1,130,8|0,0:0|0:0,0:0:0:0:
244,240,111896,1,0,0:0:0:0:
196,272,112124,2,0,L|172:344,2,65,10|8|12,0:0|0:0|0:0,0:0:0:0:
148,164,113033,6,0,P|84:164|24:216,1,130,8|2,0:0|0:0,0:0:0:0:
12,256,113715,1,0,0:0:0:0:
24,312,113942,2,0,L|104:312,1,65,2|0,0:0|0:0,0:0:0:0:
131,272,114396,2,0,L|215:272,1,65,2|0,0:0|0:0,0:0:0:0:
224,220,114851,6,0,B|292:164|224:116|224:116|300:52|208:-8,1,260,2|0,0:0|0:0,0:0:0:0:
424,132,116669,6,0,P|484:144|508:224,1,130,4|0,0:0|0:0,0:0:0:0:
448,300,117578,2,0,P|400:316|356:308,1,65,0|2,0:0|0:0,0:0:0:0:
328,316,118033,2,0,P|295:313|266:300,1,65,2|2,0:0|0:0,0:0:0:0:
220,264,118488,6,0,L|212:120,1,130
120,64,119397,2,0,P|52:84|32:152,1,130,0|4,0:0|0:0,0:0:0:0:
108,220,120306,6,0,P|120:268|112:308,1,65,8|0,0:0|0:0,0:0:0:0:
112,340,120760,2,0,P|152:328|188:340,1,65,8|0,0:0|0:0,0:0:0:0:
228,352,121215,1,8,0:0:0:0:
333,300,121669,1,0,0:0:0:0:
416,384,122124,2,0,P|448:328|440:256,1,130,2|0,0:0|0:0,0:0:0:0:
380,164,123033,2,0,L|360:12,1,130,2|0,0:0|0:0,0:0:0:0:
268,104,123942,6,0,L|288:256,1,130,8|2,0:0|0:0,0:0:0:0:
196,308,124851,2,0,L|176:156,1,130,8|2,0:0|0:0,0:0:0:0:
168,120,125533,1,0,0:0:0:0:
160,64,125760,1,8,0:0:0:0:
268,104,126215,1,2,0:0:0:0:
368,40,126669,1,8,0:0:0:0:
448,124,127124,1,2,0:0:0:0:
256,192,127578,12,0,129169,0:0:0:0:
164,120,130760,5,4,0:0:0:0:
208,228,131215,2,0,P|320:276|340:263,1,130,4|8,0:0|0:0,0:0:0:0:
395,194,132124,1,2,0:0:0:0:
404,136,132351,1,0,0:0:0:0:
384,80,132578,2,0,L|312:68,1,65,10|0,0:0|0:0,0:0:0:0:
264,60,133033,2,0,P|208:92|124:68,1,130,2|8,0:0|0:0,0:0:0:0:
44,36,133942,6,0,L|40:116,1,65,2|0,0:0|0:0,0:0:0:0:
72,148,134397,2,0,L|68:228,1,65,10|0,0:0|0:0,0:0:0:0:
100,260,134851,2,0,P|168:296|232:280,1,130,2|10,0:0|0:0,0:0:0:0:
296,208,135760,2,0,P|360:200|432:244,1,130,2|10,0:0|0:0,0:0:0:0:
468,260,136442,2,0,L|472:116,1,130,2|0,0:0|0:0,0:0:0:0:
456,72,137124,5,10,0:0:0:0:
352,24,137578,1,0,0:0:0:0:
284,116,138033,1,4,0:0:0:0:
228,128,138260,1,2,0:0:0:0:
172,144,138488,6,0,P|132:202|130:275,1,130,2|8,0:0|0:0,0:0:0:0:
206,346,139397,1,2,0:0:0:0:
255,314,139624,1,0,0:0:0:0:
304,288,139851,2,0,P|352:280|380:292,1,65,10|0,0:0|0:0,0:0:0:0:
420,296,140306,2,0,P|468:280|500:184,1,130,2|8,0:0|0:0,0:0:0:0:
464,104,141215,6,0,L|392:92,1,65,2|0,0:0|0:0,0:0:0:0:
348,124,141669,2,0,L|276:112,1,65,10|0,0:0|0:0,0:0:0:0:
244,156,142124,2,0,P|184:164|120:108,1,130,2|10,0:0|0:0,0:0:0:0:
36,56,143033,2,0,L|32:192,1,130,2|8,0:0|0:0,0:0:0:0:
96,284,143942,6,0,P|128:304|180:304,1,65,2|2,0:0|0:0,0:0:0:0:
208,288,144397,1,8,0:0:0:0:
288,204,144851,2,0,P|352:180|416:208,1,130,2|8,0:0|0:0,0:0:0:0:
452,240,145533,1,2,0:0:0:0:
256,192,145760,12,4,147578,0:0:0:0:
64,248,154851,6,0,P|124:276|184:248,1,130,2|0,0:0|0:0,0:0:0:0:
228,220,155533,1,0,0:0:0:0:
284,200,155760,2,0,L|368:192,1,65,2|0,0:0|0:0,0:0:0:0:
396,156,156215,1,2,0:0:0:0:
440,120,156442,1,0,0:0:0:0:
476,68,156669,6,0,P|436:32|404:24,1,65,2|0,0:0|0:0,0:0:0:0:
368,28,157124,2,0,P|316:44|304:60,1,65,2|0,0:0|0:0,0:0:0:0:
264,88,157578,2,0,P|204:96|180:88,2,65,0|2|2,0:0|0:0|0:0,0:0:0:0:
256,192,158487,12,2,160306,0:0:0:0:
216,124,161669,5,4,0:0:0:0:
320,60,162124,6,0,P|392:80|428:152,1,130,2|8,0:0|0:0,0:0:0:0:
432,180,162806,1,0,0:0:0:0:
408,232,163033,2,0,P|368:252|328:252,1,65,2|0,0:0|0:0,0:0:0:0:
288,252,163487,1,10,0:0:0:0:
164,220,163942,6,8,L|152:76,1,130,0|8,0:0|0:0,0:0:0:0:
188,44,164624,1,0,0:0:0:0:
244,56,164851,2,0,P|296:64|332:56,2,65,2|2|10,0:0|0:0|0:0,0:0:0:0:
128,36,165760,6,0,P|56:76|40:148,1,130,2|8,0:0|0:0,0:0:0:0:
48,172,166442,1,0,0:0:0:0:
84,220,166669,2,0,L|152:228,1,65,2|0,0:0|0:0,0:0:0:0:
188,184,167124,2,0,L|252:176,1,65,10|0,0:0|0:0,0:0:0:0:
300,140,167578,6,0,B|352:100|352:100|384:168,1,130,2|8,0:0|0:0,0:0:0:0:
324,260,168487,1,0,0:0:0:0:
296,312,168715,1,0,0:0:0:0:
264,360,168942,2,0,B|228:360|228:360|228:332|228:332|200:332|200:332|200:288,1,130,0|4,0:0|0:0,0:0:0:0:
4,168,170306,6,0,L|0:72,1,65,2|0,0:0|0:0,0:0:0:0:
52,76,170760,2,0,L|112:148,1,65,2|0,0:0|0:0,0:0:0:0:
152,132,171215,2,0,L|148:36,1,65,2|0,0:0|0:0,0:0:0:0:
196,32,171669,2,0,L|256:104,1,65,2|2,0:0|0:0,0:0:0:0:
288,116,172124,2,0,P|352:128|412:80,1,130,2|4,0:0|0:0,0:0:0:0:
496,4,173033,6,0,L|492:140,1,130,6|8,0:0|0:0,0:0:0:0:
488,192,173715,1,0,0:0:0:0:
480,252,173942,2,0,P|436:268|348:244,1,130,2|8,0:0|0:0,0:0:0:0:
308,220,174624,1,0,0:0:0:0:
256,192,174851,2,0,P|236:200|204:236,2,65,2|0|10,0:0|0:0|0:0,0:0:0:0:
344,112,175760,6,6,P|332:56|308:96,1,130,2|2,1:0|1:0,0:0:0:0:
172,160,183942,6,0,P|232:136|308:172,1,130,2|8,0:0|0:0,0:0:0:0:
308,272,184851,2,0,L|244:287,1,65,2|0,0:0|0:0,0:0:0:0:
188,296,185306,2,0,L|124:280,1,65,10|0,0:0|0:0,0:0:0:0:
68,264,185760,6,0,P|32:204|44:144,1,130,2|8,0:0|0:0,0:0:0:0:
124,64,186669,1,2,0:0:0:0:
168,104,186896,1,0,0:0:0:0:
208,144,187124,1,10,0:0:0:0:
296,224,187578,6,0,P|352:244|436:220,1,130,2|8,0:0|0:0,0:0:0:0:
364,124,188487,2,0,L|368:40,2,65,2|0|8,0:0|0:0|0:0,0:0:0:0:
256,192,189396,12,0,190987,0:0:0:0:
296,152,191669,5,4,0:0:0:0:
264,200,191896,1,0,0:0:0:0:
228,244,192124,2,0,P|164:252|148:248,1,65,2|0,0:0|0:0,0:0:0:0:
108,236,192579,2,0,P|72:192|68:164,1,65,10|0,0:0|0:0,0:0:0:0:
64,128,193033,6,0,P|116:48|164:44,1,130,2|8,0:0|0:0,0:0:0:0:
252,92,193942,2,0,L|324:104,1,65,2|0,0:0|0:0,0:0:0:0:
372,88,194397,2,0,L|444:100,1,65,10|0,0:0|0:0,0:0:0:0:
492,88,194851,2,0,P|508:160|488:232,1,130,2|8,0:0|0:0,0:0:0:0:
400,284,195760,6,0,L|376:352,2,65,2|0|10,0:0|0:0|0:0,0:0:0:0:
324,196,196670,2,0,P|264:180|200:216,1,130,0|8,0:0|0:0,0:0:0:0:
116,288,197579,1,2,0:0:0:0:
228,328,198033,1,6,0:0:0:0:
205,210,198488,6,0,P|185:94|201:74,1,130,2|8,0:0|0:0,0:0:0:0:
236,60,199169,1,0,0:0:0:0:
288,36,199397,2,0,L|372:48,1,65,2|0,0:0|0:0,0:0:0:0:
372,100,199851,2,0,L|436:110,1,65,10|0,0:0|0:0,0:0:0:0:
456,164,200306,2,0,P|448:256|420:292,1,130,2|8,0:0|0:0,0:0:0:0:
328,348,201215,6,0,P|280:344|252:320,1,65,2|0,0:0|0:0,0:0:0:0:
244,280,201670,2,0,P|214:267|182:268,1,65,10|0,0:0|0:0,0:0:0:0:
128,280,202124,2,0,P|60:276|24:224,1,130,2|8,0:0|0:0,0:0:0:0:
72,124,203033,6,0,L|40:56,2,65,2|0|10,0:0|0:0|0:0,0:0:0:0:
176,176,203942,2,0,P|252:196|324:164,1,130,0|8,0:0|0:0,0:0:0:0:
348,148,204624,1,0,0:0:0:0:
392,108,204852,2,2,P|448:112|416:160,1,130,2|2,0:0|0:0,1:0:0:0:
