osu file format v14

[General]
AudioFilename: audio.mp3
AudioLeadIn: 0
PreviewTime: 14624
Countdown: 0
SampleSet: None
StackLeniency: 0.5
Mode: 0
LetterboxInBreaks: 0
WidescreenStoryboard: 0

[Editor]
DistanceSpacing: 0.7
BeatDivisor: 8
GridSize: 4
TimelineZoom: 1.6

[Metadata]
Title:LIKEY
TitleUnicode:LIKEY
Artist:TWICE
ArtistUnicode:트와이스
Creator:CharmCaster
Version:Insane
Source:
Tags:TWICETAGRAM 1ST ALBUM JYP Entertainment Nayeon Jeongyeon Momo Sana Jihyo Mina Dahyun Chaeyoung Tzuyu 나연 정연 모모 사나 지효 미나 다현 채영 쯔위 kpop cosmiccc leviza sing simuzax 트와이스 라이키
BeatmapID:1456372
BeatmapSetID:688158

[Difficulty]
HPDrainRate:6
CircleSize:4
OverallDifficulty:6.7
ApproachRate:9
SliderMultiplier:2.2
SliderTickRate:1

[Events]
//Background and Video events
Video,-7888,"LIKEY3.avi"
0,0,"better likey.jpg",0,0
//Break Periods
2,147778,154251
//Storyboard Layer 0 (Background)
//Storyboard Layer 1 (Fail)
//Storyboard Layer 2 (Pass)
//Storyboard Layer 3 (Foreground)
//Storyboard Sound Samples

[TimingPoints]
306,454.545454545455,4,2,0,80,1,0
760,-133.333333333333,4,2,0,80,0,0
14396,-100,4,2,45,100,0,0
14851,-100,4,2,0,80,0,1
19965,-200,4,2,0,80,0,1
20760,-200,4,2,0,80,0,0
21215,-200,4,1,0,80,0,0
21669,-200,4,2,45,100,0,0
21896,-200,4,2,0,80,0,0
22124,-100,4,2,0,80,0,1
27237,-200,4,2,0,80,0,1
28487,-200,4,2,0,80,0,0
29396,-133.333333333333,4,3,0,80,0,0
30078,-200,4,3,0,80,0,0
30760,-133.333333333333,4,3,0,80,0,0
33715,-200,4,3,0,80,0,0
34396,-133.333333333333,4,3,0,80,0,0
57806,-200,4,2,0,80,0,0
58487,-133.333333333333,4,2,0,80,0,0
58601,-133.333333333333,4,2,0,10,0,0
58715,-133.333333333333,4,2,0,80,0,0
58828,-133.333333333333,4,2,0,10,0,0
58942,-133.333333333333,4,2,0,80,0,0
60419,-133.333333333333,4,2,0,10,0,0
60533,-133.333333333333,4,2,0,80,0,0
60646,-133.333333333333,4,2,0,10,0,0
60760,-133.333333333333,4,2,0,80,0,0
61896,-133.333333333333,4,2,0,20,0,0
62124,-133.333333333333,4,2,0,80,0,0
64624,-200,4,2,0,80,0,0
65760,-133.333333333333,4,2,0,80,0,0
70987,-500,4,2,0,80,0,0
71669,-200,4,2,0,80,0,0
72578,-500,4,2,45,100,0,0
73033,-100,4,2,0,80,0,1
79851,-100,4,2,45,100,0,1
80078,-100,4,2,0,80,0,1
87124,-100,4,2,45,100,0,0
87237,-100,4,2,0,80,0,0
87578,-100,4,2,0,80,0,1
92692,-200,4,2,0,80,0,1
93487,-200,4,2,0,80,0,0
93942,-200,4,1,0,80,0,0
94396,-200,4,2,45,100,0,0
94624,-200,4,2,0,80,0,0
94851,-100,4,2,0,80,0,1
99965,-200,4,2,0,80,0,1
101215,-200,4,1,0,80,0,0
101896,-200,4,3,0,80,0,0
102124,-133.333333333333,4,3,0,80,0,0
108487,-100,4,3,0,80,0,0
108828,-100,4,3,0,10,0,0
108942,-66.6666666666667,4,2,0,80,0,0
109283,-66.6666666666667,4,3,0,10,0,0
109396,-133.333333333333,4,3,0,80,0,0
115987,-200,4,2,0,80,0,0
116669,-133.333333333333,4,2,0,80,0,0
116783,-133.333333333333,4,2,0,10,0,0
116896,-133.333333333333,4,2,0,80,0,0
117010,-133.333333333333,4,2,0,10,0,0
117124,-133.333333333333,4,2,0,80,0,0
118601,-133.333333333333,4,2,0,10,0,0
118715,-133.333333333333,4,2,0,80,0,0
118828,-133.333333333333,4,2,0,10,0,0
118942,-133.333333333333,4,2,0,80,0,0
120078,-133.333333333333,4,2,0,20,0,0
120306,-133.333333333333,4,2,0,80,0,0
122806,-200,4,2,0,80,0,0
123942,-133.333333333333,4,2,0,80,0,0
129169,-500,4,2,0,80,0,0
129851,-200,4,2,0,80,0,0
130760,-500,4,2,45,100,0,0
131215,-100,4,2,0,80,0,1
138033,-100,4,2,45,100,0,1
138260,-100,4,2,0,80,0,1
145760,-133.333333333333,4,2,0,80,0,0
162124,-100,4,2,0,80,0,0
169396,-200,4,2,60,80,0,0
169851,-200,4,2,0,80,0,0
170306,-200,4,2,0,80,0,0
171215,-133.333333333333,4,2,0,80,0,0
171669,-100,4,2,0,80,0,0
172124,-80,4,2,0,80,0,0
172578,-200,4,2,61,80,0,0
173033,-100,4,2,0,80,0,0
175760,-100,4,1,0,80,0,0
176101,-100,4,2,0,80,0,0
176215,-100,4,1,0,80,0,0
176556,-100,4,2,0,80,0,0
191669,-100,4,2,45,100,0,1
191896,-100,4,2,0,80,0,1
196328,-200,4,2,0,80,0,1
197124,-200,4,2,0,80,0,0
197578,-200,4,1,0,80,0,0
198033,-200,4,2,45,100,0,0
198260,-200,4,2,0,80,0,0
198487,-100,4,2,0,80,0,1
203601,-200,4,2,0,80,0,1
204851,-66.6666666666667,4,2,0,80,0,0
205760,-100,4,2,0,80,0,0

[Colours]
Combo1 : 252,255,128
Combo2 : 255,151,153
Combo3 : 255,205,151
Combo4 : 176,255,251
Combo5 : 146,222,141
SliderBorder : 246,172,207
SliderTrackOverride : 43,119,197

[HitObjects]
328,256,306,5,4,0:0:0:0:
264,120,533,1,0,0:0:0:0:
168,228,760,2,0,P|104:228|44:192,2,123.750004720688,2|2|2,0:0|0:0|0:0,0:0:0:0:
296,356,1669,2,0,L|272:240,1,82.5000031471254,2|0,0:0|0:0,0:0:0:0:
460,184,2124,6,0,P|468:256|456:296,1,82.5000031471254,2|0,0:0|0:0,0:0:0:0:
364,104,2578,1,2,0:0:0:0:
212,256,2919,2,0,L|52:264,1,123.750004720688,2|2,0:0|0:0,0:0:0:0:
176,152,3487,2,0,L|258:149,1,82.5000031471254,2|0,0:0|0:0,0:0:0:0:
56,16,3942,6,0,B|32:84|32:84|56:184,1,165.000006294251,2|2,0:0|0:0,0:0:0:0:
200,88,4737,1,2,0:0:0:0:
353,118,5078,2,0,L|353:234,1,82.5000031471254,2|2,0:0|0:0,0:0:0:0:
440,328,5533,2,0,P|504:336|448:264,1,206.250007867813,2|0,0:0|0:0,0:0:0:0:
384,276,6215,2,0,P|312:284|380:216,1,206.250007867813,2|0,0:0|0:0,0:0:0:0:
356,244,6896,1,2,0:0:0:0:
456,112,7124,1,2,0:0:0:0:
464,300,7351,1,2,0:0:0:0:
360,100,7578,6,0,L|360:4,1,82.5000031471254,6|0,0:0|0:0,0:0:0:0:
204,80,8033,2,0,B|188:124|156:144|156:144|188:160|196:200,1,123.750004720688,10|0,0:0|0:0,0:0:0:0:
236,232,8487,2,0,L|236:328,1,82.5000031471254,2|2,0:0|0:0,0:0:0:0:
76,348,8942,2,0,L|76:232,1,82.5000031471254,10|0,0:0|0:0,0:0:0:0:
156,140,9396,6,0,B|216:120|216:120|292:144,1,123.750004720688,2|0,0:0|0:0,0:0:0:0:
340,180,9851,2,0,P|396:172|436:116,1,123.750004720688,10|2,0:0|0:0,0:0:0:0:
296,60,10533,1,2,0:0:0:0:
248,204,10760,2,0,P|280:268|364:280,1,123.750004720688,10|0,0:0|0:0,0:0:0:0:
404,288,11215,6,0,L|500:280,1,82.5000031471254,2|0,0:0|0:0,0:0:0:0:
512,112,11669,2,0,L|416:120,1,82.5000031471254,10|0,0:0|0:0,0:0:0:0:
248,204,12124,5,2,0:0:0:0:
420,208,12351,1,2,0:0:0:0:
336,107,12578,1,10,0:0:0:0:
311,302,12806,1,2,0:0:0:0:
256,192,13033,12,4,14396,0:0:0:0:
80,172,14851,6,0,P|112:120|156:112,1,110,4|0,0:0|0:0,0:0:0:0:
272,196,15306,1,8,0:0:0:0:
296,56,15533,1,0,0:0:0:0:
272,196,15760,6,0,L|336:196,1,55,2|0,0:0|0:0,0:0:0:0:
296,280,15987,2,0,L|241:280,1,55
136,208,16215,2,0,L|191:208,1,55,10|0,0:0|0:0,0:0:0:0:
156,284,16442,2,0,L|101:284,1,55
44,216,16669,5,2,0:0:0:0:
44,216,16896,1,0,0:0:0:0:
148,80,17124,1,8,0:0:0:0:
272,196,17351,1,0,0:0:0:0:
156,284,17578,6,0,P|120:244|120:212,1,55,2|0,0:0|0:0,0:0:0:0:
184,144,17806,2,0,P|192:172|188:204,1,55
96,156,18033,2,0,P|89:130|91:103,1,55,10|0,0:0|0:0,0:0:0:0:
136,8,18260,2,0,P|156:32|168:72,1,55
184,144,18487,5,2,0:0:0:0:
184,144,18715,1,0,0:0:0:0:
48,252,18942,1,8,0:0:0:0:
240,272,19169,1,0,0:0:0:0:
384,84,19396,5,2,0:0:0:0:
435,102,19509,1,0,0:0:0:0:
472,142,19623,1,2,0:0:0:0:
488,194,19736,1,0,0:0:0:0:
479,248,19850,1,10,0:0:0:0:
456,296,19965,6,0,P|400:344|320:336,1,137.5,0|8,0:0|0:0,0:0:0:0:
320,336,20646,1,8,0:0:0:0:
304,328,20760,1,8,0:0:0:0:
288,320,20874,1,0,0:0:0:0:
80,244,21101,1,0,0:0:0:0:
80,244,21215,2,0,P|56:276|104:272,1,110,2|6,0:0|0:0,0:0:0:0:
184,216,21896,1,0,0:0:0:0:
284,100,22124,6,0,P|328:64|420:93,1,110,2|0,0:0|0:0,0:0:0:0:
512,168,22578,1,8,0:0:0:0:
356,148,22806,1,0,0:0:0:0:
222,254,23033,6,0,L|174:206,1,55,2|0,0:0|0:0,0:0:0:0:
40,192,23260,2,0,L|78:230,1,55
168,112,23487,2,0,L|120:160,1,55,10|0,0:0|0:0,0:0:0:0:
48,100,23714,2,0,L|86:61,1,55
184,24,23942,5,2,0:0:0:0:
184,24,24169,1,0,0:0:0:0:
320,104,24396,1,8,0:0:0:0:
160,196,24624,1,0,0:0:0:0:
344,272,24851,6,0,P|370:264|393:250,1,55,2|0,0:0|0:0,0:0:0:0:
452,172,25078,2,0,P|426:162|399:160,1,55
264,180,25306,2,0,P|289:189|316:191,1,55,10|0,0:0|0:0,0:0:0:0:
369,82,25533,2,0,P|342:89|319:103,1,55
264,180,25760,5,2,0:0:0:0:
264,180,25987,1,0,0:0:0:0:
168,320,26215,1,8,0:0:0:0:
72,180,26442,1,0,0:0:0:0:
328,68,26669,5,2,0:0:0:0:
382,67,26782,1,0,0:0:0:0:
431,90,26896,1,2,0:0:0:0:
466,133,27009,1,0,0:0:0:0:
479,186,27123,1,10,0:0:0:0:
480,240,27237,6,0,P|440:320|380:336,1,137.5
352,216,28033,1,8,0:0:0:0:
256,292,28260,1,0,0:0:0:0:
256,292,28374,1,0,0:0:0:0:
256,292,28487,6,0,P|208:312|192:308,1,55,2|0,0:0|0:0,0:0:0:0:
137,282,28828,2,0,P|117:254|117:226,1,55,2|0,0:0|0:0,0:0:0:0:
137,160,29169,1,2,0:0:0:0:
137,160,29283,1,0,0:0:0:0:
137,160,29396,6,0,L|225:120,1,82.5000031471254,6|0,0:0|0:0,0:0:0:0:
392,168,29851,1,0,0:0:0:0:
137,160,30078,6,0,P|97:164|69:156,1,55,2|0,0:0|0:0,0:0:0:0:
114,46,30533,1,0,0:0:0:0:
9,166,30760,2,0,L|2:273,1,82.5000031471254,2|2,0:0|0:0,0:0:0:0:
156,260,31215,1,2,0:0:0:0:
392,168,31669,2,0,L|424:176,6,20.6250007867813
352,152,32124,6,0,P|316:104|328:52,1,82.5000031471254,8|0,0:0|0:0,0:0:0:0:
312,4,32465,2,0,L|220:36,1,82.5000031471254,8|0,0:0|0:0,0:0:0:0:
160,64,32806,1,8,0:0:0:0:
140,108,32919,1,0,0:0:0:0:
144,152,33033,6,0,L|160:232,1,82.5000031471254,10|0,0:0|0:0,0:0:0:0:
288,252,33487,1,0,0:0:0:0:
144,152,33715,6,0,P|100:144|80:136,1,55,2|0,0:0|0:0,0:0:0:0:
60,16,34169,1,0,0:0:0:0:
240,76,34396,2,0,L|248:184,1,82.5,2|2,0:0|0:0,0:0:0:0:
372,208,34851,1,2,0:0:0:0:
160,308,35306,2,0,L|128:316,6,20.6250007867813
208,324,35760,6,0,P|264:340|300:328,1,82.5000031471254,8|0,0:0|0:0,0:0:0:0:
332,312,36101,1,8,0:0:0:0:
464,228,36328,1,8,0:0:0:0:
464,228,36442,2,0,L|464:172,1,41.2500015735627,8|0,0:0|0:0,0:0:0:0:
432,112,36669,6,0,P|380:112|340:156,1,82.5000031471254,12|0,0:0|0:0,0:0:0:0:
252,236,37124,1,2,0:0:0:0:
96,172,37351,2,0,P|88:136|100:84,1,82.5000031471254
172,64,37692,2,0,P|188:128|174:188,1,123.750004720688,0|2,0:0|0:0,0:0:0:0:
132,244,38146,1,0,0:0:0:0:
132,244,38260,1,2,0:0:0:0:
248,308,38487,6,0,B|280:296|316:316|316:316|320:288|320:288|360:308|392:272,1,165.000006294251,0|2,0:0|0:0,0:0:0:0:
395,229,39056,2,0,L|435:225,6,20.6250007867813
176,183,39624,5,8,0:0:0:0:
279,85,39851,1,2,0:0:0:0:
279,85,39965,2,0,P|323:77|375:117,1,82.5000031471254,8|0,0:0|0:0,0:0:0:0:
403,153,40306,2,0,P|411:201|387:237,1,82.5000031471254,8|0,0:0|0:0,0:0:0:0:
280,264,40760,1,2,0:0:0:0:
403,153,40987,1,0,0:0:0:0:
148,104,41215,1,0,0:0:0:0:
288,184,41442,1,0,0:0:0:0:
168,20,41669,6,0,P|80:49|64:100,1,123.750004720688,2|0,0:0|0:0,0:0:0:0:
64,148,42124,2,0,B|96:180|124:260|24:312|4:204|48:188|128:192|148:224,1,247.500009441376,2|0,0:0|0:0,0:0:0:0:
300,280,43033,6,0,P|368:280|400:244,1,82.5000031471254,2|0,0:0|0:0,0:0:0:0:
436,224,43374,2,0,P|460:148|444:120,1,82.5000031471254,2|0,0:0|0:0,0:0:0:0:
424,84,43715,1,2,0:0:0:0:
224,72,43942,6,0,B|184:144|184:144|232:228,1,165.000006294251,12|0,0:0|0:0,0:0:0:0:
348,140,44624,1,0,0:0:0:0:
192,304,44851,2,0,P|136:296|108:264,1,82.5000031471254,2|0,0:0|0:0,0:0:0:0:
64,224,45192,2,0,P|48:184|52:136,1,82.5000031471254,2|0,0:0|0:0,0:0:0:0:
88,72,45533,1,2,0:0:0:0:
348,140,45760,6,0,B|352:204|352:204|292:256,2,123.750004720688,8|8|8,0:0|0:0|0:0,0:0:0:0:
304,80,46556,1,0,0:0:0:0:
304,80,46669,2,0,P|256:72|212:84,1,82.5000031471254,2|0,0:0|0:0,0:0:0:0:
156,116,47010,2,0,P|136:156|148:212,1,82.5000031471254,2|0,0:0|0:0,0:0:0:0:
188,252,47351,1,2,0:0:0:0:
352,312,47578,6,0,B|392:320|392:320|456:288,1,82.5000031471254,8|0,0:0|0:0,0:0:0:0:
500,192,48033,1,2,0:0:0:0:
376,144,48260,1,0,0:0:0:0:
140,192,48487,2,0,P|64:168|88:80,1,165.000006294251,2|0,0:0|0:0,0:0:0:0:
208,80,49169,2,0,B|256:136|256:136|232:256,2,165.000006294251,0|8|8,0:0|0:0|0:0,0:0:0:0:
376,144,50306,6,0,P|428:144|464:124,1,82.5000031471254,2|0,0:0|0:0,0:0:0:0:
272,56,50760,2,0,L|252:152,1,82.5000031471254,2|0,0:0|0:0,0:0:0:0:
128,240,51215,1,8,0:0:0:0:
148,72,51442,1,2,0:0:0:0:
324,208,51669,1,8,0:0:0:0:
324,208,51783,2,0,L|376:212,1,41.2500015735627,2|0,0:0|0:0,0:0:0:0:
408,212,52010,1,0,0:0:0:0:
448,216,52124,1,0,0:0:0:0:
208,144,52351,5,8,0:0:0:0:
208,188,52465,1,0,0:0:0:0:
204,236,52578,2,0,P|172:284|144:296,1,82.5000031471254,8|0,0:0|0:0,0:0:0:0:
120,96,53033,2,0,L|204:92,1,82.5000031471254,2|2,0:0|0:0,0:0:0:0:
352,152,53487,1,8,0:0:0:0:
352,152,53601,1,8,0:0:0:0:
52,164,53828,2,0,P|30:65|104:0,1,206.250007867813,0|2,0:0|0:0,0:0:0:0:
120,96,54624,1,0,0:0:0:0:
424,200,54851,6,0,L|416:288,1,82.5000031471254,8|0,0:0|0:0,0:0:0:0:
276,332,55306,2,0,L|284:244,1,82.5000031471254,0|8,0:0|0:0,0:0:0:0:
232,192,55646,2,0,P|184:180|132:192,1,82.5000031471254,0|8,0:0|0:0,0:0:0:0:
72,212,55987,2,0,L|88:104,1,82.5000031471254,0|8,0:0|0:0,0:0:0:0:
172,40,56442,1,0,0:0:0:0:
328,144,56669,6,0,P|384:156|436:140,1,82.5000031471254,2|0,0:0|0:0,0:0:0:0:
484,120,57010,2,0,L|480:216,1,82.5000031471254,2|0,0:0|0:0,0:0:0:0:
432,264,57351,1,2,0:0:0:0:
264,104,57578,1,8,0:0:0:0:
248,100,57806,6,0,L|184:112,2,55,2|2|2,0:0|0:0|0:0,0:0:0:0:
408,152,58487,6,0,P|432:184|448:216,1,41.2500015735627,6|0,0:0|0:0,0:0:0:0:
408,152,58715,2,0,P|432:184|448:216,1,41.2500015735627,2|0,0:0|0:0,0:0:0:0:
407,151,58942,2,0,P|442:224|418:301,1,165.000006294251,2|0,0:0|0:0,0:0:0:0:
296,224,59624,1,2,0:0:0:0:
180,320,59851,1,2,0:0:0:0:
284,136,60078,1,2,0:0:0:0:
332,300,60306,6,0,P|312:304|280:300,1,41.2500015735627,2|0,0:0|0:0,0:0:0:0:
332,300,60533,2,0,P|312:304|280:300,1,41.2500015735627,2|0,0:0|0:0,0:0:0:0:
331,300,60760,2,0,P|252:289|211:221,1,165.000006294251,2|0,0:0|0:0,0:0:0:0:
244,64,61442,1,2,0:0:0:0:
272,56,61556,1,0,0:0:0:0:
300,48,61669,2,0,L|388:36,1,82.5000031471254,4|0,0:0|0:0,0:0:0:0:
148,176,62124,6,0,L|60:188,1,82.5000031471254,8|0,0:0|0:0,0:0:0:0:
332,300,62578,2,0,L|420:288,1,82.5000031471254,8|0,0:0|0:0,0:0:0:0:
244,240,63033,1,8,0:0:0:0:
323,63,63487,1,2,0:0:0:0:
323,63,63715,2,0,P|372:72|288:124,1,247.500009441376,2|0,0:0|0:0,0:0:0:0:
184,96,64624,6,0,P|159:141|207:129,1,110,0|2,0:0|0:0,0:0:0:0:
248,200,65192,1,2,0:0:0:0:
248,200,65306,2,0,P|252:252|244:276,1,55,2|2,0:0|0:0,0:0:0:0:
144,332,65760,5,10,0:0:0:0:
348,272,65987,1,2,0:0:0:0:
152,180,66215,1,2,0:0:0:0:
288,344,66442,1,0,0:0:0:0:
320,140,66669,5,8,0:0:0:0:
252,256,66896,1,2,0:0:0:0:
252,256,67010,1,0,0:0:0:0:
252,256,67124,1,2,0:0:0:0:
376,256,67351,1,2,0:0:0:0:
224,164,67578,5,10,0:0:0:0:
456,200,67806,1,2,0:0:0:0:
340,44,68033,1,2,0:0:0:0:
252,256,68260,1,0,0:0:0:0:
400,120,68487,5,8,0:0:0:0:
200,184,68715,1,2,0:0:0:0:
463,225,68942,1,2,0:0:0:0:
280,140,69169,1,2,0:0:0:0:
244,348,69396,5,10,0:0:0:0:
283,358,69509,1,0,0:0:0:0:
324,358,69623,1,2,0:0:0:0:
364,348,69736,1,0,0:0:0:0:
400,328,69850,1,10,0:0:0:0:
430,300,69964,1,0,0:0:0:0:
451,264,70077,1,2,0:0:0:0:
463,225,70191,1,0,0:0:0:0:
464,184,70305,5,10,0:0:0:0:
454,144,70418,1,0,0:0:0:0:
435,107,70532,1,0,0:0:0:0:
407,77,70646,1,0,0:0:0:0:
373,55,70759,1,10,0:0:0:0:
333,43,70873,1,0,0:0:0:0:
292,41,70987,5,2,0:0:0:0:
196,96,71669,2,0,P|152:100|192:112,1,110,2|2,0:0|0:0,0:0:0:0:
224,216,72578,1,4,0:0:0:0:
256,200,72806,1,0,0:0:0:0:
284,184,73033,6,0,P|296:260|292:300,1,110,6|0,0:0|0:0,0:0:0:0:
128,352,73487,2,0,P|126:297|137:243,1,110,10|0,0:0|0:0,0:0:0:0:
220,128,73942,1,2,0:0:0:0:
88,120,74169,1,0,0:0:0:0:
252,248,74396,1,10,0:0:0:0:
264,32,74624,1,2,0:0:0:0:
264,32,74737,6,0,P|316:36|376:72,1,110,2|0,0:0|0:0,0:0:0:0:
396,136,75078,2,0,L|384:260,1,110,2|8,0:0|0:0,0:0:0:0:
224,304,75533,1,0,0:0:0:0:
180,276,75646,1,0,0:0:0:0:
140,248,75760,2,0,L|136:160,1,55,2|0,0:0|0:0,0:0:0:0:
49,157,75987,2,0,L|52:212,1,55,2|0,0:0|0:0,0:0:0:0:
128,108,76215,2,0,L|124:20,1,55,10|0,0:0|0:0,0:0:0:0:
37,9,76442,2,0,L|40:64,1,55,2|0,0:0|0:0,0:0:0:0:
137,192,76669,6,0,P|232:201|216:108,1,220,2|10,0:0|0:0,0:0:0:0:
84,34,77351,1,0,0:0:0:0:
84,34,77465,2,0,P|58:43|39:63,1,55,0|2,0:0|0:0,0:0:0:0:
92,126,77692,1,0,0:0:0:0:
92,126,77806,2,0,P|67:136|47:156,1,55
55,235,78033,6,0,P|86:281|160:292,1,110,10|2,0:0|0:0,0:0:0:0:
232,164,78487,1,0,0:0:0:0:
356,244,78715,1,2,0:0:0:0:
404,236,78828,1,0,0:0:0:0:
452,228,78942,2,0,P|480:188|468:116,1,110,10|0,0:0|0:0,0:0:0:0:
336,32,79396,1,0,0:0:0:0:
192,160,79624,2,0,L|128:172,1,55
232,88,79851,2,0,P|272:120|252:208,1,110,4|2,0:0|0:0,0:0:0:0:
56,256,80306,6,0,P|40:184|52:144,1,110,2|0,0:0|0:0,0:0:0:0:
284,70,80760,2,0,P|293:123|276:175,1,110,10|0,0:0|0:0,0:0:0:0:
220,240,81101,1,0,0:0:0:0:
220,240,81215,2,0,L|156:220,1,55,2|0,0:0|0:0,0:0:0:0:
152,149,81442,2,0,P|100:133|25:174,1,110,2|8,0:0|0:0,0:0:0:0:
196,332,81896,1,2,0:0:0:0:
196,332,82010,2,0,L|372:312,1,165,2|2,0:0|0:0,0:0:0:0:
424,132,82578,5,8,0:0:0:0:
268,24,82806,1,0,0:0:0:0:
250,69,82919,1,0,0:0:0:0:
232,112,83033,2,0,P|226:151|230:199,1,55,2|0,0:0|0:0,0:0:0:0:
233,213,83260,1,2,0:0:0:0:
395,227,83487,1,10,0:0:0:0:
425,82,83715,1,2,0:0:0:0:
268,24,83942,6,0,P|190:33|160:111,1,165,2|0,0:0|0:0,0:0:0:0:
164,159,84396,2,0,P|120:120|56:124,1,110,10|0,0:0|0:0,0:0:0:0:
89,202,84737,2,0,L|53:286,1,55,2|0,0:0|0:0,0:0:0:0:
138,304,84965,2,0,L|174:220,1,55
159,253,85192,1,0,0:0:0:0:
247,228,85306,2,0,P|300:232|333:275,1,110,10|0,0:0|0:0,0:0:0:0:
164,256,85760,5,2,0:0:0:0:
193,81,85987,1,2,0:0:0:0:
340,44,86215,1,10,0:0:0:0:
340,44,86328,2,0,P|404:80|428:156,1,110,2|0,0:0|0:0,0:0:0:0:
408,192,86669,6,0,L|352:200,1,55,2|0,0:0|0:0,0:0:0:0:
232,156,86896,2,0,L|288:148,1,55,2|0,0:0|0:0,0:0:0:0:
164,216,87124,2,0,P|144:180|148:140,1,55,4|0,0:0|0:0,0:0:0:0:
216,32,87351,2,0,P|210:58|194:81,1,55,2|0,0:0|0:0,0:0:0:0:
142,166,87578,6,0,P|82:182|20:140,1,110,4|0,0:0|0:0,0:0:0:0:
96,44,88033,1,8,0:0:0:0:
232,156,88260,1,0,0:0:0:0:
96,252,88487,6,0,L|32:252,1,55,2|0,0:0|0:0,0:0:0:0:
72,336,88714,2,0,L|127:336,1,55
232,264,88942,2,0,L|177:264,1,55,10|0,0:0|0:0,0:0:0:0:
212,340,89169,2,0,L|267:340,1,55
324,272,89396,5,2,0:0:0:0:
324,272,89624,1,0,0:0:0:0:
380,128,89851,1,8,0:0:0:0:
224,152,90078,1,0,0:0:0:0:
456,192,90306,6,0,P|476:156|476:116,1,55,2|0,0:0|0:0,0:0:0:0:
402,78,90533,2,0,P|386:100|379:127,1,55
224,152,90760,2,0,P|260:172|300:172,1,55,10|0,0:0|0:0,0:0:0:0:
292,76,90987,2,0,P|256:56|216:56,1,55
144,84,91215,5,2,0:0:0:0:
144,84,91442,1,0,0:0:0:0:
128,252,91669,1,8,0:0:0:0:
273,174,91896,1,0,0:0:0:0:
144,84,92124,5,2,0:0:0:0:
96,104,92237,1,0,0:0:0:0:
64,144,92351,1,2,0:0:0:0:
52,196,92464,1,0,0:0:0:0:
68,248,92578,1,10,0:0:0:0:
104,288,92692,6,0,P|177:306|253:294,1,137.5,0|8,0:0|0:0,0:0:0:0:
256,292,93374,1,0,0:0:0:0:
276,280,93487,1,8,0:0:0:0:
292,272,93601,1,0,0:0:0:0:
376,184,93828,1,0,0:0:0:0:
376,184,93942,6,0,P|388:136|344:148,1,110,2|6,0:0|0:0,0:0:0:0:
256,292,94624,1,0,0:0:0:0:
416,344,94851,6,0,P|472:320|496:256,1,110,2|0,0:0|0:0,0:0:0:0:
376,184,95306,1,8,0:0:0:0:
256,292,95533,1,0,0:0:0:0:
464,176,95760,6,0,L|472:104,1,55,2|0,0:0|0:0,0:0:0:0:
382,129,95987,2,0,L|376:184,1,55
288,192,96215,2,0,L|295:138,1,55,10|0,0:0|0:0,0:0:0:0:
208,140,96442,2,0,L|201:194,1,55
188,288,96669,5,2,0:0:0:0:
188,288,96896,1,0,0:0:0:0:
56,192,97124,1,8,0:0:0:0:
208,140,97351,1,0,0:0:0:0:
40,44,97578,6,0,P|32:76|40:108,1,55,2|0,0:0|0:0,0:0:0:0:
116,136,97806,2,0,P|124:104|116:72,1,55
56,192,98033,2,0,P|48:224|56:256,1,55,10|0,0:0|0:0,0:0:0:0:
132,284,98260,2,0,P|140:252|132:220,1,55
116,136,98487,5,2,0:0:0:0:
116,136,98715,1,0,0:0:0:0:
292,104,98942,1,8,0:0:0:0:
220,272,99169,1,0,0:0:0:0:
416,304,99396,5,2,0:0:0:0:
460,272,99509,1,0,0:0:0:0:
487,225,99623,1,2,0:0:0:0:
489,170,99736,1,0,0:0:0:0:
467,120,99850,1,10,0:0:0:0:
425,85,99965,6,0,P|328:44|288:48,1,137.5
184,104,100760,5,8,0:0:0:0:
276,172,100987,1,0,0:0:0:0:
276,172,101101,1,0,0:0:0:0:
276,172,101215,6,0,P|300:204|252:204,1,110,2|2,0:0|0:0,0:0:0:0:
68,188,101896,1,2,0:0:0:0:
68,188,102010,1,2,0:0:0:0:
68,188,102124,6,0,L|52:320,2,123.750004720688,2|0|2,0:0|0:0|0:0,0:0:0:0:
120,128,102919,1,2,0:0:0:0:
120,128,103033,2,0,P|184:128|212:156,1,82.5000031471254,2|0,0:0|0:0,0:0:0:0:
376,208,103487,2,0,P|416:208|444:200,1,41.2500015735627,2|0,0:0|0:0,0:0:0:0:
472,152,103715,1,2,0:0:0:0:
277,56,103942,6,0,P|213:92|197:156,2,123.750004720688,8|8|10,0:0|0:0|0:0,0:0:0:0:
348,84,104737,1,2,0:0:0:0:
348,84,104851,2,0,L|312:168,1,82.5000031471254,2|0,0:0|0:0,0:0:0:0:
420,300,105306,2,0,L|456:216,1,82.5000031471254,2|0,0:0|0:0,0:0:0:0:
429,154,105646,1,0,0:0:0:0:
429,154,105760,6,0,P|357:138|301:174,2,123.750004720688,8|8|10,0:0|0:0|0:0,0:0:0:0:
500,100,106556,1,2,0:0:0:0:
500,100,106669,2,0,L|484:44,1,41.2500015735627,2|0,0:0|0:0,0:0:0:0:
408,59,106896,2,0,L|396:19,1,41.2500015735627,2|0,0:0|0:0,0:0:0:0:
315,14,107124,2,0,L|169:21,1,123.750004720688,2|0,0:0|0:0,0:0:0:0:
112,28,107578,6,0,P|44:60|32:96,1,82.5000031471254,8|0,0:0|0:0,0:0:0:0:
128,148,108033,1,2,0:0:0:0:
42,63,108260,1,2,0:0:0:0:
188,208,108487,6,2,L|368:176,1,165,8|0,0:0|0:0,0:0:0:0:
368,104,108942,6,2,P|252:80|144:144,1,247.500009441376,4|0,0:0|0:0,0:0:0:0:
188,208,109396,6,0,B|240:244|240:244|332:224,2,123.750004720688,8|8|8,0:0|0:0|0:0,0:0:0:0:
88,84,110306,2,0,P|76:36|96:-16,1,82.5000031471254,2|0,0:0|0:0,0:0:0:0:
240,48,110760,1,2,0:0:0:0:
188,208,110987,1,0,0:0:0:0:
364,248,111215,6,0,B|448:264|448:264|412:208,2,123.750004720688,8|8|8,0:0|0:0|0:0,0:0:0:0:
292,220,112010,1,0,0:0:0:0:
292,220,112124,2,0,P|272:164|292:128,1,82.5000031471254,2|0,0:0|0:0,0:0:0:0:
400,44,112578,1,6,0:0:0:0:
296,296,113033,6,0,B|238:315|238:315|178:299,2,123.750004720688,8|8|8,0:0|0:0|0:0,0:0:0:0:
416,200,113942,2,0,P|437:165|437:124,1,82.5000031471254,2|0,0:0|0:0,0:0:0:0:
288,80,114396,2,0,P|266:114|266:155,1,82.5000031471254,2|0,0:0|0:0,0:0:0:0:
416,200,114851,5,2,0:0:0:0:
397,205,115078,1,0,0:0:0:0:
381,209,115306,1,0,0:0:0:0:
365,213,115533,1,0,0:0:0:0:
160,248,115760,1,2,0:0:0:0:
160,248,115987,6,0,P|133:245|112:227,2,55,2|2|2,0:0|0:0|0:0,0:0:0:0:
319,84,116669,6,0,P|372:92|384:100,1,41.2500015735627,6|0,0:0|0:0,0:0:0:0:
319,84,116896,2,0,P|372:92|384:100,1,41.2500015735627,2|0,0:0|0:0,0:0:0:0:
318,84,117124,2,0,P|395:104|432:176,1,165.000006294251,2|0,0:0|0:0,0:0:0:0:
244,280,117806,1,2,0:0:0:0:
340,176,118033,1,2,0:0:0:0:
404,320,118260,1,2,0:0:0:0:
212,168,118487,6,0,P|192:156|160:152,1,41.2500015735627,2|0,0:0|0:0,0:0:0:0:
212,168,118715,2,0,P|192:156|160:152,1,41.2500015735627,2|0,0:0|0:0,0:0:0:0:
211,167,118942,2,0,P|132:147|58:178,1,165.000006294251,2|0,0:0|0:0,0:0:0:0:
184,324,119624,1,2,0:0:0:0:
220,332,119737,1,0,0:0:0:0:
256,340,119851,2,0,P|304:336|340:312,1,82.5000031471254,4|0,0:0|0:0,0:0:0:0:
412,128,120306,6,0,L|428:44,1,82.5000031471254,8|0,0:0|0:0,0:0:0:0:
212,168,120760,2,0,L|196:252,1,82.5000031471254,8|0,0:0|0:0,0:0:0:0:
316,148,121215,1,8,0:0:0:0:
92,68,121669,1,2,0:0:0:0:
92,68,121896,2,0,P|36:68|116:124,1,247.500009441376,2|0,0:0|0:0,0:0:0:0:
200,100,122806,6,0,P|232:140|180:140,1,110,0|2,0:0|0:0,0:0:0:0:
144,212,123374,1,2,0:0:0:0:
144,212,123487,2,0,P|140:252|152:280,1,55,2|0,0:0|0:0,0:0:0:0:
308,340,123942,5,10,0:0:0:0:
356,144,124169,1,2,0:0:0:0:
224,240,124396,1,2,0:0:0:0:
448,244,124624,1,0,0:0:0:0:
180,104,124851,5,8,0:0:0:0:
304,216,125078,1,2,0:0:0:0:
304,216,125192,1,2,0:0:0:0:
304,216,125306,1,2,0:0:0:0:
148,272,125533,1,2,0:0:0:0:
292,96,125760,5,10,0:0:0:0:
244,312,125987,1,2,0:0:0:0:
88,168,126215,1,2,0:0:0:0:
304,216,126442,1,0,0:0:0:0:
116,324,126669,5,8,0:0:0:0:
216,64,126896,1,2,0:0:0:0:
324,300,127124,1,2,0:0:0:0:
204,156,127351,1,2,0:0:0:0:
436,264,127578,5,10,0:0:0:0:
465,234,127691,1,0,0:0:0:0:
483,198,127805,1,2,0:0:0:0:
490,157,127918,1,0,0:0:0:0:
484,117,128032,1,10,0:0:0:0:
465,80,128146,1,0,0:0:0:0:
437,51,128259,1,2,0:0:0:0:
400,32,128373,1,0,0:0:0:0:
360,25,128487,5,10,0:0:0:0:
319,30,128600,1,0,0:0:0:0:
282,48,128714,1,0,0:0:0:0:
253,77,128828,1,0,0:0:0:0:
233,113,128941,1,10,0:0:0:0:
226,153,129055,1,0,0:0:0:0:
224,196,129169,5,2,0:0:0:0:
256,332,129851,2,0,P|258:287|240:325,1,110,2|2,0:0|0:0,0:0:0:0:
376,344,130760,1,4,0:0:0:0:
396,308,130987,1,0,0:0:0:0:
408,268,131215,6,0,P|420:192|416:152,1,110,6|0,0:0|0:0,0:0:0:0:
252,100,131669,2,0,P|250:155|261:209,1,110,10|0,0:0|0:0,0:0:0:0:
344,336,132124,1,2,0:0:0:0:
500,236,132351,1,0,0:0:0:0:
328,148,132578,1,10,0:0:0:0:
460,44,132806,1,2,0:0:0:0:
460,44,132919,6,0,P|408:48|348:84,1,110,2|0,0:0|0:0,0:0:0:0:
328,148,133260,2,0,L|340:272,1,110,2|8,0:0|0:0,0:0:0:0:
472,316,133715,1,0,0:0:0:0:
330,93,133942,2,0,L|327:147,1,55,2|0,0:0|0:0,0:0:0:0:
239,184,134169,2,0,L|242:129,1,55,2|0,0:0|0:0,0:0:0:0:
159,123,134397,2,0,L|156:177,1,55,10|0,0:0|0:0,0:0:0:0:
67,207,134624,2,0,L|70:152,1,55,2|0,0:0|0:0,0:0:0:0:
163,44,134851,6,0,P|258:35|242:128,1,220,2|10,0:0|0:0,0:0:0:0:
148,269,135533,1,0,0:0:0:0:
148,269,135647,2,0,P|122:260|103:240,1,55,0|2,0:0|0:0,0:0:0:0:
156,177,135874,1,0,0:0:0:0:
156,177,135988,2,0,P|131:167|111:147,1,55
119,68,136215,6,0,P|150:22|224:11,1,110,10|2,0:0|0:0,0:0:0:0:
364,32,136669,1,0,0:0:0:0:
400,176,136897,1,2,0:0:0:0:
392,220,137010,1,0,0:0:0:0:
380,264,137124,2,0,P|300:288|256:260,1,110,10|0,0:0|0:0,0:0:0:0:
200,152,137578,1,0,0:0:0:0:
364,32,137806,2,0,L|428:20,1,55
324,104,138033,2,0,P|284:72|304:-16,1,110,12|2,0:0|0:0,0:0:0:0:
492,152,138488,6,0,P|508:224|496:264,1,110,2|0,0:0|0:0,0:0:0:0:
264,312,138942,2,0,P|255:259|272:207,1,110,10|0,0:0|0:0,0:0:0:0:
308,140,139283,1,0,0:0:0:0:
308,140,139397,2,0,L|372:160,1,55,2|0,0:0|0:0,0:0:0:0:
408,220,139624,2,0,P|460:236|535:195,1,110,2|8,0:0|0:0,0:0:0:0:
496,40,140078,1,2,0:0:0:0:
496,40,140192,2,0,L|320:60,1,165,2|2,0:0|0:0,0:0:0:0:
192,164,140760,5,8,0:0:0:0:
291,302,140987,1,0,0:0:0:0:
313,261,141100,1,0,0:0:0:0:
327,214,141214,2,0,P|333:175|329:127,1,55,2|0,0:0|0:0,0:0:0:0:
326,113,141441,1,2,0:0:0:0:
164,99,141668,1,10,0:0:0:0:
134,244,141896,1,2,0:0:0:0:
291,302,142123,6,0,P|369:293|399:215,1,165,2|0,0:0|0:0,0:0:0:0:
395,167,142577,2,0,P|436:204|512:200,1,110,10|0,0:0|0:0,0:0:0:0:
470,124,142918,2,0,L|506:40,1,55,2|0,0:0|0:0,0:0:0:0:
421,22,143146,1,0,0:0:0:0:
421,22,143259,2,0,L|385:106,1,55
312,98,143487,2,0,P|259:94|226:51,1,110,10|0,0:0|0:0,0:0:0:0:
399,72,143942,5,2,0:0:0:0:
380,227,144169,1,2,0:0:0:0:
220,272,144397,1,10,0:0:0:0:
220,272,144510,2,0,P|156:248|136:176,1,110,2|8,0:0|0:0,0:0:0:0:
120,168,144851,1,2,0:0:0:0:
116,120,144965,1,8,0:0:0:0:
136,72,145078,1,2,0:0:0:0:
316,28,145306,6,0,B|320:84|320:84|296:132,1,110,8|2,0:0|0:0,0:0:0:0:
256,192,145760,12,4,147578,0:0:0:0:
344,136,154851,5,10,0:0:0:0:
260,272,155078,1,2,0:0:0:0:
200,132,155306,1,8,0:0:0:0:
372,216,155533,1,0,0:0:0:0:
184,224,155760,5,10,0:0:0:0:
216,40,155987,1,0,0:0:0:0:
300,204,156215,1,10,0:0:0:0:
64,240,156442,1,0,0:0:0:0:
256,124,156669,5,10,0:0:0:0:
168,316,156896,1,0,0:0:0:0:
112,156,157124,1,10,0:0:0:0:
336,104,157351,1,0,0:0:0:0:
256,308,157578,5,8,0:0:0:0:
172,88,157806,1,2,0:0:0:0:
384,180,158033,1,10,0:0:0:0:
140,236,158260,1,0,0:0:0:0:
276,8,158487,5,8,0:0:0:0:
313,24,158600,1,0,0:0:0:0:
344,52,158714,1,2,0:0:0:0:
363,88,158827,1,0,0:0:0:0:
371,129,158941,1,10,0:0:0:0:
365,169,159055,1,0,0:0:0:0:
347,206,159168,1,2,0:0:0:0:
319,236,159282,1,0,0:0:0:0:
282,255,159396,5,10,0:0:0:0:
242,261,159509,1,0,0:0:0:0:
201,255,159623,1,2,0:0:0:0:
165,236,159736,1,0,0:0:0:0:
136,207,159850,1,10,0:0:0:0:
118,170,159964,1,0,0:0:0:0:
112,129,160077,1,0,0:0:0:0:
120,89,160191,1,0,0:0:0:0:
140,53,160305,5,2,0:0:0:0:
256,192,160419,12,4,161669,0:0:0:0:
308,260,162124,6,0,P|392:276|428:252,1,110,0|2,0:0|0:0,0:0:0:0:
448,196,162465,1,0,0:0:0:0:
448,196,162578,2,0,L|456:128,1,55,8|0,0:0|0:0,0:0:0:0:
332,52,162806,2,0,L|324:120,1,55,2|0,0:0|0:0,0:0:0:0:
224,192,163033,6,0,P|152:200|92:180,1,110
56,144,163374,1,0,0:0:0:0:
44,104,163487,1,8,0:0:0:0:
36,64,163601,2,0,P|112:20|204:52,1,165
324,200,164169,5,2,0:0:0:0:
324,200,164283,2,0,L|404:192,1,55,0|8,0:0|0:0,0:0:0:0:
220,148,164510,1,0,0:0:0:0:
224,192,164624,1,2,0:0:0:0:
228,240,164737,1,0,0:0:0:0:
232,292,164851,6,0,L|312:284,1,55
378,194,165078,2,0,L|305:203,1,55
220,148,165306,1,8,0:0:0:0:
224,192,165420,1,0,0:0:0:0:
228,240,165533,1,0,0:0:0:0:
76,60,165760,6,0,L|88:124,1,55
220,148,165987,2,0,L|208:84,1,55,2|0,0:0|0:0,0:0:0:0:
0,56,166215,2,0,L|24:188,1,110,8|2,0:0|0:0,0:0:0:0:
64,232,166556,1,0,0:0:0:0:
108,256,166669,5,2,0:0:0:0:
152,240,166783,1,2,0:0:0:0:
192,264,166896,1,2,0:0:0:0:
236,252,167010,1,2,0:0:0:0:
276,272,167124,1,8,0:0:0:0:
324,260,167237,2,0,L|384:272,1,55,2|0,0:0|0:0,0:0:0:0:
464,108,167578,5,0,0:0:0:0:
432,68,167692,1,0,0:0:0:0:
384,48,167806,1,2,0:0:0:0:
332,64,167919,1,0,0:0:0:0:
296,104,168033,2,0,L|272:224,1,110,10|0,0:0|0:0,0:0:0:0:
256,288,168374,1,0,0:0:0:0:
256,288,168487,5,2,0:0:0:0:
72,260,168715,1,2,0:0:0:0:
196,112,168942,5,8,0:0:0:0:
168,276,169093,1,2,0:0:0:0:
44,168,169245,1,8,0:0:0:0:
196,112,169396,6,0,P|256:112|296:144,1,110,4|2,0:0|0:0,0:0:0:0:
308,216,169965,2,0,L|308:240,4,13.75,2|2|2|2|2,0:0|0:0|0:0|0:0|0:0,0:0:0:0:
368,164,170306,6,0,L|408:156,1,36.6666666666667,2|0,0:0|0:0,0:0:0:0:
488,136,170609,1,0,0:0:0:0:
384,72,170760,6,0,L|424:64,1,36.6666666666667,2|0,0:0|0:0,0:0:0:0:
496,52,171063,1,0,0:0:0:0:
240,64,171215,6,0,L|160:60,2,55.0000020980836,2|0|0,0:0|0:0|0:0,0:0:0:0:
109,171,171669,2,0,L|-3:167,2,73.3333333333333,2|2|0,0:0|0:0|0:0,0:0:0:0:
296,231,172124,2,0,L|404:235,2,91.6666666666667,2|0|2,0:0|0:0|0:0,0:0:0:0:
100,324,172578,1,4,0:0:0:0:
72,344,172806,1,8,0:0:0:0:
72,344,172919,1,0,0:0:0:0:
72,344,173033,6,0,L|64:268,1,55,12|0,0:0|0:0,0:0:0:0:
160,208,173260,2,0,L|168:284,1,55,2|0,0:0|0:0,0:0:0:0:
52,156,173487,1,10,0:0:0:0:
76,116,173601,1,0,0:0:0:0:
116,84,173715,1,2,0:0:0:0:
164,80,173828,1,0,0:0:0:0:
212,104,173942,6,0,P|300:108|332:80,1,110,2|2,1:0|0:0,0:0:0:0:
412,44,174283,2,0,L|408:98,1,55,2|10,1:0|0:0,0:0:0:0:
404,144,174510,1,0,0:0:0:0:
400,188,174624,1,2,1:0:0:0:
396,232,174737,1,0,0:0:0:0:
360,344,174851,6,0,P|404:344|436:336,1,55,2|0,0:0|0:0,0:0:0:0:
512,268,175078,2,0,P|468:268|436:260,1,55,2|0,0:0|0:0,0:0:0:0:
356,188,175306,2,0,P|400:188|476:136,1,110,2|2,1:0|0:0,0:0:0:0:
269,153,175646,1,0,0:0:0:0:
269,153,175760,6,2,P|257:197|289:253,1,110
193,277,176101,1,0,0:0:0:0:
193,277,176215,2,2,P|119:243|195:215,1,165,2|0,0:0|0:0,0:0:0:0:
192,116,176669,6,0,B|176:48|176:48|96:28,1,110,6|0,0:0|0:0,0:0:0:0:
17,157,177124,2,0,L|29:273,1,110,8|0,0:0|0:0,0:0:0:0:
89,321,177465,2,0,P|145:317|181:293,1,55,8|0,0:0|0:0,0:0:0:0:
213,273,177692,1,8,0:0:0:0:
213,273,177806,2,0,P|285:277|337:309,1,110,0|8,0:0|0:0,0:0:0:0:
441,349,178260,1,2,0:0:0:0:
497,205,178487,6,0,B|493:149|493:149|453:105,1,110,2|0,0:0|0:0,0:0:0:0:
317,41,178942,2,0,P|257:41|209:81,1,110,8|0,0:0|0:0,0:0:0:0:
169,137,179283,2,0,L|177:217,1,55,8|0,0:0|0:0,0:0:0:0:
85,117,179510,1,8,0:0:0:0:
85,117,179624,2,0,L|101:273,1,110,0|8,0:0|0:0,0:0:0:0:
201,325,180078,1,2,0:0:0:0:
285,177,180306,6,0,B|337:157|337:157|397:181,1,110,2|0,0:0|0:0,0:0:0:0:
309,301,180760,2,0,L|189:327,1,110,8|0,0:0|0:0,0:0:0:0:
121,341,181101,2,0,P|81:313|77:289,1,55,8|0,0:0|0:0,0:0:0:0:
97,226,181328,1,8,0:0:0:0:
97,226,181442,2,0,P|105:189|169:117,1,110,2|10,0:0|0:0,0:0:0:0:
297,77,181896,1,2,0:0:0:0:
373,257,182124,5,6,0:0:0:0:
181,209,182351,1,0,0:0:0:0:
393,133,182578,1,10,0:0:0:0:
413,117,182692,1,0,0:0:0:0:
253,265,182919,1,2,0:0:0:0:
253,289,183033,1,8,0:0:0:0:
252,316,183146,1,2,0:0:0:0:
252,340,183260,1,8,0:0:0:0:
145,133,183487,2,0,B|96:108|96:108|120:160,1,110
317,45,183942,6,0,B|365:17|365:17|445:33,1,110,4|0,0:0|0:0,0:0:0:0:
481,157,184397,2,0,L|469:273,1,110,8|0,0:0|0:0,0:0:0:0:
409,321,184738,2,0,P|353:317|317:293,1,55,10|0,0:0|0:0,0:0:0:0:
285,273,184965,1,8,0:0:0:0:
285,273,185079,2,0,P|213:277|161:309,1,110,0|8,0:0|0:0,0:0:0:0:
57,349,185533,1,2,0:0:0:0:
1,205,185760,6,0,B|5:149|5:149|45:105,1,110,2|0,0:0|0:0,0:0:0:0:
181,41,186215,2,0,P|241:41|289:81,1,110,8|0,0:0|0:0,0:0:0:0:
329,137,186556,2,0,L|321:217,1,55,8|0,0:0|0:0,0:0:0:0:
413,117,186783,1,8,0:0:0:0:
413,117,186897,2,0,L|397:273,1,110,0|8,0:0|0:0,0:0:0:0:
297,325,187351,1,2,0:0:0:0:
213,177,187579,6,0,B|161:157|161:157|101:181,1,110,2|0,0:0|0:0,0:0:0:0:
189,301,188033,2,0,L|309:327,1,110,8|0,0:0|0:0,0:0:0:0:
377,341,188374,2,0,P|417:313|421:289,1,55,8|0,0:0|0:0,0:0:0:0:
401,226,188601,1,8,0:0:0:0:
401,226,188715,2,0,P|393:189|329:117,1,110,0|8,0:0|0:0,0:0:0:0:
197,77,189169,1,0,0:0:0:0:
256,192,189396,12,0,191215,0:0:0:0:
272,188,191669,6,0,L|288:316,1,110,4|0,0:0|0:0,0:0:0:0:
272,188,192124,6,0,L|336:188,1,55,2|0,0:0|0:0,0:0:0:0:
296,104,192351,2,0,L|241:104,1,55
136,176,192579,2,0,L|191:176,1,55,10|0,0:0|0:0,0:0:0:0:
156,100,192806,2,0,L|101:100,1,55
44,168,193033,5,2,0:0:0:0:
44,168,193260,1,0,0:0:0:0:
148,304,193488,1,8,0:0:0:0:
272,188,193715,1,0,0:0:0:0:
156,100,193942,6,0,P|120:140|120:172,1,55,2|0,0:0|0:0,0:0:0:0:
184,240,194170,2,0,P|192:212|188:180,1,55
96,228,194397,2,0,P|89:254|91:281,1,55,10|0,0:0|0:0,0:0:0:0:
136,376,194624,2,0,P|156:352|168:312,1,55
184,240,194851,5,2,0:0:0:0:
184,240,195079,1,0,0:0:0:0:
120,96,195306,1,8,0:0:0:0:
272,112,195533,1,0,0:0:0:0:
384,300,195760,5,2,0:0:0:0:
435,282,195873,1,0,0:0:0:0:
472,242,195987,1,2,0:0:0:0:
488,190,196100,1,0,0:0:0:0:
479,136,196214,1,10,0:0:0:0:
456,88,196329,6,0,P|400:40|320:48,1,137.5,0|8,0:0|0:0,0:0:0:0:
320,48,197010,1,0,0:0:0:0:
304,56,197124,1,8,0:0:0:0:
288,64,197238,1,0,0:0:0:0:
80,140,197465,1,0,0:0:0:0:
80,140,197579,2,0,P|56:108|104:112,1,110,2|6,0:0|0:0,0:0:0:0:
184,168,198260,1,0,0:0:0:0:
140,316,198487,6,0,P|84:292|60:228,1,110,2|0,0:0|0:0,0:0:0:0:
184,168,198942,1,8,0:0:0:0:
292,276,199169,1,0,0:0:0:0:
96,160,199396,6,0,L|88:88,1,55,2|0,0:0|0:0,0:0:0:0:
178,113,199623,2,0,L|184:168,1,55
272,176,199851,2,0,L|265:122,1,55,10|0,0:0|0:0,0:0:0:0:
352,124,200078,2,0,L|359:178,1,55
372,272,200305,5,2,0:0:0:0:
372,272,200532,1,0,0:0:0:0:
492,176,200760,1,8,0:0:0:0:
352,124,200987,1,0,0:0:0:0:
508,28,201214,6,0,P|516:60|508:92,1,55,2|0,0:0|0:0,0:0:0:0:
432,120,201442,2,0,P|424:88|432:56,1,55
492,176,201669,2,0,P|500:208|492:240,1,55,10|0,0:0|0:0,0:0:0:0:
416,268,201896,2,0,P|408:236|416:204,1,55
432,120,202123,5,2,0:0:0:0:
432,120,202351,1,0,0:0:0:0:
256,88,202578,1,8,0:0:0:0:
328,256,202805,1,0,0:0:0:0:
132,288,203032,5,2,0:0:0:0:
88,256,203145,1,0,0:0:0:0:
61,209,203259,1,2,0:0:0:0:
59,154,203372,1,0,0:0:0:0:
81,104,203486,1,10,0:0:0:0:
123,69,203601,6,0,P|227:41|271:55,1,137.5
369,137,204396,1,8,0:0:0:0:
250,255,204624,1,0,0:0:0:0:
250,255,204737,1,0,0:0:0:0:
250,255,204851,6,2,B|221:201|167:209|163:159|228:143|241:151|250:204,1,165.000006294251,2|0,0:0|0:0,1:0:0:0:
251,255,205306,2,2,B|260:198|324:208|309:149|270:138|241:156|242:176,1,165.000006294251,2|0,0:0|0:0,1:0:0:0:
