osu file format v14

[General]
AudioFilename: audio.mp3
AudioLeadIn: 0
PreviewTime: 14624
Countdown: 0
SampleSet: Soft
StackLeniency: 0.5
Mode: 0
LetterboxInBreaks: 0
WidescreenStoryboard: 1

[Editor]
DistanceSpacing: 4
BeatDivisor: 4
GridSize: 4
TimelineZoom: 1.6

[Metadata]
Title:LIKEY
TitleUnicode:LIKEY
Artist:TWICE
ArtistUnicode:트와이스
Creator:CharmCaster
Version:Extra
Source:
Tags:TWICETAGRAM 1ST ALBUM JYP Entertainment Nayeon Jeongyeon Momo Sana Jihyo Mina Dahyun Chaeyoung Tzuyu 나연 정연 모모 사나 지효 미나 다현 채영 쯔위 kpop cosmiccc leviza sing simuzax 트와이스 라이키
BeatmapID:1736055
BeatmapSetID:688158

[Difficulty]
HPDrainRate:6
CircleSize:4
OverallDifficulty:8
ApproachRate:9.3
SliderMultiplier:2.3
SliderTickRate:1

[Events]
//Background and Video events
Video,-7888,"LIKEY3.avi"
0,0,"better likey.jpg",0,0
//Break Periods
2,147778,152479
//Storyboard Layer 0 (Background)
//Storyboard Layer 1 (Fail)
//Storyboard Layer 2 (Pass)
//Storyboard Layer 3 (Foreground)
//Storyboard Sound Samples

[TimingPoints]
306,454.545454545455,4,2,9,80,1,0
760,-133.333333333333,4,2,9,80,0,0
3146,-133.333333333333,4,2,9,10,0,0
3260,-100,4,2,9,80,0,0
4396,-133.333333333333,4,2,9,80,0,0
6896,-50,4,2,9,80,0,0
7578,-100,4,2,9,80,0,0
8033,-133.333333333333,4,2,9,80,0,0
9396,-100,4,2,9,80,0,0
9851,-133.333333333333,4,2,9,80,0,0
11215,-100,4,2,9,80,0,0
14396,-100,4,2,45,100,0,0
14851,-100,4,2,9,80,0,1
19965,-200,4,2,9,80,0,1
20760,-100,4,2,9,80,0,0
21215,-66.6666666666667,4,1,9,80,0,0
21669,-66.6666666666667,4,2,45,100,0,0
22124,-100,4,2,9,80,0,1
27237,-200,4,2,9,80,0,1
28033,-100,4,2,9,80,0,1
28487,-200,4,2,9,80,0,0
29396,-133.333333333333,4,2,9,80,0,0
30078,-200,4,2,9,80,0,0
30760,-133.333333333333,4,2,9,80,0,0
30874,-133.333333333333,4,2,9,10,0,0
30987,-133.333333333333,4,2,9,80,0,0
31101,-133.333333333333,4,2,9,10,0,0
31215,-200,4,2,9,80,0,0
31556,-200,4,2,9,10,0,0
31669,-100,4,2,9,50,0,0
32124,-133.333333333333,4,2,9,80,0,0
33715,-200,4,2,9,80,0,0
34396,-133.333333333333,4,2,9,80,0,0
34510,-133.333333333333,4,2,9,10,0,0
34624,-133.333333333333,4,2,9,80,0,0
34737,-133.333333333333,4,2,9,10,0,0
34851,-200,4,2,9,80,0,0
35192,-200,4,2,9,10,0,0
35306,-100,4,2,9,50,0,0
35760,-100,4,2,9,80,0,0
36669,-133.333333333333,4,2,9,80,0,0
38487,-200,4,2,9,80,0,0
38828,-200,4,2,9,10,0,0
38942,-100,4,2,9,50,0,0
39396,-100,4,2,9,80,0,0
39624,-133.333333333333,4,2,9,80,0,0
49169,-200,4,2,9,80,0,0
49510,-133.333333333333,4,2,9,10,0,0
49624,-100,4,2,9,80,0,0
49851,-100,4,2,9,50,0,0
50306,-100,4,2,9,80,0,0
50533,-133.333333333333,4,2,9,80,0,0
53487,-100,4,2,9,50,0,0
53942,-133.333333333333,4,2,9,80,0,0
57124,-100,4,2,9,50,0,0
57806,-200,4,2,9,80,0,0
58487,-133.333333333333,4,2,9,80,0,0
58601,-133.333333333333,4,2,9,10,0,0
58715,-133.333333333333,4,2,9,80,0,0
58828,-133.333333333333,4,2,9,10,0,0
58942,-66.6666666666667,4,2,9,80,0,0
59396,-133.333333333333,4,2,9,80,0,0
60419,-133.333333333333,4,2,9,10,0,0
60533,-133.333333333333,4,2,9,80,0,0
60646,-133.333333333333,4,2,9,10,0,0
60760,-66.6666666666667,4,2,9,80,0,0
61215,-133.333333333333,4,2,9,80,0,0
61669,-200,4,2,9,80,0,0
62010,-200,4,2,9,10,0,0
62124,-133.333333333333,4,2,9,80,0,0
64624,-200,4,2,9,80,0,0
65306,-133.333333333333,4,2,9,80,0,0
65760,-133.333333333333,4,2,9,80,0,0
70987,-400,4,2,9,80,0,0
71669,-66.6666666666667,4,2,9,80,0,0
72578,-500,4,2,45,100,0,0
73033,-100,4,2,9,80,0,1
79851,-100,4,2,45,100,0,1
80078,-100,4,2,9,80,0,1
87124,-100,4,2,45,100,0,0
87237,-100,4,2,9,80,0,0
87578,-100,4,2,9,80,0,1
92692,-200,4,2,9,80,0,1
93487,-100,4,2,9,80,0,0
93942,-66.6666666666667,4,1,0,80,0,0
94396,-66.6666666666667,4,2,45,100,0,0
94851,-100,4,2,9,80,0,1
99965,-200,4,2,9,80,0,1
100760,-100,4,2,9,80,0,1
101215,-100,4,1,0,80,0,0
102124,-133.333333333333,4,2,9,80,0,0
108487,-100,4,2,9,80,0,0
108828,-100,4,2,9,10,0,0
108942,-50,4,2,9,80,0,0
109283,-50,4,2,9,10,0,0
109396,-133.333333333333,4,2,9,80,0,0
115987,-200,4,2,9,80,0,0
116669,-133.333333333333,4,2,9,80,0,0
116783,-133.333333333333,4,2,9,10,0,0
116896,-133.333333333333,4,2,9,80,0,0
117010,-133.333333333333,4,2,9,10,0,0
117124,-66.6666666666667,4,2,9,80,0,0
117806,-133.333333333333,4,2,9,80,0,0
118601,-133.333333333333,4,2,9,10,0,0
118715,-133.333333333333,4,2,9,80,0,0
118828,-133.333333333333,4,2,9,10,0,0
118942,-66.6666666666667,4,2,9,80,0,0
119624,-133.333333333333,4,2,9,80,0,0
119851,-200,4,2,9,80,0,0
120192,-200,4,2,9,10,0,0
120306,-133.333333333333,4,2,9,80,0,0
122806,-200,4,2,9,80,0,0
123487,-133.333333333333,4,2,9,80,0,0
123942,-133.333333333333,4,2,9,80,0,0
129169,-500,4,2,9,80,0,0
129851,-66.6666666666667,4,2,9,80,0,0
130760,-500,4,2,45,100,0,0
131215,-100,4,2,0,80,0,1
138033,-100,4,2,45,100,0,1
138260,-100,4,2,0,80,0,1
145760,-133.333333333333,4,2,0,40,0,0
154851,-133.333333333333,4,2,0,80,0,0
160306,-500,4,2,0,40,0,0
161669,-50,4,2,0,80,0,0
162124,-100,4,2,0,80,0,0
169396,-200,4,2,60,80,0,0
169851,-200,4,2,0,80,0,0
170306,-133.333333333333,4,2,0,80,0,0
172578,-66.6666666666667,4,2,61,80,0,0
173033,-100,4,2,0,80,0,0
175760,-66.6666666666667,4,1,0,80,0,0
176101,-66.6666666666667,4,2,0,80,0,0
176215,-50,4,1,0,80,0,0
176556,-50,4,2,0,80,0,0
176669,-100,4,1,0,80,0,0
176896,-100,4,2,0,80,0,0
190987,-500,4,2,0,80,0,0
191556,-500,4,2,0,10,0,0
191669,-100,4,2,45,100,0,1
191896,-100,4,2,0,80,0,1
196328,-200,4,2,0,80,0,1
197124,-100,4,2,0,80,0,0
197578,-66.6666666666667,4,1,0,80,0,0
198033,-66.6666666666667,4,2,45,100,0,0
198487,-100,4,2,0,80,0,1
203601,-200,4,2,0,80,0,1
204169,-133.333333333333,4,2,0,80,0,1
204851,-66.6666666666667,4,2,0,80,0,0
205760,-100,4,2,0,80,0,0

[Colours]
Combo1 : 252,255,128
Combo2 : 255,151,153
Combo3 : 255,205,151
Combo4 : 176,255,251
Combo5 : 146,222,141
SliderBorder : 246,172,207
SliderTrackOverride : 43,119,197

[HitObjects]
140,252,306,6,0,L|276:224,1,115,4|0,0:0|0:0,0:0:0:0:
352,136,760,2,0,B|392:196|392:196|380:280,2,129.375004935265,2|2|2,0:0|0:0|0:0,0:0:0:0:
176,68,1669,1,0,0:0:0:0:
252,228,1896,1,2,0:0:0:0:
324,44,2124,6,0,P|396:48|440:156,1,172.500006580353,2|0,0:0|0:0,0:0:0:0:
396,268,2806,1,0,0:0:0:0:
400,272,2919,2,0,L|288:288,1,86.2500032901765,2|0,0:0|0:0,0:0:0:0:
236,268,3260,1,2,0:0:0:0:
264,88,3487,1,2,0:0:0:0:
44,40,3942,6,0,L|32:160,1,115,2|0,0:0|0:0,0:0:0:0:
264,88,4396,2,0,P|188:68|132:120,2,129.375004935265,2|0|2,0:0|0:0|0:0,0:0:0:0:
424,244,5306,6,0,L|344:272,1,43.1250016450883,2|0,0:0|0:0,0:0:0:0:
456,164,5533,2,0,P|512:236|484:308,1,172.500006580353,2|0,0:0|0:0,0:0:0:0:
288,288,6215,2,0,B|280:264|240:260|240:260|264:228|236:176|236:176|276:184|304:128,1,215.625008225441,2|0,0:0|0:0,0:0:0:0:
332,84,6896,6,0,B|384:100|432:80|432:80|372:108|380:220,2,230,2|0|0,0:0|0:0|0:0,0:0:0:0:
88,40,7578,6,0,P|144:52|216:36,1,115,6|0,0:0|0:0,0:0:0:0:
160,148,8033,6,0,P|104:136|24:152,2,129.375004935265,8|0|0,0:0|0:0|0:0,0:0:0:0:
280,208,8942,1,8,0:0:0:0:
204,320,9169,1,2,0:0:0:0:
40,348,9396,6,0,P|100:336|136:284,1,115,2|0,0:0|0:0,0:0:0:0:
280,208,9851,2,0,L|280:368,2,129.375004935265,10|0|0,0:0|0:0|0:0,0:0:0:0:
472,128,10760,2,0,B|412:108|412:108|328:136,1,129.375004935265,10|0,0:0|0:0,0:0:0:0:
320,56,11215,6,0,L|444:12,1,115,2|0,0:0|0:0,0:0:0:0:
168,16,11669,2,0,L|44:60,1,115,8|0,0:0|0:0,0:0:0:0:
120,244,12124,6,0,P|116:208|136:164,1,57.5,2|0,0:0|0:0,0:0:0:0:
240,140,12351,2,0,P|244:176|224:220,1,57.5,2|0,0:0|0:0,0:0:0:0:
128,136,12578,2,0,P|164:132|208:152,1,57.5,10|0,0:0|0:0,0:0:0:0:
232,256,12805,2,0,P|196:260|152:240,1,57.5,2|0,0:0|0:0,0:0:0:0:
256,192,13033,12,4,14396,0:0:0:0:
88,147,14851,6,0,P|69:206|74:253,1,57.5,4|0,0:0|0:0,0:0:0:0:
195,56,15078,2,0,P|162:62|132:96,1,57.5
287,58,15306,1,8,0:0:0:0:
414,283,15533,6,0,L|425:185,1,57.5
252,266,15760,2,0,P|245:302|259:348,1,57.5,2|0,0:0|0:0,0:0:0:0:
156,364,15987,2,0,P|163:328|149:282,1,57.5
26,200,16215,2,0,P|19:236|33:282,1,57.5,10|0,0:0|0:0,0:0:0:0:
121,206,16442,2,0,P|128:170|114:124,1,57.5
35,37,16669,5,2,0:0:0:0:
299,80,16896,1,0,0:0:0:0:
116,244,17124,1,8,0:0:0:0:
105,289,17351,6,0,L|189:275,1,57.5
373,251,17578,2,0,P|380:294|358:350,1,57.5,2|0,0:0|0:0,0:0:0:0:
477,264,17806,2,0,P|475:235|482:207,1,57.5
270,189,18033,2,0,P|276:216|275:245,1,57.5,10|0,0:0|0:0,0:0:0:0:
174,196,18260,2,0,P|167:168|168:139,1,57.5
282,14,18487,5,2,0:0:0:0:
512,86,18715,1,0,0:0:0:0:
373,251,18942,2,0,P|371:307|430:361,1,115,8|0,0:0|0:0,0:0:0:0:
406,351,19283,1,0,0:0:0:0:
244,336,19396,5,2,0:0:0:0:
274,245,19510,1,2,0:0:0:0:
213,298,19624,1,2,0:0:0:0:
243,207,19737,1,2,0:0:0:0:
184,263,19851,1,10,0:0:0:0:
214,172,19965,6,0,B|238:135|238:135|296:134,1,86.25
473,58,20533,1,8,0:0:0:0:
473,58,20646,1,8,0:0:0:0:
473,58,20760,2,0,L|461:134,1,57.5,8|0,0:0|0:0,0:0:0:0:
349,324,21101,1,2,0:0:0:0:
349,324,21215,6,0,B|362:281|394:282|426:266|429:217|377:192|347:224|337:247,1,172.500006580353,2|0,0:0|0:0,0:0:0:0:
349,324,21669,2,0,B|336:281|304:282|272:266|269:217|321:192|351:224|361:247,1,172.500006580353,6|0,0:0|0:0,0:0:0:0:
114,336,22124,6,0,P|50:332|23:307,1,57.5,2|0,0:0|0:0,0:0:0:0:
212,219,22351,2,0,P|198:261|167:297,1,57.5
210,121,22578,1,8,0:0:0:0:
62,278,22806,6,0,L|55:374,1,57.5
114,104,23033,2,0,P|119:61|99:18,1,57.5,2|0,0:0|0:0,0:0:0:0:
20,128,23260,2,0,P|16:156|22:185,1,57.5
210,121,23487,2,0,P|213:149|208:177,1,57.5,10|0,0:0|0:0,0:0:0:0:
305,123,23715,2,0,P|299:94|303:66,1,57.5
480,20,23942,5,2,0:0:0:0:
436,282,24169,1,0,0:0:0:0:
303,66,24396,1,8,0:0:0:0:
277,26,24624,6,0,L|200:37,1,57.5
85,207,24851,2,0,P|126:214|171:208,1,57.5,2|0,0:0|0:0,0:0:0:0:
70,116,25078,2,0,P|29:123|-16:117,1,57.5
228,168,25306,2,0,P|241:116|235:86,1,57.5,10|0,0:0|0:0,0:0:0:0:
317,192,25533,2,0,P|319:220|329:247,1,57.5
425,353,25760,5,2,0:0:0:0:
402,88,25987,1,0,0:0:0:0:
237,269,26215,2,0,P|179:294|107:269,1,115,8|0,0:0|0:0,0:0:0:0:
129,284,26556,1,0,0:0:0:0:
97,123,26669,5,2,0:0:0:0:
67,214,26783,1,2,0:0:0:0:
128,161,26896,1,2,0:0:0:0:
98,252,27010,1,2,0:0:0:0:
157,196,27124,1,10,0:0:0:0:
135,289,27237,6,0,B|179:297|179:297|230:270,1,86.25,0|2,0:0|0:0,0:0:0:0:
427,143,27806,1,2,0:0:0:0:
284,235,28033,2,0,P|293:293|247:354,1,115,10|0,0:0|0:0,0:0:0:0:
216,278,28374,1,0,0:0:0:0:
351,195,28487,6,0,P|369:241|371:274,1,57.5,2|0,0:0|0:0,0:0:0:0:
296,130,28828,2,0,P|342:112|375:110,1,57.5,2|0,0:0|0:0,0:0:0:0:
429,138,29169,1,2,0:0:0:0:
429,138,29283,1,0,0:0:0:0:
223,169,29396,6,0,L|204:62,1,86.2500032901765,4|0,0:0|0:0,0:0:0:0:
32,24,29851,1,0,0:0:0:0:
295,70,30078,2,0,L|283:5,1,57.5,2|2,0:0|0:0,0:0:0:0:
109,22,30533,1,0,0:0:0:0:
36,251,30760,2,0,P|72:229|90:210,1,43.1250016450883,2|8,0:0|0:0,0:0:0:0:
77,124,30987,2,0,P|41:146|23:165,1,43.1250016450883,2|0,0:0|0:0,0:0:0:0:
110,300,31215,2,0,P|149:284|203:307,1,86.25,2|0,0:0|0:0,0:0:0:0:
256,359,31669,6,0,L|300:351,6,28.75,2|2|2|2|2|2|2,0:0|0:0|0:0|0:0|0:0|0:0|0:0,0:0:0:0:
396,206,32124,6,0,L|382:304,1,86.2500032901765,8|0,0:0|0:0,0:0:0:0:
500,156,32465,2,0,L|486:254,1,86.2500032901765,8|0,0:0|0:0,0:0:0:0:
388,97,32806,1,8,0:0:0:0:
477,58,32919,1,0,0:0:0:0:
500,157,33033,6,0,P|451:192|416:196,1,86.2500032901765,2|0,0:0|0:0,0:0:0:0:
225,107,33487,1,0,0:0:0:0:
411,279,33715,2,0,P|366:258|352:238,1,57.5,2|2,0:0|0:0,0:0:0:0:
294,48,34169,1,0,0:0:0:0:
146,280,34396,2,0,P|181:266|212:267,1,43.1250016450883,2|0,0:0|0:0,0:0:0:0:
181,356,34624,2,0,P|146:370|115:369,1,43.1250016450883,2|0,0:0|0:0,0:0:0:0:
114,199,34851,6,0,P|84:208|24:180,1,86.25,2|0,0:0|0:0,0:0:0:0:
83,111,35306,6,0,L|91:66,6,28.75,2|2|2|2|2|2|2,0:0|0:0|0:0|0:0|0:0|0:0|0:0,0:0:0:0:
172,20,35760,6,0,B|223:43|223:43|167:81,1,115,8|0,0:0|0:0,0:0:0:0:
386,173,36101,2,0,B|337:139|337:139|388:116,1,115,8|0,0:0|0:0,0:0:0:0:
511,209,36442,1,8,0:0:0:0:
433,254,36556,1,0,0:0:0:0:
386,173,36669,2,0,P|360:148|408:124,1,86.2500032901765,8|0,0:0|0:0,0:0:0:0:
493,324,37124,5,2,0:0:0:0:
308,245,37351,2,0,P|272:234|218:260,1,86.2500032901765
86,338,37692,1,0,0:0:0:0:
86,338,37806,2,0,P|105:280|83:228,1,86.2500032901765,8|2,0:0|0:0,0:0:0:0:
25,192,38146,1,0,0:0:0:0:
106,141,38260,1,8,0:0:0:0:
145,126,38487,6,0,B|189:116|189:116|247:130,1,86.25
286,200,38942,6,0,L|330:194,6,28.75,2|2|2|2|2|2|2,0:0|0:0|0:0|0:0|0:0|0:0|0:0,0:0:0:0:
234,277,39396,1,2,0:0:0:0:
477,185,39624,6,0,B|486:122|486:122|441:148,1,86.2500032901765,8|0,0:0|0:0,0:0:0:0:
292,15,39965,2,0,B|283:78|283:78|328:52,1,86.2500032901765,8|0,0:0|0:0,0:0:0:0:
431,18,40306,1,8,0:0:0:0:
425,289,40533,1,0,0:0:0:0:
472,112,40760,2,0,P|424:121|363:84,1,86.2500032901765,2|2,0:0|0:0,0:0:0:0:
189,16,41215,1,2,0:0:0:0:
431,18,41442,1,0,0:0:0:0:
179,118,41669,2,0,P|132:100|88:24,1,129.375004935265,2|0,0:0|0:0,0:0:0:0:
13,128,42124,2,0,B|45:156|26:207|26:207|78:193|120:223,1,172.500006580353,2|0,0:0|0:0,0:0:0:0:
272,346,42806,5,0,0:0:0:0:
379,160,43033,2,0,P|423:160|469:207,1,86.2500032901765,8|0,0:0|0:0,0:0:0:0:
311,95,43374,2,0,P|338:60|404:54,1,86.2500032901765,8|0,0:0|0:0,0:0:0:0:
472,79,43715,1,8,0:0:0:0:
190,271,43942,6,0,P|216:218|277:271,1,129.375004935265,4|0,0:0|0:0,0:0:0:0:
87,241,44396,2,0,P|103:199|132:160,1,86.2500032901765,2|0,0:0|0:0,0:0:0:0:
315,20,44851,2,0,P|261:33|225:6,1,86.2500032901765,2|0,0:0|0:0,0:0:0:0:
372,101,45192,2,0,P|335:127|278:136,1,86.2500032901765,2|0,0:0|0:0,0:0:0:0:
427,21,45533,1,2,0:0:0:0:
504,79,45646,1,0,0:0:0:0:
448,165,45760,6,0,P|453:240|469:273,1,86.2500032901765,8|0,0:0|0:0,0:0:0:0:
324,335,46101,1,0,0:0:0:0:
324,335,46215,2,0,P|334:293|332:250,1,86.2500032901765,8|0,0:0|0:0,0:0:0:0:
206,153,46556,1,2,0:0:0:0:
206,153,46669,6,0,L|196:260,1,86.2500032901765,2|0,0:0|0:0,0:0:0:0:
114,81,47010,2,0,L|104:188,1,86.2500032901765,2|0,0:0|0:0,0:0:0:0:
30,10,47351,1,2,0:0:0:0:
260,96,47578,6,0,P|303:103|375:84,1,86.2500032901765,8|2,0:0|0:0,0:0:0:0:
415,23,47919,1,0,0:0:0:0:
325,0,48033,1,2,0:0:0:0:
114,81,48260,1,2,0:0:0:0:
340,181,48487,2,0,P|349:122|339:81,1,86.2500032901765,2|0,0:0|0:0,0:0:0:0:
100,200,48942,2,0,P|88:256|104:288,1,86.2500032901765,2|8,0:0|0:0,0:0:0:0:
168,245,49283,1,2,0:0:0:0:
168,245,49396,6,0,L|236:241,1,57.5,8|2,0:0|0:0,0:0:0:0:
288,292,49737,1,0,0:0:0:0:
288,292,49851,2,0,L|332:288,6,28.75,2|2|2|2|2|2|2,0:0|0:0|0:0|0:0|0:0|0:0|0:0,0:0:0:0:
226,242,50306,1,2,0:0:0:0:
445,124,50533,6,2,L|515:107,1,43.1250016450883
316,88,50760,2,2,L|386:71,1,43.1250016450883
188,44,50987,2,2,L|229:33,1,43.1250016450883
65,183,51215,6,0,P|19:135|22:77,1,86.2500032901765,8|0,0:0|0:0,0:0:0:0:
245,189,51669,1,2,0:0:0:0:
154,239,51783,2,0,P|143:189|172:125,1,86.2500032901765,2|0,0:0|0:0,0:0:0:0:
245,189,52124,1,2,0:0:0:0:
444,275,52351,1,8,0:0:0:0:
400,357,52465,1,0,0:0:0:0:
338,293,52578,1,8,0:0:0:0:
374,63,52806,1,0,0:0:0:0:
338,293,53033,6,0,P|283:293|234:254,1,86.2500032901765,2|0,0:0|0:0,0:0:0:0:
133,132,53487,2,0,L|130:96,6,28.75,2|2|2|2|2|2|2,0:0|0:0|0:0|0:0|0:0|0:0|0:0,0:0:0:0:
77,229,53942,1,2,0:0:0:0:
376,224,54169,1,0,0:0:0:0:
232,104,54396,1,2,0:0:0:0:
140,328,54624,1,2,0:0:0:0:
456,151,54851,6,0,P|476:186|467:263,1,86.2500032901765,2|0,0:0|0:0,0:0:0:0:
256,276,55306,2,0,P|236:241|245:164,1,86.2500032901765,2|8,0:0|0:0,0:0:0:0:
341,331,55646,1,2,0:0:0:0:
258,380,55760,1,8,0:0:0:0:
106,231,55987,2,0,P|58:246|30:286,2,86.2500032901765,2|0|2,0:0|0:0|0:0,0:0:0:0:
333,232,56669,5,2,0:0:0:0:
406,179,56783,1,0,0:0:0:0:
398,88,56896,1,2,0:0:0:0:
313,53,57010,1,0,0:0:0:0:
237,104,57124,2,0,L|231:151,6,28.75,2|0|2|0|2|0|2,0:0|0:0|0:0|0:0|0:0|0:0|0:0,0:0:0:0:
168,44,57578,1,8,0:0:0:0:
73,235,57806,6,0,L|108:239,1,28.75,2|0,0:0|0:0,0:0:0:0:
198,284,58033,2,0,L|163:288,1,28.75,2|0,0:0|0:0,0:0:0:0:
81,346,58260,2,0,P|92:318|106:304,1,28.75,2|0,0:0|0:0,0:0:0:0:
390,255,58487,6,0,L|322:260,1,43.1250016450883,6|0,0:0|0:0,0:0:0:0:
390,255,58715,2,0,L|456:251,1,43.1250016450883,2|0,0:0|0:0,0:0:0:0:
275,199,58942,2,0,B|279:132|329:106|329:106|439:149|439:149|490:100|480:43,1,345.000013160706,2|0,0:0|0:0,0:0:0:0:
263,17,59624,2,0,L|253:76,1,43.1250016450883,2|0,0:0|0:0,0:0:0:0:
96,82,59851,2,0,L|103:39,1,43.1250016450883,2|0,0:0|0:0,0:0:0:0:
208,138,60078,2,0,P|160:145|136:132,1,43.1250016450883,2|0,0:0|0:0,0:0:0:0:
390,129,60306,6,0,L|456:133,1,43.1250016450883,2|0,0:0|0:0,0:0:0:0:
390,129,60533,2,0,L|322:124,1,43.1250016450883,2|0,0:0|0:0,0:0:0:0:
504,187,60760,2,0,B|500:254|450:280|450:280|340:237|340:237|289:286|299:343,1,345.000013160706,2|0,0:0|0:0,0:0:0:0:
504,187,61442,1,2,0:0:0:0:
470,159,61556,1,0,0:0:0:0:
432,131,61669,2,0,P|399:89|404:39,1,86.25,6|0,0:0|0:0,0:0:0:0:
506,60,62124,5,8,0:0:0:0:
506,60,62351,1,2,0:0:0:0:
315,167,62578,1,8,0:0:0:0:
315,167,62806,1,2,0:0:0:0:
506,60,63033,1,8,0:0:0:0:
215,119,63487,5,2,0:0:0:0:
215,119,63715,2,0,P|235:189|319:136,1,172.500006580353,2|0,0:0|0:0,0:0:0:0:
137,75,64396,5,2,0:0:0:0:
137,75,64624,2,0,P|166:126|216:118,1,115,2|2,0:0|0:0,0:0:0:0:
278,40,65192,1,2,0:0:0:0:
368,73,65306,2,0,P|389:101|392:130,1,43.1250016450883,2|0,0:0|0:0,0:0:0:0:
216,119,65533,2,0,P|215:156|242:180,1,43.1250016450883,2|0,0:0|0:0,0:0:0:0:
338,308,65760,5,10,0:0:0:0:
368,73,65987,1,2,0:0:0:0:
442,364,66215,1,2,0:0:0:0:
472,129,66442,1,0,0:0:0:0:
208,266,66669,5,8,0:0:0:0:
452,245,66896,1,2,0:0:0:0:
384,206,67010,1,2,0:0:0:0:
452,245,67124,1,2,0:0:0:0:
441,45,67351,1,2,0:0:0:0:
186,95,67578,5,10,0:0:0:0:
441,45,67806,1,2,0:0:0:0:
208,266,68033,1,2,0:0:0:0:
249,5,68260,1,0,0:0:0:0:
472,129,68487,1,8,0:0:0:0:
217,179,68715,1,2,0:0:0:0:
382,0,68942,1,2,0:0:0:0:
341,261,69169,1,2,0:0:0:0:
68,152,69396,5,10,0:0:0:0:
105,114,69509,1,0,0:0:0:0:
155,98,69623,1,2,0:0:0:0:
209,109,69737,1,0,0:0:0:0:
272,8,69851,5,10,0:0:0:0:
310,45,69964,1,0,0:0:0:0:
326,95,70078,1,2,0:0:0:0:
315,149,70192,1,0,0:0:0:0:
420,216,70306,5,10,0:0:0:0:
383,254,70419,1,0,0:0:0:0:
333,270,70534,1,0,0:0:0:0:
279,259,70647,1,0,0:0:0:0:
216,360,70761,5,10,0:0:0:0:
180,320,70875,1,0,0:0:0:0:
162,273,70989,1,2,0:0:0:0:
160,156,71669,6,0,B|140:115|108:121|74:110|64:62|111:30|146:56|159:78,1,172.500006580353,2|0,0:0|0:0,0:0:0:0:
160,156,72123,2,0,B|166:111|197:107|226:86|222:37|167:21|142:57|136:81,1,172.500006580353,2|0,0:0|0:0,0:0:0:0:
320,56,72578,6,0,L|349:51,1,23,4|0,0:0|0:0,0:0:0:0:
202,222,73033,6,0,B|163:238|163:238|83:208,1,115,6|0,0:0|0:0,0:0:0:0:
56,23,73487,1,10,0:0:0:0:
271,161,73715,1,0,0:0:0:0:
309,244,73828,1,0,0:0:0:0:
262,315,73942,1,2,0:0:0:0:
328,273,74056,1,0,0:0:0:0:
282,354,74169,1,2,0:0:0:0:
417,117,74396,1,10,0:0:0:0:
462,352,74624,1,2,0:0:0:0:
462,352,74737,6,0,B|421:325|421:325|355:357,1,115,2|0,0:0|0:0,0:0:0:0:
161,316,75078,2,0,B|202:343|202:343|268:311,1,115,2|8,0:0|0:0,0:0:0:0:
86,213,75533,1,0,0:0:0:0:
48,130,75646,1,0,0:0:0:0:
95,59,75760,1,2,0:0:0:0:
29,101,75874,1,0,0:0:0:0:
75,20,75987,1,2,0:0:0:0:
318,150,76215,2,0,B|253:172|253:172|202:138,1,115,10|0,0:0|0:0,0:0:0:0:
447,22,76669,6,0,B|473:48|481:86|481:86|441:83|413:106,1,115,2|0,0:0|0:0,0:0:0:0:
201,53,77124,2,0,B|266:31|266:31|317:65,1,115,10|0,0:0|0:0,0:0:0:0:
318,150,77465,1,0,0:0:0:0:
271,221,77578,1,2,0:0:0:0:
337,179,77692,1,0,0:0:0:0:
291,260,77806,1,0,0:0:0:0:
490,328,78033,1,10,0:0:0:0:
318,150,78260,2,0,B|269:130|269:130|189:165,1,115,2|0,0:0|0:0,0:0:0:0:
497,180,78715,5,2,0:0:0:0:
494,94,78828,1,0,0:0:0:0:
427,40,78942,1,10,0:0:0:0:
346,72,79056,1,0,0:0:0:0:
318,150,79169,1,0,0:0:0:0:
430,368,79396,2,0,B|460:320|460:320|443:257,1,115
359,233,79737,1,0,0:0:0:0:
303,311,79851,6,0,L|185:310,1,115,4|2,0:0|0:0,0:0:0:0:
91,91,80306,6,0,B|129:60|129:60|218:76,1,115,2|0,0:0|0:0,0:0:0:0:
441,132,80760,1,10,0:0:0:0:
235,230,80987,1,0,0:0:0:0:
169,160,81101,1,0,0:0:0:0:
193,71,81215,1,2,0:0:0:0:
208,151,81328,1,0,0:0:0:0:
232,62,81442,1,2,0:0:0:0:
391,228,81669,2,0,B|399:286|399:286|359:357,1,115,10|0,0:0|0:0,0:0:0:0:
277,362,82010,1,2,0:0:0:0:
277,362,82124,6,0,B|203:358|203:358|157:304,2,115,0|2|8,0:0|0:0|0:0,0:0:0:0:
457,184,82806,1,0,0:0:0:0:
488,94,82919,1,0,0:0:0:0:
426,23,83033,1,2,0:0:0:0:
449,102,83146,1,0,0:0:0:0:
387,31,83260,1,2,0:0:0:0:
318,256,83487,1,10,0:0:0:0:
488,94,83715,1,2,0:0:0:0:
193,212,83942,6,0,L|177:338,1,115,2|0,0:0|0:0,0:0:0:0:
133,67,84396,2,0,B|214:31|214:31|285:87,1,172.5,10|2,0:0|0:0,0:0:0:0:
303,185,84851,1,0,0:0:0:0:
254,114,84965,1,0,0:0:0:0:
278,217,85078,1,0,0:0:0:0:
480,149,85306,2,0,B|489:92|489:92|448:44,1,115,10|0,0:0|0:0,0:0:0:0:
214,35,85760,5,2,0:0:0:0:
322,296,85987,1,2,0:0:0:0:
182,130,86215,1,10,0:0:0:0:
182,130,86328,2,0,B|225:147|264:122|264:122|252:166,1,115,2|0,0:0|0:0,0:0:0:0:
189,380,86669,2,0,L|210:315,1,57.5,2|0,0:0|0:0,0:0:0:0:
235,234,86896,1,2,0:0:0:0:
450,207,87124,2,0,L|411:327,1,115,4|0,0:0|0:0,0:0:0:0:
143,76,87578,6,0,P|166:59|195:56,1,57.5,4|0,0:0|0:0,0:0:0:0:
64,212,87806,2,0,P|70:184|82:158,1,57.5
80,304,88033,1,8,0:0:0:0:
292,232,88260,6,0,L|285:289,1,57.5
199,112,88487,2,0,P|192:76|206:30,1,57.5,2|0,0:0|0:0,0:0:0:0:
304,0,88714,2,0,P|311:36|297:82,1,57.5
292,232,88942,2,0,P|285:196|299:150,1,57.5,10|0,0:0|0:0,0:0:0:0:
396,96,89169,2,0,P|403:132|389:178,1,57.5
372,296,89396,5,2,0:0:0:0:
128,280,89624,1,0,0:0:0:0:
244,80,89851,1,8,0:0:0:0:
160,96,90078,6,0,L|244:110,1,57.5
396,96,90305,2,0,P|403:53|381:-3,1,57.5,2|0,0:0|0:0,0:0:0:0:
488,148,90533,2,0,P|486:177|493:205,1,57.5
396,308,90760,2,0,P|402:281|401:252,1,57.5,10|0,0:0|0:0,0:0:0:0:
302,159,90987,2,0,P|295:187|296:216,1,57.5
336,368,91214,5,2,0:0:0:0:
416,168,91442,1,0,0:0:0:0:
191,215,91669,2,0,P|135:199|111:119,1,115,8|0,0:0|0:0,0:0:0:0:
109,153,92010,1,0,0:0:0:0:
228,14,92123,5,2,0:0:0:0:
198,105,92237,1,2,0:0:0:0:
259,52,92351,1,2,0:0:0:0:
229,143,92464,1,2,0:0:0:0:
288,87,92578,1,10,0:0:0:0:
258,178,92692,6,0,B|234:215|234:215|176:216,1,86.25
32,376,93260,1,8,0:0:0:0:
32,376,93373,1,8,0:0:0:0:
32,376,93487,2,0,L|20:300,1,57.5,8|0,0:0|0:0,0:0:0:0:
113,141,93828,1,0,0:0:0:0:
113,141,93942,6,0,B|100:98|68:99|36:83|33:34|85:9|115:41|125:64,1,172.500006580353,2|0,0:0|0:0,0:0:0:0:
113,141,94396,2,0,B|126:98|158:99|190:83|193:34|141:9|111:41|101:64,1,172.500006580353,6|0,0:0|0:0,0:0:0:0:
298,27,94851,6,0,P|234:31|207:56,1,57.5,2|0,0:0|0:0,0:0:0:0:
296,172,95078,2,0,P|282:130|251:94,1,57.5
256,256,95305,1,8,0:0:0:0:
376,92,95533,6,0,L|369:-4,1,57.5
488,252,95760,2,0,P|493:295|473:338,1,57.5,2|0,0:0|0:0,0:0:0:0:
376,356,95987,2,0,P|372:328|378:299,1,57.5
488,164,96214,2,0,P|491:136|486:108,1,57.5,10|0,0:0|0:0,0:0:0:0:
376,168,96442,2,0,P|370:197|374:225,1,57.5
480,364,96669,5,2,0:0:0:0:
376,92,96896,1,0,0:0:0:0:
200,312,97123,1,8,0:0:0:0:
277,358,97351,6,0,L|200:347,1,57.5
188,144,97578,2,0,P|229:137|274:143,1,57.5,2|0,0:0|0:0,0:0:0:0:
112,260,97805,2,0,P|71:253|26:259,1,57.5
56,96,98033,2,0,P|69:148|63:178,1,57.5,10|0,0:0|0:0,0:0:0:0:
148,56,98260,2,0,P|150:28|160:1,1,57.5
320,0,98487,5,2,0:0:0:0:
400,276,98714,1,0,0:0:0:0:
324,128,98942,2,0,P|266:103|194:128,1,115,8|0,0:0|0:0,0:0:0:0:
216,113,99283,1,0,0:0:0:0:
97,261,99396,5,2,0:0:0:0:
67,170,99510,1,2,0:0:0:0:
128,223,99623,1,2,0:0:0:0:
98,132,99737,1,2,0:0:0:0:
157,188,99851,1,10,0:0:0:0:
136,104,99965,6,0,B|180:96|180:96|231:123,1,86.25
427,241,100533,1,0,0:0:0:0:
296,160,100760,2,0,P|304:100|264:36,1,115,8|0,0:0|0:0,0:0:0:0:
216,115,101101,1,0,0:0:0:0:
140,268,101215,6,0,B|136:240|104:228|88:196|111:172|148:200|148:200|183:172|203:192|192:228|168:240|160:268,1,230,2|2,0:0|0:0,0:0:0:0:
480,304,101896,1,0,0:0:0:0:
480,304,102010,1,0,0:0:0:0:
480,304,102124,6,0,P|428:288|376:304,1,86.2500032901765,8|0,0:0|0:0,0:0:0:0:
404,180,102465,2,0,P|344:188|292:228,1,86.2500032901765,8|0,0:0|0:0,0:0:0:0:
240,92,102806,2,0,P|288:100|348:68,1,86.2500032901765,2|0,0:0|0:0,0:0:0:0:
472,8,103260,1,0,0:0:0:0:
158,45,103487,1,2,0:0:0:0:
157,139,103601,1,0,0:0:0:0:
240,92,103715,1,2,0:0:0:0:
180,332,103942,6,0,P|188:272|176:240,1,86.2500032901765,8|0,0:0|0:0,0:0:0:0:
48,192,104283,2,0,P|38:233|48:275,1,86.2500032901765,8|0,0:0|0:0,0:0:0:0:
252,192,104624,2,0,P|288:200|324:184,1,43.1250016450883,10|2,0:0|0:0,0:0:0:0:
284,112,104851,1,2,0:0:0:0:
332,288,105078,1,0,0:0:0:0:
260,20,105306,1,2,0:0:0:0:
424,228,105533,1,2,0:0:0:0:
416,316,105646,1,0,0:0:0:0:
332,288,105760,6,0,P|316:240|328:192,1,86.2500032901765,10|0,0:0|0:0,0:0:0:0:
424,48,106101,2,0,P|380:80|324:84,1,86.2500032901765,8|0,0:0|0:0,0:0:0:0:
196,128,106442,2,0,P|224:132|268:120,1,43.1250016450883,10|2,0:0|0:0,0:0:0:0:
40,96,106669,2,0,L|32:140,1,43.1250016450883,2|0,0:0|0:0,0:0:0:0:
132,0,106896,2,0,L|140:44,1,43.1250016450883,2|0,0:0|0:0,0:0:0:0:
132,280,107124,2,0,L|111:172,1,86.2500032901765,2|0,0:0|0:0,0:0:0:0:
268,28,107578,5,2,0:0:0:0:
244,252,107806,1,0,0:0:0:0:
144,116,108033,1,2,0:0:0:0:
412,48,108260,1,0,0:0:0:0:
284,285,108487,6,0,P|231:321|276:265,1,172.5,2|0,0:0|0:0,0:0:0:0:
456,120,108942,6,0,B|468:240|316:312|272:192|300:92|408:96|512:208|396:312,1,460,4|4,0:0|0:0,0:0:0:0:
243,251,109624,1,0,0:0:0:0:
276,48,109851,1,2,0:0:0:0:
260,136,109965,1,0,0:0:0:0:
276,48,110078,1,2,0:0:0:0:
420,272,110306,2,0,P|372:296|332:288,1,86.2500032901765
96,148,110760,1,2,0:0:0:0:
168,204,110874,1,0,0:0:0:0:
96,148,110987,1,2,0:0:0:0:
352,96,111215,6,0,P|364:140|336:196,1,86.2500032901765,8|0,0:0|0:0,0:0:0:0:
176,328,111669,1,2,0:0:0:0:
232,264,111783,1,0,0:0:0:0:
260,344,111896,1,2,0:0:0:0:
176,328,112010,1,0,0:0:0:0:
232,264,112124,1,2,0:0:0:0:
436,320,112351,1,0,0:0:0:0:
240,176,112578,2,0,B|181:162|181:162|184:200|140:248,1,129.375004935265,4|0,0:0|0:0,0:0:0:0:
84,272,113033,6,0,P|32:260|0:196,1,129.375004935265,8|0,0:0|0:0,0:0:0:0:
28,108,113487,1,0,0:0:0:0:
196,44,113715,1,2,0:0:0:0:
236,304,113942,1,0,0:0:0:0:
268,92,114169,1,0,0:0:0:0:
304,352,114396,1,2,0:0:0:0:
208,148,114624,1,0,0:0:0:0:
0,196,114851,5,2,0:0:0:0:
12,196,115079,1,0,0:0:0:0:
168,264,115306,1,2,0:0:0:0:
156,264,115534,1,0,0:0:0:0:
28,340,115760,1,2,0:0:0:0:
292,264,115987,6,0,L|300:216,1,28.75,2|0,0:0|0:0,0:0:0:0:
364,148,116215,2,0,L|356:196,1,28.75,2|0,0:0|0:0,0:0:0:0:
408,268,116442,2,0,P|380:260|364:244,1,28.75,2|0,0:0|0:0,0:0:0:0:
152,92,116669,6,0,P|128:96|108:88,1,43.1250016450883,6|0,0:0|0:0,0:0:0:0:
152,92,116896,2,0,P|176:88|196:96,1,43.1250016450883,2|0,0:0|0:0,0:0:0:0:
52,184,117124,2,0,B|80:256|80:256|152:236|172:208|140:180|104:184|104:224|164:268|164:268|256:192,1,345.000013160706,2|0,0:0|0:0,0:0:0:0:
412,84,117806,2,0,L|408:28,1,43.1250016450883,2|0,0:0|0:0,0:0:0:0:
320,160,118033,2,0,L|316:203,1,43.1250016450883,2|0,0:0|0:0,0:0:0:0:
304,60,118260,2,0,P|272:56|244:64,1,43.1250016450883,2|0,0:0|0:0,0:0:0:0:
152,292,118487,6,0,P|128:296|108:288,1,43.1250016450883,2|0,0:0|0:0,0:0:0:0:
152,292,118715,2,0,P|176:288|196:296,1,43.1250016450883,2|0,0:0|0:0,0:0:0:0:
52,200,118942,2,0,B|80:128|80:128|152:148|172:176|140:204|104:200|104:160|164:116|164:116|256:192,1,345.000013160706,2|0,0:0|0:0,0:0:0:0:
368,288,119624,1,2,0:0:0:0:
384,240,119737,1,0,0:0:0:0:
400,192,119851,2,0,P|444:148|472:144,1,86.25,6|0,0:0|0:0,0:0:0:0:
492,248,120306,5,8,0:0:0:0:
492,248,120533,1,2,0:0:0:0:
344,72,120760,1,8,0:0:0:0:
344,72,120987,1,2,0:0:0:0:
492,248,121215,1,8,0:0:0:0:
220,162,121669,5,2,0:0:0:0:
220,162,121896,2,0,P|204:236|124:200,1,172.500006580353,2|0,0:0|0:0,0:0:0:0:
300,115,122578,5,2,0:0:0:0:
300,115,122806,2,0,P|277:161|204:148,1,115,2|2,0:0|0:0,0:0:0:0:
160,80,123374,1,0,0:0:0:0:
72,120,123487,2,0,L|60:180,1,43.1250016450883,2|0,0:0|0:0,0:0:0:0:
244,52,123715,2,0,L|256:-8,1,43.1250016450883,2|0,0:0|0:0,0:0:0:0:
56,24,123942,5,10,0:0:0:0:
200,264,124169,1,2,0:0:0:0:
160,80,124396,1,2,0:0:0:0:
32,308,124624,1,0,0:0:0:0:
328,188,124851,1,8,0:0:0:0:
60,232,125078,1,2,0:0:0:0:
116,288,125192,1,2,0:0:0:0:
60,232,125306,1,2,0:0:0:0:
160,80,125533,1,2,0:0:0:0:
312,276,125760,5,10,0:0:0:0:
80,136,125987,1,2,0:0:0:0:
332,92,126215,1,2,0:0:0:0:
120,320,126442,1,0,0:0:0:0:
160,80,126669,1,8,0:0:0:0:
444,100,126896,1,2,0:0:0:0:
288,304,127124,1,2,0:0:0:0:
340,8,127351,1,2,0:0:0:0:
384,304,127578,5,10,0:0:0:0:
336,304,127692,1,0,0:0:0:0:
288,304,127806,1,2,0:0:0:0:
244,304,127919,1,0,0:0:0:0:
128,204,128033,5,10,0:0:0:0:
176,204,128147,1,0,0:0:0:0:
224,204,128261,1,2,0:0:0:0:
268,204,128374,1,0,0:0:0:0:
388,108,128487,5,10,0:0:0:0:
340,108,128601,1,0,0:0:0:0:
292,108,128715,1,0,0:0:0:0:
248,108,128828,1,0,0:0:0:0:
132,8,128942,5,10,0:0:0:0:
180,8,129056,1,0,0:0:0:0:
228,8,129170,1,2,0:0:0:0:
352,156,129851,6,0,B|350:111|319:103|292:80|302:31|359:21|379:59|383:84,1,172.500006580353,2|0,0:0|0:0,0:0:0:0:
352,156,130305,2,0,B|375:117|406:127|441:119|456:73|413:35|375:58|360:78,1,172.500006580353,2|0,0:0|0:0,0:0:0:0:
172,196,130760,6,0,L|140:200,1,23,4|0,0:0|0:0,0:0:0:0:
310,222,131215,6,0,B|349:238|349:238|429:208,1,115,6|0,0:0|0:0,0:0:0:0:
456,23,131669,1,10,0:0:0:0:
241,161,131897,1,0,0:0:0:0:
203,244,132010,1,0,0:0:0:0:
250,315,132124,1,2,0:0:0:0:
184,273,132238,1,0,0:0:0:0:
230,354,132351,1,2,0:0:0:0:
95,117,132578,1,10,0:0:0:0:
50,352,132806,1,2,0:0:0:0:
50,352,132919,6,0,B|91:325|91:325|157:357,1,115,2|0,0:0|0:0,0:0:0:0:
351,316,133260,2,0,B|310:343|310:343|244:311,1,115,2|8,0:0|0:0,0:0:0:0:
426,213,133715,1,0,0:0:0:0:
464,130,133828,1,0,0:0:0:0:
417,59,133942,1,2,0:0:0:0:
483,101,134056,1,0,0:0:0:0:
437,20,134169,1,2,0:0:0:0:
194,150,134397,2,0,B|259:172|259:172|310:138,1,115,10|2,0:0|0:0,0:0:0:0:
65,22,134851,6,0,B|39:48|31:86|31:86|71:83|99:106,1,115,2|0,0:0|0:0,0:0:0:0:
311,53,135306,2,0,B|246:31|246:31|195:65,1,115,10|0,0:0|0:0,0:0:0:0:
194,150,135647,1,0,0:0:0:0:
241,221,135760,1,2,0:0:0:0:
175,179,135874,1,0,0:0:0:0:
221,260,135988,1,0,0:0:0:0:
22,328,136215,1,10,0:0:0:0:
194,150,136442,2,0,B|243:130|243:130|323:165,1,115,2|0,0:0|0:0,0:0:0:0:
15,180,136897,5,2,0:0:0:0:
18,94,137010,1,0,0:0:0:0:
85,40,137124,1,10,0:0:0:0:
166,72,137238,1,0,0:0:0:0:
194,150,137351,1,0,0:0:0:0:
82,368,137578,2,0,B|52:320|52:320|69:257,1,115
153,233,137919,1,0,0:0:0:0:
209,311,138033,6,0,L|327:310,1,115,4|2,0:0|0:0,0:0:0:0:
421,91,138488,6,0,B|383:60|383:60|294:76,1,115,2|0,0:0|0:0,0:0:0:0:
71,132,138942,1,10,0:0:0:0:
277,230,139169,1,0,0:0:0:0:
343,160,139283,1,0,0:0:0:0:
319,71,139397,1,2,0:0:0:0:
304,151,139510,1,0,0:0:0:0:
280,62,139624,1,2,0:0:0:0:
121,228,139851,2,0,B|113:286|113:286|153:357,1,115,10|2,0:0|0:0,0:0:0:0:
235,362,140192,1,2,0:0:0:0:
235,362,140306,6,0,B|309:358|309:358|355:304,2,115,0|2|8,0:0|0:0|0:0,0:0:0:0:
55,184,140988,1,0,0:0:0:0:
24,94,141101,1,0,0:0:0:0:
86,23,141215,1,2,0:0:0:0:
63,102,141328,1,0,0:0:0:0:
125,31,141442,1,2,0:0:0:0:
194,256,141669,1,10,0:0:0:0:
24,94,141897,1,2,0:0:0:0:
319,212,142124,6,0,L|335:338,1,115,2|0,0:0|0:0,0:0:0:0:
379,67,142578,2,0,B|298:31|298:31|227:87,1,172.5,10|2,0:0|0:0,0:0:0:0:
209,185,143033,1,0,0:0:0:0:
258,114,143147,1,0,0:0:0:0:
234,217,143260,1,0,0:0:0:0:
32,149,143488,2,0,B|23:92|23:92|64:44,1,115,10|0,0:0|0:0,0:0:0:0:
298,35,143942,5,2,0:0:0:0:
190,296,144169,1,0,0:0:0:0:
330,130,144397,1,8,0:0:0:0:
330,130,144510,2,0,B|287:147|248:122|248:122|260:166,1,115,2|2,0:0|0:0,0:0:0:0:
323,380,144851,2,0,L|302:315,1,57.5,8|2,0:0|0:0,0:0:0:0:
277,234,145078,1,8,0:0:0:0:
62,207,145306,6,0,L|101:327,1,115,10|2,0:0|0:0,0:0:0:0:
256,192,145760,12,4,147578,0:0:0:0:
336,260,153033,6,0,P|368:280|440:264,1,86.2500032901765,2|0,0:0|0:0,0:0:0:0:
252,164,153374,1,0,0:0:0:0:
252,164,153487,2,0,P|300:164|344:128,1,86.2500032901765,2|0,0:0|0:0,0:0:0:0:
144,88,153828,1,0,0:0:0:0:
144,88,153942,6,0,L|132:180,1,86.2500032901765,2|0,0:0|0:0,0:0:0:0:
196,352,154283,2,0,L|208:260,1,86.2500032901765,2|0,0:0|0:0,0:0:0:0:
80,240,154624,1,2,0:0:0:0:
128,312,154737,1,0,0:0:0:0:
207,266,154851,5,10,0:0:0:0:
284,40,155078,1,2,0:0:0:0:
292,340,155306,5,8,0:0:0:0:
224,104,155533,1,0,0:0:0:0:
464,156,155760,5,10,0:0:0:0:
464,156,155874,2,0,P|376:180|360:168,1,86.2500032901765
280,260,156215,1,10,0:0:0:0:
280,260,156328,2,0,P|208:236|192:204,1,86.2500032901765
352,16,156669,5,10,0:0:0:0:
188,248,156896,1,0,0:0:0:0:
464,156,157124,5,10,0:0:0:0:
152,100,157351,1,0,0:0:0:0:
312,288,157578,5,8,0:0:0:0:
248,16,157806,1,2,0:0:0:0:
136,308,158033,5,10,0:0:0:0:
332,80,158260,1,2,0:0:0:0:
72,188,158487,5,8,0:0:0:0:
84,152,158601,1,0,0:0:0:0:
72,188,158715,1,2,0:0:0:0:
84,152,158829,1,0,0:0:0:0:
160,200,158942,5,10,0:0:0:0:
172,164,159056,1,0,0:0:0:0:
160,200,159170,1,2,0:0:0:0:
172,164,159284,1,0,0:0:0:0:
248,212,159396,5,10,0:0:0:0:
260,176,159510,1,0,0:0:0:0:
248,212,159624,1,2,0:0:0:0:
260,176,159738,1,0,0:0:0:0:
336,224,159851,5,10,0:0:0:0:
348,188,159965,1,0,0:0:0:0:
336,224,160079,1,0,0:0:0:0:
348,188,160193,1,0,0:0:0:0:
414,231,160306,6,0,B|456:248|456:248|455:295|455:295|432:308,1,115,2|0,0:0|0:0,0:0:0:0:
348,188,161669,6,0,B|365:15|365:15|309:83,1,230,4|2,0:0|0:0,0:0:0:0:
261,139,162010,1,0,0:0:0:0:
348,188,162124,1,6,0:0:0:0:
93,269,162351,5,2,0:0:0:0:
181,245,162465,1,0,0:0:0:0:
113,177,162578,1,8,0:0:0:0:
25,205,162692,1,0,0:0:0:0:
93,269,162806,1,2,0:0:0:0:
181,245,162919,1,0,0:0:0:0:
113,177,163033,1,0,0:0:0:0:
319,189,163260,5,0,0:0:0:0:
307,101,163374,1,0,0:0:0:0:
407,229,163487,1,8,0:0:0:0:
395,141,163601,2,0,L|384:56,1,57.5
188,16,163942,5,0,0:0:0:0:
181,245,164169,1,2,0:0:0:0:
230,167,164282,1,0,0:0:0:0:
319,189,164396,1,8,0:0:0:0:
326,281,164510,1,0,0:0:0:0:
241,316,164624,1,2,0:0:0:0:
181,245,164737,1,0,0:0:0:0:
230,167,164851,6,0,P|276:172|304:184,1,57.5
132,320,165078,2,0,P|86:315|58:303,1,57.5
100,208,165306,1,8,0:0:0:0:
181,245,165419,1,0,0:0:0:0:
132,320,165533,1,0,0:0:0:0:
108,56,165760,5,0,0:0:0:0:
152,128,165874,1,0,0:0:0:0:
230,167,165987,1,2,0:0:0:0:
288,100,166101,1,0,0:0:0:0:
300,12,166215,1,8,0:0:0:0:
100,208,166442,2,0,P|92:260|96:280,1,57.5,2|0,0:0|0:0,0:0:0:0:
240,356,166669,6,0,L|328:348,1,57.5,2|2,0:0|0:0,0:0:0:0:
240,256,166896,1,2,0:0:0:0:
240,256,167010,2,0,L|182:261,1,57.5,2|10,0:0|0:0,0:0:0:0:
148,348,167237,1,2,0:0:0:0:
240,356,167351,1,0,0:0:0:0:
390,150,167578,5,2,0:0:0:0:
448,83,167692,1,0,0:0:0:0:
512,151,167806,2,0,P|516:183|504:227,1,57.5,2|0,0:0|0:0,0:0:0:0:
298,178,168033,2,0,P|293:149|297:121,1,57.5,10|0,0:0|0:0,0:0:0:0:
390,150,168260,1,2,0:0:0:0:
366,238,168374,1,0,0:0:0:0:
278,270,168487,6,0,L|202:274,1,57.5,2|0,0:0|0:0,0:0:0:0:
414,314,168715,2,0,L|490:318,1,57.5,2|0,0:0|0:0,0:0:0:0:
218,182,168942,5,8,0:0:0:0:
446,242,169093,1,2,0:0:0:0:
370,78,169245,1,8,0:0:0:0:
112,152,169396,6,0,B|88:204|88:204|112:264,1,115,4|0,0:0|0:0,0:0:0:0:
144,336,169965,6,0,L|152:356,4,14.375,2|2|2|2|2,0:0|0:0|0:0|0:0|0:0,0:0:0:0:
192,268,170306,6,0,L|280:248,1,57.500002193451,2|0,0:0|0:0,0:0:0:0:
352,232,170609,1,0,0:0:0:0:
512,88,170760,6,0,L|424:68,1,57.500002193451,2|0,0:0|0:0,0:0:0:0:
352,52,171063,1,0,0:0:0:0:
64,68,171215,5,2,0:0:0:0:
180,148,171366,1,0,0:0:0:0:
248,28,171518,1,0,0:0:0:0:
47,186,171669,5,2,0:0:0:0:
187,190,171820,1,2,0:0:0:0:
179,53,171972,1,0,0:0:0:0:
97,295,172124,5,2,0:0:0:0:
217,222,172275,1,0,0:0:0:0:
135,111,172427,1,0,0:0:0:0:
178,364,172578,2,0,B|240:360|240:360|268:320|268:320|336:316,1,172.500006580353,4|0,0:0|0:0,0:0:0:0:
420,344,172919,1,0,0:0:0:0:
372,180,173033,6,0,P|360:128|360:104,1,57.5,6|0,0:0|0:0,0:0:0:0:
500,80,173260,2,0,P|496:108|487:135,1,57.5
296,232,173487,2,0,P|264:172|276:116,1,115,8|0,0:0|0:0,0:0:0:0:
324,44,173828,1,0,0:0:0:0:
168,24,173942,2,0,L|232:32,1,57.5,2|0,1:0|0:0,0:0:0:0:
60,80,174169,1,0,0:0:0:0:
60,80,174283,2,0,L|-4:88,1,57.5,2|8,1:0|0:0,0:0:0:0:
112,172,174510,1,0,0:0:0:0:
112,172,174624,2,0,L|176:180,1,57.5,2|0,1:0|0:0,0:0:0:0:
204,272,174851,5,2,0:0:0:0:
169,179,174965,1,0,0:0:0:0:
256,204,175078,1,2,0:0:0:0:
221,111,175192,1,0,0:0:0:0:
308,136,175306,2,0,P|304:72|252:24,1,115,10|0,1:0|0:0,0:0:0:0:
272,34,175646,1,2,0:0:0:0:
62,112,175760,6,2,B|62:164|30:192|30:192|66:212|70:280,1,172.500006580353
192,340,176101,1,0,0:0:0:0:
192,340,176215,2,2,B|184:264|232:212|232:212|176:176|176:176|220:128|204:40,1,345,2|0,0:0|0:0,0:0:0:0:
108,8,176669,5,4,0:0:0:0:
381,30,176896,1,0,0:0:0:0:
174,176,177124,2,0,P|257:147|314:172,1,115,8|0,0:0|0:0,0:0:0:0:
332,216,177465,1,8,0:0:0:0:
332,216,177806,1,0,0:0:0:0:
512,261,178033,1,8,0:0:0:0:
304,328,178260,1,2,0:0:0:0:
512,64,178487,6,0,L|492:192,1,115,2|0,0:0|0:0,0:0:0:0:
279,152,178942,2,0,P|337:151|397:199,1,115,8|0,0:0|0:0,0:0:0:0:
400,264,179283,1,8,0:0:0:0:
400,264,179623,1,0,0:0:0:0:
348,80,179851,1,8,0:0:0:0:
304,324,180078,1,2,0:0:0:0:
16,216,180306,6,0,L|124:152,1,115,2|0,0:0|0:0,0:0:0:0:
169,338,180760,2,0,P|156:287|182:215,1,115,8|0,0:0|0:0,0:0:0:0:
240,180,181101,1,8,0:0:0:0:
240,180,181442,1,2,0:0:0:0:
456,112,181669,1,10,0:0:0:0:
292,280,181896,1,2,0:0:0:0:
512,177,182124,6,0,B|458:196|458:196|395:179,1,115,6|0,0:0|0:0,0:0:0:0:
177,50,182578,1,10,0:0:0:0:
160,152,182692,2,0,P|106:125|76:48,1,115,0|2,0:0|0:0,0:0:0:0:
218,216,183033,2,0,P|191:250|160:262,1,57.5,8|2,0:0|0:0,0:0:0:0:
93,284,183260,1,8,0:0:0:0:
177,50,183487,1,0,0:0:0:0:
292,280,183715,1,0,0:0:0:0:
472,160,183942,6,0,L|356:156,1,115,4|0,0:0|0:0,0:0:0:0:
288,4,184396,2,0,P|292:64|264:120,1,115,8|0,0:0|0:0,0:0:0:0:
192,136,184737,1,8,0:0:0:0:
192,136,185079,1,0,0:0:0:0:
32,32,185306,1,8,0:0:0:0:
288,4,185533,1,2,0:0:0:0:
80,272,185760,6,0,L|104:140,1,115,2|0,0:0|0:0,0:0:0:0:
284,300,186215,2,0,P|236:264|212:212,1,115,8|0,0:0|0:0,0:0:0:0:
192,136,186556,1,8,0:0:0:0:
192,136,186896,1,0,0:0:0:0:
384,232,187124,1,8,0:0:0:0:
160,320,187351,1,2,0:0:0:0:
363,118,187578,6,0,L|391:274,1,115,2|0,0:0|0:0,0:0:0:0:
176,248,188033,2,0,P|232:236|300:268,1,115,8|0,0:0|0:0,0:0:0:0:
348,308,188374,1,8,0:0:0:0:
348,308,188714,1,0,0:0:0:0:
180,320,188942,1,8,0:0:0:0:
284,128,189169,1,2,0:0:0:0:
116,192,189396,6,0,P|68:232|64:312,1,115,2|0,0:0|0:0,0:0:0:0:
264,344,189851,1,2,0:0:0:0:
264,344,189965,2,0,L|288:224,1,115
352,184,190306,2,0,P|388:180|428:188,2,57.5,2|0|2,0:0|0:0|0:0,0:0:0:0:
168,256,190760,1,2,0:0:0:0:
356,32,190987,6,0,L|416:32,1,57.5,2|0,0:0|0:0,0:0:0:0:
500,80,191669,6,0,P|512:168|492:208,1,115,4|0,0:0|0:0,0:0:0:0:
360,312,192124,2,0,P|348:284|352:236,1,57.5,2|0,0:0|0:0,0:0:0:0:
260,204,192351,2,0,P|258:232|246:258,1,57.5
84,148,192578,2,0,P|85:176|97:202,1,57.5,10|0,0:0|0:0,0:0:0:0:
188,116,192806,2,0,P|186:87|174:61,1,57.5
88,32,193033,5,2,0:0:0:0:
164,252,193260,1,0,0:0:0:0:
364,120,193487,1,8,0:0:0:0:
392,152,193715,6,0,L|396:224,1,57.5
236,328,193942,2,0,P|272:336|316:328,1,57.5,2|0,0:0|0:0,0:0:0:0:
252,232,194169,2,0,P|216:224|172:232,1,57.5
48,292,194396,2,0,P|64:260|64:220,1,57.5,10|0,0:0|0:0,0:0:0:0:
32,100,194624,2,0,P|16:132|16:172,1,57.5
120,152,194851,5,2,0:0:0:0:
376,180,195078,1,0,0:0:0:0:
170,328,195306,2,0,P|166:264|222:212,1,115,8|0,0:0|0:0,0:0:0:0:
194,225,195646,1,0,0:0:0:0:
332,272,195760,5,2,0:0:0:0:
428,248,195874,1,2,0:0:0:0:
304,236,195987,1,2,0:0:0:0:
400,212,196101,1,2,0:0:0:0:
280,204,196215,1,10,0:0:0:0:
376,180,196328,6,0,B|420:168|420:168|472:184,1,86.25
248,136,196896,1,8,0:0:0:0:
248,136,197010,1,8,0:0:0:0:
248,136,197124,2,0,L|224:56,1,57.5,8|0,0:0|0:0,0:0:0:0:
120,296,197465,1,0,0:0:0:0:
120,296,197578,6,0,B|107:253|75:254|43:238|40:189|92:164|122:196|132:219,1,172.500006580353,2|0,0:0|0:0,0:0:0:0:
120,296,198032,2,0,B|133:253|165:254|197:238|200:189|148:164|118:196|108:219,1,172.500006580353,6|0,0:0|0:0,0:0:0:0:
332,128,198487,6,0,P|344:176|340:224,1,57.5,2|0,0:0|0:0,0:0:0:0:
220,44,198715,2,0,P|260:52|288:76,1,57.5
132,32,198942,1,8,0:0:0:0:
62,205,199169,6,0,L|142:201,1,57.5
236,336,199396,2,0,P|204:352|148:336,1,57.5,2|0,0:0|0:0,0:0:0:0:
264,240,199624,2,0,P|292:242|317:256,1,57.5
440,360,199851,2,0,P|428:328|432:288,1,57.5,10|0,0:0|0:0,0:0:0:0:
484,184,200078,2,0,P|496:216|492:256,1,57.5
392,228,200306,5,2,0:0:0:0:
208,28,200533,1,0,0:0:0:0:
136,296,200760,1,8,0:0:0:0:
156,324,200987,6,0,L|232:312,1,57.5
300,136,201215,2,0,P|260:128|232:136,1,57.5,2|0,0:0|0:0,0:0:0:0:
132,216,201442,2,0,P|172:224|200:216,1,57.5
112,40,201669,2,0,P|116:72|100:120,1,57.5,10|0,0:0|0:0,0:0:0:0:
8,172,201896,2,0,P|4:140|20:92,1,57.5
28,28,202124,5,2,0:0:0:0:
244,132,202351,1,0,0:0:0:0:
112,328,202578,2,0,P|28:308|16:264,1,115,8|0,0:0|0:0,0:0:0:0:
18,289,202919,1,0,0:0:0:0:
104,220,203033,5,2,0:0:0:0:
200,256,203146,1,2,0:0:0:0:
140,188,203260,1,2,0:0:0:0:
236,224,203373,1,2,0:0:0:0:
176,156,203487,1,10,0:0:0:0:
272,192,203601,6,0,B|300:232|300:232|296:288,1,86.25
92,340,204169,2,0,L|100:260,1,43.1250016450883,8|8,0:0|0:0,0:0:0:0:
104,220,204396,1,8,0:0:0:0:
104,220,204510,2,0,P|117:179|152:156,1,86.2500032901765,2|0,0:0|0:0,0:0:0:0:
297,269,204851,6,2,B|321:231|351:241|387:234|403:188|360:149|322:172|306:191,1,172.500006580353,2|0,0:0|0:0,1:0:0:0:
297,269,205305,2,2,B|296:224|265:216|238:192|249:144|306:134|326:173|329:198,1,172.500006580353,2|0,0:0|0:0,1:0:0:0:
