osu file format v14

[General]
AudioFilename: audio.mp3
AudioLeadIn: 0
PreviewTime: 14624
Countdown: 0
SampleSet: Soft
StackLeniency: 0.5
Mode: 0
LetterboxInBreaks: 0
WidescreenStoryboard: 0

[Editor]
DistanceSpacing: 0.9
BeatDivisor: 4
GridSize: 4
TimelineZoom: 1.6

[Metadata]
Title:LIKEY
TitleUnicode:LIKEY
Artist:TWICE
ArtistUnicode:트와이스
Creator:CharmCaster
Version:Easy
Source:
Tags:TWICETAGRAM 1ST ALBUM JYP Entertainment Nayeon Jeongyeon Momo Sana Jihyo Mina Dahyun Chaeyoung Tzuyu 나연 정연 모모 사나 지효 미나 다현 채영 쯔위 kpop cosmiccc leviza sing simuzax 트와이스 라이키
BeatmapID:1464323
BeatmapSetID:688158

[Difficulty]
HPDrainRate:2
CircleSize:2.5
OverallDifficulty:2
ApproachRate:3
SliderMultiplier:1.1
SliderTickRate:1

[Events]
//Background and Video events
Video,-7888,"LIKEY3.avi"
0,0,"better likey.jpg",0,0
//Break Periods
2,102324,107836
2,147778,153291
2,176669,182382
//Storyboard Layer 0 (Background)
//Storyboard Layer 1 (Fail)
//Storyboard Layer 2 (Pass)
//Storyboard Layer 3 (Foreground)
//Storyboard Sound Samples

[TimingPoints]
306,454.545454545455,4,2,0,80,1,0
14396,-100,4,2,45,100,0,0
14851,-100,4,2,0,80,0,1
20760,-100,4,2,0,80,0,0
21669,-100,4,2,45,100,0,0
22124,-100,4,2,0,80,0,1
28487,-100,4,2,0,80,0,0
29396,-100,4,3,0,80,0,0
73033,-100,4,2,0,80,0,1
87124,-100,4,2,45,100,0,0
87578,-100,4,2,0,80,0,1
93487,-100,4,2,0,80,0,0
94396,-100,4,2,45,100,0,0
94851,-100,4,2,0,80,0,1
101215,-100,4,2,0,80,0,0
109396,-100,4,3,0,80,0,0
131215,-100,4,2,0,80,0,1
145760,-100,4,2,0,80,0,0
154851,-100,4,2,0,80,0,0
162124,-100,4,2,0,80,0,0
169396,-100,4,2,60,80,0,0
170306,-100,4,2,0,80,0,0
172578,-100,4,2,61,80,0,0
173033,-100,4,2,0,80,0,0
191669,-100,4,2,45,100,0,1
192578,-100,4,2,0,80,0,1
197124,-100,4,2,0,80,0,0
198033,-100,4,2,45,100,0,0
198487,-100,4,2,0,80,0,1
204851,-100,4,2,0,80,0,0

[Colours]
Combo1 : 252,255,128
Combo2 : 255,151,153
Combo3 : 255,205,151
Combo4 : 176,255,251
Combo5 : 146,222,141
SliderBorder : 246,172,207
SliderTrackOverride : 43,119,197

[HitObjects]
44,288,306,6,0,L|281:308,1,220,2|0,2:0|0:0,0:0:0:0:
352,260,1669,1,0,0:0:0:0:
276,196,2124,2,0,P|201:168|108:198,2,165,2|0|2,0:0|0:0|0:0,0:0:0:0:
368,160,3942,6,0,B|385:49|385:49|254:32,1,220,2|0,0:0|0:0,0:0:0:0:
180,24,5306,1,2,0:0:0:0:
80,16,5760,2,0,P|70:96|91:159,1,110,2|2,0:0|0:0,0:0:0:0:
215,271,7124,1,2,0:0:0:0:
282,198,7578,6,0,L|435:193,1,110,2|8,0:0|0:0,0:0:0:0:
408,96,8487,2,0,L|255:101,1,110,2|8,0:0|0:0,0:0:0:0:
204,132,9396,1,2,0:0:0:0:
132,64,9851,1,8,0:0:0:0:
52,120,10306,2,0,L|52:260,1,110,2|8,0:0|0:0,0:0:0:0:
100,320,11215,6,0,P|208:336|236:320,2,110,2|10|2,0:0|0:0|0:0,0:0:0:0:
24,256,12578,1,10,0:0:0:0:
44,164,13033,6,2,B|128:-8|228:280|328:68,1,330,2|4,0:0|0:0,0:0:0:0:
404,136,14851,6,8,L|344:244,1,110,4|8,0:0|0:0,0:0:0:0:
280,304,15760,1,2,0:0:0:0:
192,260,16215,1,10,0:0:0:0:
100,296,16669,2,0,P|96:236|136:180,1,110,2|8,0:0|0:0,0:0:0:0:
216,168,17578,5,2,0:0:0:0:
304,216,18033,1,10,0:0:0:0:
396,184,18487,2,0,P|424:128|412:72,1,110,2|8,0:0|0:0,0:0:0:0:
344,16,19396,6,2,L|112:52,1,220,2|0,0:0|0:0,0:0:0:0:
32,224,21215,5,2,0:0:0:0:
52,320,21669,1,4,0:0:0:0:
144,344,22124,6,0,P|177:301|177:247,1,110,2|8,0:0|0:0,0:0:0:0:
144,156,23033,1,2,0:0:0:0:
232,112,23487,1,10,0:0:0:0:
296,36,23942,2,0,P|328:88|316:160,1,110,2|8,0:0|0:0,0:0:0:0:
276,220,24851,5,2,0:0:0:0:
196,280,25306,1,10,0:0:0:0:
260,356,25760,2,0,P|312:368|380:356,1,110,2|8,0:0|0:0,0:0:0:0:
452,304,26669,6,0,L|436:64,1,220,2|0,0:0|0:0,0:0:0:0:
356,24,28033,2,0,P|296:12|232:32,1,110,8|4,0:0|3:0,0:0:0:0:
68,104,29396,6,0,B|32:208|32:208|68:324,1,220,6|0,0:0|0:0,0:0:0:0:
160,344,30760,1,8,0:0:0:0:
256,316,31215,2,0,P|310:228|240:120,1,220,2|0,0:0|0:0,0:0:0:0:
216,220,32578,1,8,0:0:0:0:
132,168,33033,6,0,B|108:60|108:60|220:32,1,220,2|0,0:0|0:0,0:0:0:0:
305,52,34396,1,8,0:0:0:0:
264,142,34851,2,0,P|308:198|360:206,1,110,2|8,0:0|0:0,0:0:0:0:
404,128,35760,6,0,P|452:216|384:304,1,220,2|0,0:0|0:0,0:0:0:0:
288,332,37124,1,2,0:0:0:0:
204,272,37578,2,0,B|176:224|176:224|196:160,1,110,0|10,0:0|0:0,0:0:0:0:
288,144,38487,6,0,P|222:69|115:105,1,220
68,184,39851,1,10,0:0:0:0:
141,248,40306,2,0,P|243:241|285:132,1,220
216,76,41669,1,2,0:0:0:0:
124,108,42124,1,2,0:0:0:0:
80,300,43033,5,2,0:0:0:0:
168,340,43487,1,2,0:0:0:0:
264,312,43942,2,0,B|368:280|368:280|420:164,1,220,4|0,0:0|0:0,0:0:0:0:
384,84,45306,1,2,0:0:0:0:
288,60,45760,6,0,B|184:92|184:92|132:208,1,220,8|0,0:0|0:0,0:0:0:0:
236,216,47124,1,2,0:0:0:0:
224,308,47578,2,0,B|264:344|264:344|340:344,2,110,8|0|0,0:0|0:0|0:0,0:0:0:0:
128,292,48942,1,0,0:0:0:0:
60,220,49396,2,0,B|40:112|40:112|144:56,1,220,2|2,0:0|0:0,0:0:0:0:
264,200,51215,6,0,P|324:216|384:200,1,110,0|2,0:0|0:0,0:0:0:0:
448,144,52124,1,0,0:0:0:0:
496,232,52578,1,2,0:0:0:0:
416,292,53033,2,0,P|312:320|192:272,1,220,2|2,0:0|0:0,0:0:0:0:
148,212,54396,1,8,0:0:0:0:
52,228,54851,6,0,B|36:120|36:120|164:80,2,220,2|0|2,0:0|0:0|0:0,0:0:0:0:
116,304,57124,1,2,0:0:0:0:
148,212,57578,1,2,0:0:0:0:
292,84,58487,6,0,P|396:104|432:224,1,220,12|0,0:0|0:0,0:0:0:0:
356,256,59851,1,2,0:0:0:0:
344,356,60306,2,0,P|240:336|204:216,1,220,8|0,0:0|0:0,0:0:0:0:
292,200,61669,1,2,0:0:0:0:
384,164,62124,6,0,P|300:100|200:164,2,220,8|0|2,0:0|0:0|0:0,0:0:0:0:
288,336,64851,1,2,0:0:0:0:
128,224,65760,6,0,P|116:156|128:100,1,110,10|8,0:0|0:0,0:0:0:0:
208,60,66669,1,10,0:0:0:0:
276,124,67124,1,8,0:0:0:0:
368,88,67578,2,8,P|416:180|348:280,1,220,10|0,0:0|0:0,0:0:0:0:
256,192,69396,12,0,70987,2:0:0:0:
256,192,73033,6,2,P|288:184|244:264,1,220,4|2,0:0|0:0,0:0:0:0:
164,224,74396,1,8,0:0:0:0:
92,292,74851,2,0,P|68:240|84:172,1,110,2|8,0:0|0:0,0:0:0:0:
156,128,75760,1,2,0:0:0:0:
244,168,76215,1,10,0:0:0:0:
327,114,76669,6,0,L|451:106,1,110,2|10,0:0|0:0,0:0:0:0:
478,196,77578,2,0,L|354:204,1,110,2|8,0:0|0:0,0:0:0:0:
344,292,78487,2,0,P|240:284|216:180,1,220,2|0,0:0|0:0,0:0:0:0:
56,68,80306,6,0,L|40:196,1,110,2|8,0:0|0:0,0:0:0:0:
84,268,81215,1,2,0:0:0:0:
172,220,81669,1,8,0:0:0:0:
248,284,82124,2,0,P|320:268|348:228,1,110,2|8,0:0|0:0,0:0:0:0:
396,160,83033,2,0,L|376:48,1,110,2|10,0:0|0:0,0:0:0:0:
280,24,83942,6,2,P|172:36|112:140,2,220,2|0|2,0:0|0:0|0:0,0:0:0:0:
300,120,86215,1,8,0:0:0:0:
264,212,86669,2,0,P|212:220|136:204,1,110,2|12,0:0|0:0,0:0:0:0:
56,200,87578,6,0,P|52:268|88:316,1,110,4|8,0:0|0:0,0:0:0:0:
156,352,88487,1,2,0:0:0:0:
240,304,88942,1,10,0:0:0:0:
332,340,89396,2,0,P|336:284|296:224,1,110,2|8,0:0|0:0,0:0:0:0:
220,204,90306,5,2,0:0:0:0:
204,112,90760,1,10,0:0:0:0:
124,172,91214,2,0,P|108:120|120:56,1,110,2|8,0:0|0:0,0:0:0:0:
204,20,92123,6,0,L|436:56,1,220,2|0,0:0|0:0,0:0:0:0:
500,236,93942,5,2,0:0:0:0:
463,324,94396,1,4,0:0:0:0:
368,344,94851,6,0,P|335:301|335:247,1,110,2|8,0:0|0:0,0:0:0:0:
368,156,95760,1,2,0:0:0:0:
280,112,96214,1,10,0:0:0:0:
236,24,96669,2,0,P|188:80|181:123,1,110,0|8,0:0|0:0,0:0:0:0:
224,204,97578,1,2,0:0:0:0:
304,264,98033,5,10,0:0:0:0:
252,348,98487,2,0,P|200:360|132:348,1,110,2|8,0:0|0:0,0:0:0:0:
60,300,99396,6,0,L|76:60,1,220,2|0,0:0|0:0,0:0:0:0:
148,12,100760,2,0,P|208:0|272:20,1,110,2|0,0:0|0:0,0:0:0:0:
324,196,102124,5,4,3:0:0:0:
168,96,109396,6,0,P|256:40|352:100,1,220,12|2,0:0|0:0,0:0:0:0:
332,288,111215,2,0,P|241:330|157:251,1,220,8|2,0:0|0:0,0:0:0:0:
256,228,112578,1,4,0:0:0:0:
176,172,113033,2,0,P|267:130|351:209,1,220,8|2,0:0|0:0,0:0:0:0:
440,240,114396,1,0,0:0:0:0:
495,160,114851,2,0,B|447:60|447:60|319:56,1,220
136,64,116669,6,0,P|64:140|120:252,1,220,12|0,0:0|0:0,0:0:0:0:
188,196,118033,1,2,0:0:0:0:
259,263,118487,2,0,P|331:187|275:75,1,220,8|0,0:0|0:0,0:0:0:0:
212,136,119851,1,10,0:0:0:0:
168,224,120306,2,0,P|168:328|280:368,2,220,10|0|2,0:0|0:0|0:0,0:0:0:0:
364,196,123033,1,2,0:0:0:0:
204,80,123942,6,0,P|140:68|84:92,1,110,10|8,0:0|0:0,0:0:0:0:
48,172,124851,1,10,0:0:0:0:
140,212,125306,1,8,0:0:0:0:
92,300,125760,2,0,P|192:300|236:192,1,220,2|0,0:0|0:0,0:0:0:0:
256,192,127578,12,0,129169,2:0:0:0:
256,192,131215,6,2,P|176:228|268:264,1,220,6|2,0:0|0:0,0:0:0:0:
340,324,132578,1,8,0:0:0:0:
432,292,133033,2,0,P|460:236|436:172,1,110,2|8,0:0|0:0,0:0:0:0:
364,140,133942,1,2,0:0:0:0:
276,92,134397,1,10,0:0:0:0:
181,112,134851,6,0,L|57:104,1,110,2|10,0:0|0:0,0:0:0:0:
31,195,135760,2,0,L|155:203,1,110,2|8,0:0|0:0,0:0:0:0:
240,222,136669,2,0,P|275:131|175:116,1,220,2|0,0:0|0:0,0:0:0:0:
20,228,138488,6,0,L|36:356,1,110,2|8,0:0|0:0,0:0:0:0:
132,356,139397,1,2,0:0:0:0:
208,296,139851,1,8,0:0:0:0:
304,316,140306,2,0,P|376:300|404:260,1,110,2|8,0:0|0:0,0:0:0:0:
429,180,141215,2,0,L|444:68,1,110,2|10,0:0|0:0,0:0:0:0:
360,16,142124,6,2,P|257:28|216:136,2,220,2|0|2,0:0|0:0|0:0,0:0:0:0:
320,116,144397,1,8,0:0:0:0:
376,200,144851,2,0,P|315:216|256:188,1,110,2|8,0:0|0:0,0:0:0:0:
256,192,145760,12,4,147578,0:0:0:0:
168,144,154851,6,0,P|152:204|172:256,2,110,2|0|2,0:0|0:0|0:0,0:0:0:0:
256,192,156215,1,0,0:0:0:0:
304,104,156669,2,0,P|355:198|286:287,1,220,2|2,0:0|0:0,0:0:0:0:
256,192,158487,12,2,160306,0:0:0:0:
256,192,161669,5,4,0:0:0:0:
184,260,162124,2,0,L|64:232,1,110,0|8,3:0|0:0,0:0:0:0:
40,144,163033,1,0,0:0:0:0:
112,76,163487,2,2,L|228:56,1,110,10|2,0:0|0:0,0:0:0:0:
308,104,164396,1,8,0:0:0:0:
264,192,164851,2,2,P|268:240|312:288,1,110,2|10,0:0|0:0,0:0:0:0:
405,296,165760,5,2,0:0:0:0:
476,224,166215,1,10,0:0:0:0:
470,124,166669,2,0,B|390:48|390:48|286:108,1,220,2|2,0:0|0:0,0:0:0:0:
256,192,168033,1,8,0:0:0:0:
176,252,168487,2,0,P|116:260|63:224,1,110,2|2,0:0|0:0,0:0:0:0:
136,164,169396,5,4,0:0:0:0:
308,64,170306,6,0,L|428:32,2,110,2|0|2,0:0|0:0|0:0,0:0:0:0:
292,160,171669,2,0,L|412:128,2,110,2|0|4,0:0|0:0|0:0,0:0:0:0:
272,256,173033,6,0,B|168:220|168:220|148:104,1,220,4|2,0:0|0:0,0:0:0:0:
212,36,174396,1,8,0:0:0:0:
308,64,174851,2,0,L|328:192,2,110,2|8|2,0:0|0:0|1:0,0:0:0:0:
400,24,176215,1,10,1:0:0:0:
140,231,183942,6,0,P|192:263|260:243,1,110,4|8,0:0|0:0,0:0:0:0:
312,192,184851,1,0,0:0:0:0:
228,144,185306,1,8,0:0:0:0:
304,84,185760,2,0,P|400:132|400:256,1,220
332,296,187124,1,8,0:0:0:0:
238,258,187578,6,0,L|146:186,1,110,0|8,0:0|0:0,0:0:0:0:
184,96,188487,2,0,L|276:168,1,110,0|8,0:0|0:0,0:0:0:0:
360,208,189396,2,0,P|480:176|360:132,1,330
272,168,191215,6,0,P|204:176|168:156,1,110,0|4,0:0|0:0,0:0:0:0:
112,76,192124,1,2,0:0:0:0:
32,132,192578,1,10,2:0:0:0:
40,232,193033,2,0,P|104:316|117:318,1,110,2|8,0:0|0:0,0:0:0:0:
198,303,193942,5,2,0:0:0:0:
136,224,194396,1,10,0:0:0:0:
164,128,194851,2,0,P|212:160|232:224,1,110,2|8,0:0|0:0,0:0:0:0:
328,236,195760,6,0,L|280:20,1,220,2|0,0:0|0:0,0:0:0:0:
100,100,197578,5,2,0:0:0:0:
92,196,198033,1,4,0:0:0:0:
168,256,198487,6,0,P|224:272|288:248,1,110,2|8,0:0|0:0,0:0:0:0:
336,180,199396,1,0,0:0:0:0:
399,256,199851,1,8,0:0:0:0:
416,352,200306,2,0,P|464:328|496:272,1,110,2|8,0:0|0:0,0:0:0:0:
468,184,201215,5,0,0:0:0:0:
400,112,201669,1,8,0:0:0:0:
319,58,202124,2,0,P|243:46|203:70,1,110,2|8,0:0|0:0,0:0:0:0:
142,125,203033,6,2,L|90:345,1,220,2|0,0:0|0:0,0:0:0:0:
188,324,204396,1,8,0:0:0:0:
284,304,204851,2,2,P|308:276|256:280,1,110,2|2,0:0|0:0,1:0:0:0:
