osu file format v14

[General]
AudioFilename: audio.mp3
AudioLeadIn: 0
PreviewTime: 42081
Countdown: 0
SampleSet: Soft
StackLeniency: 0.3
Mode: 0
LetterboxInBreaks: 0
WidescreenStoryboard: 0

[Editor]
DistanceSpacing: 1.2
BeatDivisor: 4
GridSize: 4
TimelineZoom: 2.2

[Metadata]
Title:KNOCK KNOCK
TitleUnicode:KNOCK KNOCK
Artist:TWICE
ArtistUnicode:트와이스
Creator:Fragmented
Version:Hard
Source:
Tags:charmcaster funnya error- -keitaro jyp entertainment kpop k-pop twicecoaster lane 2 female korean vocals nayeon chaeyoung tzuyu momo sana mina jihyo jisoo dahyun jeongyeon 나연 정연 모모 사나 지효 미나 다현 채영 쯔위
BeatmapID:1223205
BeatmapSetID:577837

[Difficulty]
HPDrainRate:4
CircleSize:3.8
OverallDifficulty:6
ApproachRate:7
SliderMultiplier:1.5
SliderTickRate:1

[Events]
//Background and Video events
Video,-948,"KNOCK+KNOCK.avi"
0,0,"knock knock.jpg",0,0
//Break Periods
2,133666,143642
//Storyboard Layer 0 (Background)
//Storyboard Layer 1 (Fail)
//Storyboard Layer 2 (Pass)
//Storyboard Layer 3 (Foreground)
//Storyboard Sound Samples

[TimingPoints]
13466,461.538461538462,4,2,1,60,1,0
42312,-100,4,2,1,40,0,0
43004,-100,4,2,2,80,0,1
43235,-100,4,2,1,80,0,1
57312,-100,4,2,1,80,0,0
57773,-100,4,2,1,80,0,1
72542,-100,4,2,1,60,0,0
89042,-100,4,2,1,10,0,0
89158,-100,4,2,1,60,0,0
103927,-100,4,2,2,80,0,1
104158,-100,4,2,1,80,0,1
118235,-100,4,2,1,80,0,0
118696,-100,4,2,1,80,0,1
133466,-100,4,2,1,60,0,0
146388,-133.333333333333,4,2,1,40,0,0
148235,-100,4,2,2,80,0,1
148466,-100,4,2,1,80,0,1
162542,-100,4,2,1,80,0,0
163004,-100,4,2,1,80,0,1
177773,-100,4,2,2,80,0,0
178235,-100,4,2,1,80,0,0
188850,-100,4,2,1,80,0,0

[Colours]
Combo1 : 26,116,242
Combo2 : 164,32,240
Combo3 : 37,185,239
Combo4 : 23,209,116
Combo5 : 226,45,124

[HitObjects]
160,96,13465,6,0,P|128:160|160:232,1,150,6|8,3:2|0:3,0:3:0:0:
216,280,14158,1,0,0:3:0:0:
292,296,14388,2,0,B|380:292|380:292|364:264|376:212,1,150,2|8,0:3|3:3,0:3:0:0:
412,104,15312,2,0,L|332:92,1,75,2|0,3:3|3:3,0:3:0:0:
280,152,15773,2,0,L|205:163,1,75,8|0,3:3|3:3,0:3:0:0:
152,108,16235,2,0,P|128:184|192:240,1,150,2|8,0:3|3:3,0:3:0:0:
292,312,17158,6,0,L|300:236,1,75,2|0,3:3|3:3,0:3:0:0:
376,296,17619,2,0,L|384:220,1,75,8|0,3:3|3:3,0:3:0:0:
460,180,18081,1,2,3:3:0:0:
460,180,18196,1,0,3:3:0:0:
460,180,18312,1,0,3:3:0:0:
464,96,18542,2,0,L|472:0,1,75,8|0,3:3|0:3,0:3:0:0:
388,48,19004,6,0,P|340:40|292:68,1,75,2|0,3:3|3:3,0:3:0:0:
256,104,19465,2,0,P|219:113|183:104,1,75,8|0,3:3|3:3,0:3:0:0:
120,64,19927,1,2,3:3:0:0:
120,64,20042,1,0,3:3:0:0:
120,64,20158,1,0,3:3:0:0:
56,116,20388,2,0,P|48:156|60:196,1,75,8|0,3:3|0:3,0:3:0:0:
108,252,20850,5,2,0:3:0:0:
184,284,21081,2,0,L|180:328,2,37.5,0|0|8,3:3|3:3|3:3,0:3:0:0:
244,228,21542,1,0,3:3:0:0:
244,228,21658,2,0,L|324:216,1,75,0|0,3:3|0:3,0:3:0:0:
352,236,22004,1,0,3:3:0:0:
424,196,22235,2,0,B|444:148|444:148|416:40,1,150,8|2,3:3|0:3,0:3:0:0:
340,40,22927,5,0,3:3:0:0:
340,40,23042,1,0,3:3:0:0:
340,40,23158,2,0,P|298:39|252:16,1,75,8|0,3:3|3:3,0:3:0:0:
232,28,23504,2,0,P|197:40|159:40,1,75,0|0,3:3|0:3,0:3:0:0:
120,32,23850,1,0,3:3:0:0:
52,80,24081,2,0,B|32:124|32:124|64:148|64:148|24:184|60:224,1,150,8|2,3:3|0:3,0:3:0:0:
104,264,24773,5,0,3:3:0:0:
180,224,25004,1,8,3:3:0:0:
156,144,25235,1,0,3:3:0:0:
132,64,25465,2,0,P|192:64|244:140,1,150,2|8,3:3|3:3,0:3:0:0:
268,212,26158,2,0,B|336:240|336:240|488:216,1,225,0|8,3:3|0:3,0:3:0:0:
484,80,27312,2,0,L|396:60,1,75,2|0,3:3|3:3,0:3:0:0:
328,44,27773,2,0,P|300:76|192:40,1,150,8|6,3:3|0:0,0:3:0:0:
172,140,28465,5,0,3:3:0:0:
172,140,28581,1,0,3:3:0:0:
172,140,28696,2,0,L|156:224,1,75,8|0,3:3|3:3,0:3:0:0:
152,256,29042,2,0,L|232:227,1,75,0|0,3:3|3:3,0:3:0:0:
260,220,29388,1,0,3:3:0:0:
340,192,29619,2,0,L|328:292,1,75,8|0,3:3|0:3,0:3:0:0:
420,216,30081,6,0,P|425:179|414:143,1,75,2|0,0:3|3:3,0:3:0:0:
392,108,30427,1,0,3:3:0:0:
391,107,30542,2,0,P|359:88|322:85,1,75,8|0,3:3|3:3,0:3:0:0:
284,100,30888,2,0,P|248:111|211:105,1,75,0|0,3:3|3:3,0:3:0:0:
180,84,31235,1,0,3:3:0:0:
104,124,31465,2,0,L|116:200,1,75,8|0,3:3|0:3,0:3:0:0:
80,276,31927,5,2,3:3:0:0:
176,256,32158,1,0,3:3:0:0:
96,352,32388,1,8,3:3:0:0:
192,332,32619,1,0,3:3:0:0:
256,272,32850,1,2,3:3:0:0:
264,280,32965,1,0,3:3:0:0:
264,280,33081,2,0,B|252:228|272:172,1,75,0|8,3:3|3:3,0:3:0:0:
308,92,33773,5,2,3:3:0:0:
212,112,34004,1,0,3:3:0:0:
292,16,34234,1,8,3:3:0:0:
196,36,34465,1,0,3:3:0:0:
132,96,34696,1,2,3:3:0:0:
132,96,34811,1,0,3:3:0:0:
132,96,34927,2,0,B|144:148|124:204,1,75,0|8,3:3|3:3,0:3:0:0:
124,296,35619,6,0,L|199:303,1,75,2|0,0:3|3:3,0:3:0:0:
243,291,35965,1,0,3:3:0:0:
243,291,36081,2,0,L|239:215,1,75,8|0,0:3|3:3,0:3:0:0:
215,175,36427,1,0,3:3:0:0:
332,184,36773,1,0,3:3:0:0:
368,256,37004,2,0,B|404:232|404:232|408:180,1,75,8|0,3:3|0:3,0:3:0:0:
412,116,37465,6,0,L|392:36,1,75,2|0,0:3|3:3,0:3:0:0:
352,28,37811,1,0,3:3:0:0:
352,28,37927,2,0,L|280:48,1,75,8|0,3:3|3:3,0:3:0:0:
256,84,38273,1,0,3:3:0:0:
155,173,38619,1,0,3:3:0:0:
120,100,38850,2,0,B|88:124|88:124|80:176,1,75,8|0,3:3|0:3,0:3:0:0:
80,240,39312,6,0,L|100:364,1,112.5,2|0,3:3|3:3,0:3:0:0:
140,360,39773,1,8,0:3:0:0:
192,264,40004,2,0,P|272:256|320:312,1,150,0|0,3:3|3:3,0:3:0:0:
240,332,40696,1,8,3:3:0:0:
316,302,40927,2,0,L|324:222,1,75,0|2,3:3|0:3,0:3:0:0:
256,56,42312,5,0,3:3:0:0:
256,56,42542,1,0,3:3:0:0:
180,168,43004,6,0,B|236:128|272:204|348:140,1,150,6|8,0:0|3:3,0:3:0:0:
380,84,43696,1,0,3:3:0:0:
436,156,43927,2,0,L|444:332,1,150,2|8,3:3|3:3,0:3:0:0:
368,360,44619,1,0,3:3:0:0:
276,348,44850,2,0,P|228:320|212:284,1,75,2|0,3:3|3:3,0:3:0:0:
180,216,45312,1,8,3:3:0:0:
256,164,45542,2,0,P|192:124|108:156,1,150,0|4,3:3|3:1,0:3:0:0:
88,224,46235,1,12,3:1:0:0:
208,296,46696,6,0,L|388:288,1,150,2|8,3:3|0:3,0:3:0:0:
244,200,47389,2,0,L|424:192,1,150,0|0,3:3|3:3,0:3:0:0:
393,193,47965,1,0,3:3:0:0:
393,193,48081,1,8,3:3:0:0:
468,132,48312,1,0,3:3:0:0:
432,44,48542,6,0,P|360:28|296:64,1,150,2|8,3:3|0:3,0:3:0:0:
376,128,49235,2,0,P|311:163|240:147,1,150,0|4,3:3|0:1,0:3:0:0:
160,96,49927,2,0,L|140:196,1,75,12|0,3:1|3:3,0:3:0:0:
80,240,50388,5,2,3:3:0:0:
120,320,50619,1,0,3:3:0:0:
212,308,50850,1,8,3:3:0:0:
236,216,51081,1,0,3:3:0:0:
236,216,51196,2,0,P|288:200|324:212,1,75,0|0,3:3|3:3,0:3:0:0:
352,208,51542,2,0,P|408:200|436:176,1,75,0|8,3:3|3:3,0:3:0:0:
472,60,52235,5,2,3:3:0:0:
392,108,52465,1,0,3:3:0:0:
312,64,52696,1,8,3:3:0:0:
232,124,52927,1,0,3:3:0:0:
232,124,53042,2,0,P|180:140|144:128,1,75,0|0,3:3|0:3,0:3:0:0:
124,120,53388,1,4,3:1:0:0:
56,188,53619,2,0,L|64:280,1,75,12|0,3:1|3:3,0:3:0:0:
144,312,54081,6,0,P|200:292|272:320,1,112.5,6|4,3:3|0:3,0:3:0:0:
296,304,54542,2,0,P|332:295|369:298,1,75,8|4,3:3|0:3,0:3:0:0:
460,272,55004,1,2,3:3:0:0:
384,220,55235,1,4,3:3:0:0:
468,192,55465,1,8,3:3:0:0:
396,140,55696,2,0,B|312:132|276:68|276:68|266:121|216:148,1,225,4|8,3:3|0:3,0:3:0:0:
180,60,56619,5,4,3:3:0:0:
140,144,56850,1,2,3:3:0:0:
196,220,57081,1,4,3:1:0:0:
164,308,57312,2,4,P|120:268|120:220,1,75,12|4,3:1|0:3,0:3:0:0:
196,220,57773,6,0,P|268:192|348:240,1,150,6|8,3:2|3:3,0:3:0:0:
264,284,58465,1,0,3:3:0:0:
200,348,58696,2,0,P|267:375|335:347,1,150,2|8,3:3|3:3,0:3:0:0:
400,280,59388,1,0,3:3:0:0:
464,216,59619,2,0,L|460:132,2,75,2|0|8,3:3|3:3|3:3,0:0:0:0:
376,180,60312,2,0,P|304:168|212:188,1,150,0|4,3:3|3:1,0:3:0:0:
172,256,61004,1,12,3:1:0:0:
92,220,61235,1,0,3:3:0:0:
0,252,61465,6,0,L|9:164,1,75,2|0,3:3|0:3,0:3:0:0:
72,108,61927,2,0,L|160:117,1,75,8|0,3:3|0:3,0:3:0:0:
224,168,62388,1,2,3:3:0:0:
312,140,62619,2,0,P|316:192|308:216,1,75,0|8,3:3|0:3,0:3:0:0:
264,292,63081,1,0,3:3:0:0:
356,296,63312,2,0,P|392:244|400:144,1,150,2|8,3:3|0:3,0:3:0:0:
372,72,64004,2,0,P|284:16|216:24,1,150,0|4,0:1|0:1,0:1:0:0:
160,64,64696,1,12,3:1:0:0:
72,168,65158,5,2,3:3:0:0:
164,152,65388,1,0,3:3:0:0:
224,224,65619,1,8,3:3:0:0:
192,308,65850,1,0,3:3:0:0:
196,312,65965,2,0,P|240:320|284:288,1,75,0|0,3:3|3:3,0:3:0:0:
296,276,66312,2,0,L|308:196,1,75,0|8,3:3|3:3,0:3:0:0:
412,104,67004,5,2,3:3:0:0:
460,180,67235,1,0,3:3:0:0:
404,252,67465,1,8,3:3:0:0:
480,312,67696,1,0,3:3:0:0:
479,311,67812,2,0,P|451:336|415:347,1,75,0|0,3:3|0:3,0:3:0:0:
380,336,68158,1,4,3:1:0:0:
292,308,68388,2,0,L|208:316,1,75,12|0,3:1|3:1,0:1:0:0:
144,260,68850,6,0,P|132:200|152:136,1,112.5,6|4,3:3|0:3,0:3:0:0:
160,116,69312,1,8,0:3:0:0:
248,148,69542,2,0,P|284:142|316:120,2,75,4|2|4,3:3|3:3|3:3,0:3:0:0:
248,56,70235,1,8,3:3:0:0:
336,40,70465,2,0,B|372:64|412:60|412:60|372:140|416:224,1,225,4|8,3:3|0:3,0:3:0:0:
317,220,71388,5,4,3:3:0:0:
256,288,71619,2,0,L|176:280,1,75,2|4,3:3|3:1,0:3:0:0:
116,208,72081,2,0,B|108:172|108:172|124:132,1,75,12|4,3:1|0:3,0:3:0:0:
144,100,72427,1,4,0:3:0:0:
256,192,74388,6,0,B|292:228|292:228|404:228,1,150,6|8,0:0|0:3,0:3:0:0:
444,160,75081,1,0,3:3:0:0:
412,84,75312,1,2,3:3:0:0:
412,84,75427,2,0,L|316:92,1,75,0|0,3:3|3:3,0:3:0:0:
248,44,76004,2,0,L|200:64,1,37.5,0|0,3:3|3:3,0:3:0:0:
176,52,76235,5,2,3:3:0:0:
176,52,76350,1,0,3:3:0:0:
176,52,76465,2,0,L|160:140,1,75,0|8,3:3|3:3,0:3:0:0:
168,212,76927,1,0,3:3:0:0:
156,232,77042,1,0,3:0:0:0:
144,252,77158,2,0,P|192:292|260:284,1,112.5,2|0,3:3|3:3,0:3:0:0:
272,276,77619,1,8,0:3:0:0:
304,196,77850,1,0,0:3:0:0:
236,144,78081,5,2,0:3:0:0:
284,72,78312,2,0,L|380:68,1,75,0|8,3:3|3:3,0:3:0:0:
408,156,78773,2,0,L|320:152,1,75,0|2,3:3|3:3,0:3:0:0:
372,236,79235,1,0,3:3:0:0:
312,296,79465,1,8,3:3:0:0:
312,296,79581,1,0,3:3:0:0:
312,296,79696,2,0,P|268:292|228:300,1,75,0|2,3:3|0:3,0:3:0:0:
156,320,80158,6,0,L|148:360,2,37.5,0|0|8,3:3|3:3|3:3,0:3:0:0:
132,280,80504,2,0,L|139:243,1,37.5,0|0,3:3|3:3,0:3:0:0:
123,191,80735,1,0,3:3:0:0:
123,191,80850,2,0,L|130:154,1,37.5,2|0,3:3|3:3,0:3:0:0:
204,104,81196,2,0,L|211:67,1,37.5,0|8,3:3|0:3,0:3:0:0:
272,156,81542,1,0,0:3:0:0:
304,232,81773,6,0,L|388:228,1,75,2|0,0:3|3:3,0:3:0:0:
420,200,82119,1,0,3:3:0:0:
420,200,82235,2,0,L|420:112,1,75,8|0,3:3|3:3,0:3:0:0:
384,44,82696,2,0,P|336:40|288:48,1,75,2|0,3:3|3:3,0:3:0:0:
244,100,83158,1,8,3:3:0:0:
244,100,83273,1,0,3:3:0:0:
244,100,83388,2,0,P|192:100|152:92,1,75,0|2,3:3|0:3,0:3:0:0:
96,144,83850,6,0,L|104:212,1,37.5,0|0,3:3|3:3,0:3:0:0:
88,232,84081,2,0,P|144:224|188:244,1,75,8|0,3:3|3:3,0:3:0:0:
236,276,84542,2,0,P|272:281|308:272,1,75,2|0,3:3|3:3,0:3:0:0:
396,316,85004,1,8,3:3:0:0:
396,316,85119,1,0,3:3:0:0:
396,316,85235,1,0,3:3:0:0:
416,220,85466,6,0,L|452:212,2,37.5,2|0|0,3:3|3:0|0:0,0:0:0:0:
348,160,85927,1,8,0:3:0:0:
356,68,86158,2,0,L|268:76,1,75,0|2,3:3|3:3,0:3:0:0:
216,136,86619,2,0,P|200:168|200:228,2,75,0|8|0,3:3|3:3|3:3,0:3:0:0:
196,52,87312,2,0,B|120:48|120:48|64:96,1,150,2|8,3:3|0:3,0:3:0:0:
20,228,88235,1,2,3:3:0:0:
108,204,88465,1,0,3:3:0:0:
196,180,88696,2,0,B|248:168|288:188|288:188|256:216,1,112.5,8|0,3:3|0:3,0:3:0:0:
272,224,89158,6,0,B|292:328|292:328|320:284,1,150,6|8,3:2|3:3,0:3:0:0:
428,240,90081,1,2,3:3:0:0:
480,164,90312,2,0,P|480:120|456:84,1,75,0|8,3:3|0:3,0:3:0:0:
396,148,90773,1,0,3:3:0:0:
316,124,91004,1,2,3:3:0:0:
316,124,91119,2,0,B|280:112|280:112|216:120,2,75,0|0|0,3:0|3:0|3:0,0:0:0:0:
320,224,91812,1,0,3:3:0:0:
320,224,91927,2,0,B|283:228|283:228|247:216,1,75,2|0,0:0|3:0,0:0:0:0:
208,224,92273,1,0,3:3:0:0:
208,224,92388,2,0,L|112:232,1,75,8|0,3:3|3:3,0:3:0:0:
100,144,92850,6,0,B|137:120|137:120|265:120,1,150,2|8,3:3|3:3,0:3:0:0:
320,172,93542,1,0,0:3:0:0:
404,148,93773,1,2,3:3:0:0:
404,148,93888,2,0,L|408:60,2,75,0|0|0,3:3|3:3|0:3,0:3:0:0:
436,180,94465,1,0,3:3:0:0:
392,260,94696,1,2,3:3:0:0:
392,260,94811,2,0,L|388:348,2,75,0|0|0,3:3|3:3|3:3,0:3:0:0:
360,228,95388,1,0,0:3:0:0:
280,268,95619,6,0,P|252:256|204:260,1,75,2|0,3:3|0:3,0:3:0:0:
128,304,96081,2,0,B|128:264|116:252|116:252|128:236|128:176,1,112.5,8|0,3:3|0:3,0:3:0:0:
132,156,96542,5,2,3:3:0:0:
224,136,96773,1,0,3:3:0:0:
124,72,97004,1,8,3:3:0:0:
216,52,97235,1,0,3:3:0:0:
296,96,97465,1,2,3:3:0:0:
296,96,97581,1,0,3:3:0:0:
296,96,97696,2,0,L|384:84,1,75,0|8,3:3|3:3,0:3:0:0:
312,204,98388,5,2,3:3:0:0:
220,224,98619,1,0,3:3:0:0:
320,288,98850,1,8,3:3:0:0:
228,308,99081,1,0,3:3:0:0:
152,276,99311,1,2,3:3:0:0:
152,276,99427,1,0,3:3:0:0:
152,276,99542,2,0,L|64:288,1,75,0|8,3:3|3:3,0:3:0:0:
20,168,100235,5,2,0:3:0:0:
80,104,100465,1,0,3:3:0:0:
80,104,100581,2,0,L|160:96,1,75,0|0,3:3|3:3,0:3:0:0:
188,124,100927,2,0,L|268:116,1,75,0|2,3:3|3:3,0:3:0:0:
304,136,101273,2,0,L|384:128,1,75,0|0,3:3|3:3,0:3:0:0:
420,144,101619,2,0,P|428:184|420:232,1,75,8|0,0:3|3:3,0:3:0:0:
352,272,102081,6,0,P|315:262|263:266,1,75,2|0,3:3|0:3,0:3:0:0:
188,280,102542,2,0,P|197:243|193:191,1,75,8|0,3:3|0:3,0:3:0:0:
116,164,103004,2,0,P|64:136|108:132,1,150,2|8,3:3|0:3,0:3:0:0:
192,32,103927,6,0,B|254:77|270:-2|334:41,1,150,6|8,0:0|3:3,0:3:0:0:
408,104,104619,1,0,3:3:0:0:
500,72,104850,2,0,L|492:248,1,150,2|8,3:3|3:3,0:3:0:0:
420,284,105542,1,0,3:3:0:0:
348,220,105773,2,0,P|324:248|324:304,1,75,2|0,3:3|3:3,0:3:0:0:
244,344,106235,1,8,3:3:0:0:
176,284,106465,2,0,P|106:262|45:302,1,150,0|4,3:1|3:1,0:1:0:0:
120,356,107158,1,12,3:1:0:0:
260,324,107619,6,0,P|264:240|300:172,1,150,2|8,3:3|0:3,0:3:0:0:
344,276,108312,2,0,P|389:205|454:164,1,150,0|0,3:3|3:3,0:3:0:0:
442,168,108889,1,0,3:3:0:0:
442,168,109004,1,8,3:3:0:0:
480,88,109235,1,0,3:3:0:0:
392,104,109465,6,0,P|316:96|252:52,1,150,2|8,3:3|0:3,0:3:0:0:
252,164,110158,2,0,P|190:119|156:48,1,150,0|4,3:1|0:1,0:1:0:0:
72,88,110850,2,0,P|96:136|96:176,1,75,12|0,3:1|3:1,0:1:0:0:
80,248,111311,5,2,3:3:0:0:
172,220,111542,1,0,3:3:0:0:
256,272,111773,1,8,3:3:0:0:
348,244,112004,1,0,3:3:0:0:
348,244,112119,2,0,P|388:232|420:192,1,75,0|0,3:3|3:3,0:3:0:0:
428,168,112465,2,0,L|420:80,1,75,0|8,3:3|3:3,0:3:0:0:
304,40,113158,5,2,3:3:0:0:
232,104,113388,1,0,3:3:0:0:
144,80,113619,1,8,3:3:0:0:
92,164,113850,1,0,3:3:0:0:
92,164,113966,2,0,P|144:180|180:168,1,75,0|0,3:3|3:3,0:3:0:0:
200,192,114312,1,4,3:1:0:0:
280,248,114542,2,0,L|272:336,1,75,12|0,3:1|3:3,0:3:0:0:
368,288,115004,6,0,P|384:232|436:188,1,112.5,6|4,3:3|0:3,0:3:0:0:
460,176,115465,2,0,L|456:92,1,75,8|4,3:3|0:3,0:3:0:0:
385,45,115927,1,2,3:3:0:0:
320,112,116158,1,4,3:3:0:0:
232,80,116388,1,8,3:3:0:0:
152,132,116619,2,0,B|188:168|160:216|160:216|184:232|184:232|160:296|208:344,1,225,4|8,3:3|0:3,0:3:0:0:
264,268,117542,5,4,3:3:0:0:
252,176,117773,1,2,3:3:0:0:
336,212,118004,1,4,3:1:0:0:
328,120,118235,2,0,P|380:128|412:160,1,75,12|4,3:1|0:3,0:3:0:0:
444,60,118696,6,0,P|372:32|280:40,1,150,6|8,3:2|3:3,0:3:0:0:
232,100,119388,1,0,3:3:0:0:
148,56,119619,2,0,P|120:128|128:220,1,150,2|8,3:3|3:3,0:3:0:0:
196,256,120311,1,0,3:3:0:0:
284,220,120542,2,0,L|292:316,2,75,2|0|8,3:3|3:3|3:3,0:3:0:0:
328,132,121235,2,0,P|400:92|476:120,1,150,0|4,3:1|3:1,0:1:0:0:
408,188,121927,1,12,3:1:0:0:
488,240,122158,1,0,3:3:0:0:
432,316,122388,6,0,P|384:304|344:320,1,75,2|0,3:3|0:3,0:3:0:0:
272,340,122850,2,0,P|236:352|200:345,1,75,8|0,3:3|0:3,0:3:0:0:
164,260,123312,1,2,3:3:0:0:
76,288,123542,2,0,L|68:188,1,75,0|8,3:3|0:3,0:3:0:0:
92,120,124004,1,0,3:3:0:0:
176,168,124235,2,0,B|208:136|208:136|348:124,1,150,2|8,3:3|0:3,0:3:0:0:
388,68,124927,2,0,B|356:36|356:36|216:24,1,150,0|4,0:1|0:1,0:1:0:0:
164,64,125619,1,12,3:1:0:0:
32,60,126081,5,2,3:3:0:0:
76,144,126311,1,0,3:3:0:0:
28,224,126542,1,8,3:3:0:0:
88,300,126773,1,0,3:3:0:0:
88,300,126888,2,0,P|128:308|164:292,1,75,0|0,3:3|3:3,0:3:0:0:
188,264,127235,2,0,L|192:184,1,75,0|8,3:3|3:3,0:3:0:0:
244,72,127927,5,2,3:3:0:0:
328,32,128158,1,0,3:3:0:0:
396,96,128388,1,8,3:3:0:0:
480,56,128619,1,0,3:3:0:0:
480,56,128735,2,0,L|488:140,1,75,0|0,3:3|3:3,0:3:0:0:
464,168,129081,1,4,3:1:0:0:
392,232,129312,2,0,P|336:224|308:236,1,75,12|0,3:1|3:1,0:1:0:0:
224,200,129773,6,0,P|236:256|224:320,1,112.5,6|4,3:3|0:3,0:3:0:0:
204,344,130235,1,8,0:3:0:0:
112,308,130466,2,0,P|75:313|40:328,2,75,4|2|4,3:3|3:3|3:3,0:3:0:0:
140,216,131158,1,8,3:3:0:0:
48,232,131388,2,0,B|12:192|28:136|28:136|100:132|140:76,1,225,4|8,3:3|0:3,0:3:0:0:
200,16,132312,5,4,3:3:0:0:
276,76,132542,2,0,L|272:160,1,75,2|4,3:3|3:1,0:3:0:0:
216,228,133004,2,0,P|292:244|308:236,1,75,12|4,3:1|0:3,0:3:0:0:
328,228,133350,1,4,0:3:0:0:
328,228,133466,1,6,0:0:0:0:
256,192,144542,12,0,146388,3:3:0:0:
283,148,147081,6,0,L|228:160,1,56.2500021457673,0|0,3:3|3:3,0:3:0:0:
232,240,147542,2,0,L|300:224,1,56.2500021457673,0|0,3:3|3:3,0:3:0:0:
348,284,148004,1,0,3:3:0:0:
444,252,148235,6,0,P|484:180|456:116,1,150,6|8,0:0|3:3,0:3:0:0:
384,64,148927,1,0,3:3:0:0:
316,136,149158,2,0,P|220:172|164:156,1,150,2|8,3:3|3:3,0:3:0:0:
96,112,149850,1,0,3:3:0:0:
76,204,150081,1,2,3:3:0:0:
152,264,150312,2,0,L|144:360,1,75,0|8,3:3|3:3,0:3:0:0:
240,364,150773,2,0,B|264:324|264:324|376:304,1,150,0|4,3:1|3:1,0:1:0:0:
432,232,151465,1,12,3:1:0:0:
372,108,151927,6,0,B|264:96|264:96|244:40,1,150,2|8,3:3|0:3,0:3:0:0:
152,56,152619,2,0,B|138:94|138:94|30:106,1,150,0|0,3:3|3:3,0:3:0:0:
30,106,153196,1,0,3:3:0:0:
30,106,153312,1,8,3:3:0:0:
108,180,153542,1,0,3:3:0:0:
76,276,153773,6,0,P|156:264|216:336,1,150,2|8,3:3|0:3,0:3:0:0:
304,304,154465,2,4,P|362:260|433:274,1,150,0|4,3:1|0:1,0:1:0:0:
496,200,155158,2,0,L|476:124,1,75,12|0,3:1|3:1,0:1:0:0:
396,176,155619,5,2,3:3:0:0:
332,104,155850,1,0,3:3:0:0:
244,84,156081,1,8,3:3:0:0:
160,128,156312,1,0,3:3:0:0:
160,128,156427,2,0,P|153:164|160:201,1,75,0|0,3:3|3:3,0:3:0:0:
180,244,156773,2,0,P|232:260|280:244,1,75,0|8,3:3|3:3,0:3:0:0:
376,192,157465,5,2,3:3:0:0:
436,116,157696,1,0,3:3:0:0:
376,40,157927,1,8,3:3:0:0:
288,64,158158,1,0,3:3:0:0:
288,64,158273,2,0,P|228:68|200:56,1,75,0|0,3:3|3:3,0:3:0:0:
180,44,158619,1,4,3:1:0:0:
120,124,158850,2,0,L|132:204,1,75,12|0,3:1|3:3,0:3:0:0:
36,200,159312,6,0,L|52:312,1,112.5,6|4,3:3|0:3,0:3:0:0:
96,336,159773,2,0,P|124:312|168:300,1,75,8|4,3:3|0:3,0:3:0:0:
220,224,160235,1,2,3:3:0:0:
296,280,160465,1,4,3:3:0:0:
360,216,160696,1,8,3:3:0:0:
284,156,160927,2,0,P|384:126|452:240,1,225,4|8,3:3|0:3,0:3:0:0:
408,292,161850,5,4,3:3:0:0:
340,360,162081,1,2,3:3:0:0:
296,280,162312,1,4,3:1:0:0:
216,340,162542,2,0,B|196:305|196:305|202:270,1,75,12|4,3:1|0:3,0:3:0:0:
226,169,163004,6,0,P|184:110|111:104,1,150,6|8,3:2|3:3,0:3:0:0:
136,200,163696,1,0,3:3:0:0:
40,200,163927,2,0,L|68:360,1,150,2|8,3:3|3:3,0:3:0:0:
152,292,164619,1,0,3:3:0:0:
248,296,164850,2,0,L|224:372,2,75,2|0|8,3:3|3:3|3:3,0:3:0:0:
276,200,165542,2,0,P|236:164|124:168,1,150,0|4,3:1|3:1,0:1:0:0:
60,208,166235,1,12,3:1:0:0:
64,112,166465,1,0,3:3:0:0:
148,60,166696,6,0,L|232:48,1,75,2|0,3:3|0:3,0:3:0:0:
312,88,167158,2,0,L|386:98,1,75,8|0,3:3|0:3,0:3:0:0:
476,68,167619,1,2,3:3:0:0:
500,164,167850,2,0,P|494:201|495:238,1,75,0|8,3:3|0:3,0:3:0:0:
404,216,168312,1,0,3:3:0:0:
408,312,168542,2,0,P|328:272|316:192,1,150,2|8,3:3|0:3,0:0:0:0:
268,136,169235,2,0,B|232:180|232:180|108:168,1,150,0|4,0:1|0:1,0:1:0:0:
64,232,169927,1,12,3:1:0:0:
8,112,170388,5,2,3:0:0:0:
96,64,170619,1,0,3:3:0:0:
184,104,170850,1,8,3:3:0:0:
268,60,171081,1,0,3:3:0:0:
268,60,171196,2,0,P|324:76|344:100,1,75,0|0,3:3|3:3,0:3:0:0:
352,128,171542,2,0,L|348:202,1,75,0|8,3:3|3:3,0:3:0:0:
220,180,172235,5,2,3:3:0:0:
144,240,172465,1,0,3:3:0:0:
64,180,172696,1,8,3:3:0:0:
144,124,172927,1,0,3:3:0:0:
144,124,173042,2,0,P|176:81|184:52,1,75,0|0,3:3|3:3,0:3:0:0:
184,20,173388,1,4,3:1:0:0:
276,60,173619,2,0,P|296:109|318:130,1,75,12|0,3:1|3:3,0:3:0:0:
380,200,174081,6,0,P|324:204|256:252,1,112.5,6|4,3:3|0:3,0:3:0:0:
248,260,174542,1,8,0:3:0:0:
156,228,174773,2,0,L|136:320,2,75,4|2|4,3:3|3:3|3:3,0:3:0:0:
112,140,175465,1,8,3:3:0:0:
196,88,175696,2,0,B|280:104|344:68|344:68|336:104|368:136,1,225,4|8,3:3|0:3,0:3:0:0:
444,188,176619,1,4,3:3:0:0:
448,288,176850,2,0,P|412:284|376:256,1,75,2|4,3:3|3:1,0:3:0:0:
316,192,177312,2,0,P|285:213|248:217,1,75,12|4,3:1|0:3,0:3:0:0:
168,168,177773,5,6,0:0:0:0:
48,104,178235,2,0,L|40:196,1,75,8|0,3:3|0:3,0:3:0:0:
108,244,178696,2,0,L|100:328,1,75,2|0,3:3|0:3,0:3:0:0:
192,284,179158,1,8,0:3:0:0:
276,332,179388,6,0,P|288:276|276:248,1,75,0|2,3:3|0:3,0:3:0:0:
220,188,179850,2,0,P|208:132|220:104,1,75,0|8,3:3|0:3,0:3:0:0:
280,48,180312,1,0,3:3:0:0:
356,104,180542,2,0,B|392:92|392:92|430:100,1,75,2|4,3:3|0:1,0:3:0:0:
468,192,181004,2,0,B|432:204|432:204|393:195,1,75,12|0,3:1|0:3,0:3:0:0:
304,176,181465,5,2,3:3:0:0:
264,264,181696,1,0,3:3:0:0:
180,304,181927,1,8,3:3:0:0:
104,248,182158,1,0,3:3:0:0:
8,260,182388,2,0,P|32:188|100:156,1,150,2|8,3:3|3:3,0:3:0:0:
184,196,183081,1,0,3:3:0:0:
264,136,183312,6,0,L|424:123,1,150,2|8,3:3|3:3,0:3:0:0:
304,48,184235,1,2,0:3:0:0:
264,136,184465,1,4,3:1:0:0:
224,228,184696,2,0,P|320:216|380:236,1,150,12|2,3:1|0:3,0:1:0:0:
492,292,185619,6,0,L|484:212,1,75,8|0,3:3|0:3,0:3:0:0:
412,160,186081,2,0,L|404:80,1,75,2|0,3:3|0:3,0:3:0:0:
332,28,186542,1,8,0:3:0:0:
268,100,186773,6,0,P|260:152|268:176,1,75,0|2,3:3|0:3,0:3:0:0:
336,248,187235,2,0,P|343:284|334:320,1,75,0|8,3:3|0:3,0:3:0:0:
244,356,187696,1,0,3:3:0:0:
164,304,187927,2,0,B|128:292|128:292|80:312,1,75,2|4,3:3|0:1,0:1:0:0:
64,216,188388,1,12,3:1:0:0:
144,116,188850,5,6,3:3:0:0:
224,160,189081,1,0,3:3:0:0:
316,136,189312,1,8,3:3:0:0:
372,220,189542,1,4,3:3:0:0:
372,220,189658,2,0,L|360:316,1,75,4|4,3:3|3:3,0:3:0:0:
380,336,190004,2,0,L|304:344,1,75,4|8,3:3|3:3,0:3:0:0:
212,256,190696,5,6,3:3:0:0:
224,160,190927,1,0,3:3:0:0:
152,96,191158,1,12,3:3:0:0:
60,124,191388,1,4,3:3:0:0:
59,123,191504,2,4,P|49:163|64:208,1,75,4|4,3:3|3:3,0:3:0:0:
48,240,191850,2,0,P|80:232|144:244,1,75,4|8,3:3|3:3,0:3:0:0:
176,316,192312,2,0,L|168:376,2,37.5,4|4|0,0:3|0:3|0:3,0:3:0:0:
