osu file format v14

[General]
AudioFilename: audio.mp3
AudioLeadIn: 0
PreviewTime: 43128
Countdown: 0
SampleSet: None
StackLeniency: 0.7
Mode: 0
LetterboxInBreaks: 0
WidescreenStoryboard: 0

[Editor]
DistanceSpacing: 2.2
BeatDivisor: 4
GridSize: 8
TimelineZoom: 1

[Metadata]
Title:Jelly Jelly
TitleUnicode:Jelly Jelly
Artist:TWICE
ArtistUnicode:트와이스
Creator:Tendhix
Version:Jealous
Source:
Tags:TWICE, Kpop, JYP
BeatmapID:1364615
BeatmapSetID:643782

[Difficulty]
HPDrainRate:7
CircleSize:4
OverallDifficulty:7
ApproachRate:9
SliderMultiplier:2
SliderTickRate:1

[Events]
//Background and Video events
0,0,"Jelly Jelly.png",0,0
//Break Periods
//Storyboard Layer 0 (Background)
//Storyboard Layer 1 (Fail)
//Storyboard Layer 2 (Pass)
//Storyboard Layer 3 (Foreground)
//Storyboard Sound Samples

[TimingPoints]
689,365.853658536585,4,1,0,60,1,0
43128,-100,4,1,0,60,0,1
66542,-100,4,1,0,60,0,0
101664,-100,4,1,0,60,0,1
125079,-100,4,1,0,60,0,0
183615,-100,4,1,0,60,0,1
195323,-100,4,1,0,60,0,0

[HitObjects]
256,192,689,12,0,1786,0:0:0:0:
288,112,2152,5,0,0:0:0:0:
408,336,2518,1,0,0:0:0:0:
248,288,2701,1,0,0:0:0:0:
360,120,3249,5,0,0:0:0:0:
24,56,3615,1,0,0:0:0:0:
24,56,3798,1,0,0:0:0:0:
128,192,3981,1,0,0:0:0:0:
400,96,4530,5,8,0:0:0:0:
400,96,4713,1,8,0:0:0:0:
296,232,4896,1,0,0:0:0:0:
152,136,5079,2,0,L|168:248,1,100
272,96,5445,1,0,0:0:0:0:
104,72,5628,1,0,0:0:0:0:
416,240,6176,5,0,0:0:0:0:
248,208,6359,1,0,0:0:0:0:
352,344,6542,2,0,L|320:216,1,100
160,224,6908,1,0,0:0:0:0:
432,80,7457,5,8,0:0:0:0:
432,80,7640,1,8,0:0:0:0:
280,152,7823,2,0,P|312:200|352:232,1,100
48,56,8371,6,0,P|120:32|160:40,1,100
296,112,8737,1,0,0:0:0:0:
160,216,8920,1,0,0:0:0:0:
328,216,9103,1,0,0:0:0:0:
208,336,9286,1,0,0:0:0:0:
384,96,9835,6,0,P|312:120|296:144,1,100
272,304,10201,1,0,0:0:0:0:
168,168,10384,1,0,0:0:0:0:
168,336,10567,1,0,0:0:0:0:
64,200,10749,1,0,0:0:0:0:
408,176,11298,6,0,P|424:240|424:288,1,100
280,184,11664,1,0,0:0:0:0:
432,104,11847,1,0,0:0:0:0:
272,40,12030,1,0,0:0:0:0:
432,104,12213,1,0,0:0:0:0:
120,232,12762,6,0,P|176:288|208:288,1,100
24,248,13128,2,0,P|48:168|88:136,1,100
208,232,13493,2,0,P|160:256|128:304,1,100
120,120,13859,1,0,0:0:0:0:
424,280,14225,6,0,P|368:320|320:320,1,100
248,176,14591,1,0,0:0:0:0:
400,96,14774,1,0,0:0:0:0:
248,176,14957,1,0,0:0:0:0:
400,96,15140,1,0,0:0:0:0:
392,264,15323,1,0,0:0:0:0:
64,168,15689,6,0,P|120:120|160:112,1,100
104,280,16054,1,0,0:0:0:0:
272,240,16237,1,0,0:0:0:0:
104,280,16420,1,0,0:0:0:0:
272,240,16603,1,0,0:0:0:0:
144,128,16786,1,0,0:0:0:0:
464,248,17152,6,0,P|432:288|384:312,1,100
352,144,17518,1,0,0:0:0:0:
256,288,17701,1,0,0:0:0:0:
352,144,17884,1,0,0:0:0:0:
256,288,18067,1,0,0:0:0:0:
184,136,18249,1,0,0:0:0:0:
472,80,18615,6,0,P|400:96|368:128,1,100
392,320,18981,2,0,P|328:312|288:280,1,100
192,112,19347,2,0,P|104:120|72:152,1,100
288,216,19713,1,0,0:0:0:0:
120,216,19896,6,0,P|136:280|168:320,1,100
272,160,20262,1,0,0:0:0:0:
96,88,20445,2,0,L|136:184,2,100
272,160,20993,1,0,0:0:0:0:
104,256,21176,2,0,P|88:208|96:152,1,100
272,224,21542,1,0,0:0:0:0:
80,224,21725,2,0,P|96:112|200:64,1,200
312,184,22274,2,0,L|256:296,1,100
80,80,22823,6,0,P|128:48|176:48,1,100
304,184,23188,1,0,0:0:0:0:
112,208,23371,2,0,P|152:280|192:296,2,100
304,208,23920,1,0,0:0:0:0:
136,120,24103,2,0,P|104:176|104:232,1,100
288,160,24469,1,0,0:0:0:0:
128,264,24652,2,0,P|120:160|192:72,1,200
320,200,25201,5,0,0:0:0:0:
128,208,25384,1,0,0:0:0:0:
216,40,25567,1,0,0:0:0:0:
72,168,25749,5,0,0:0:0:0:
264,184,25932,1,0,0:0:0:0:
112,296,26115,1,0,0:0:0:0:
264,184,26298,1,0,0:0:0:0:
112,296,26481,2,0,P|168:328|320:288,1,200
184,152,27030,5,0,0:0:0:0:
184,152,27121,1,0,0:0:0:0:
184,152,27213,1,0,0:0:0:0:
328,280,27396,1,0,0:0:0:0:
448,128,27579,2,0,P|328:80|264:128,1,200
400,256,28128,5,0,0:0:0:0:
216,304,28310,1,0,0:0:0:0:
112,144,28493,1,0,0:0:0:0:
304,136,28676,5,0,0:0:0:0:
344,320,28859,1,0,0:0:0:0:
168,256,29042,1,0,0:0:0:0:
344,320,29225,1,0,0:0:0:0:
168,256,29408,2,0,P|120:168|192:96,1,200
288,256,29957,5,0,0:0:0:0:
288,256,30048,1,0,0:0:0:0:
288,256,30140,1,0,0:0:0:0:
128,160,30323,1,0,0:0:0:0:
320,176,30506,2,0,P|384:224|344:320,1,200
176,232,31054,1,0,0:0:0:0:
408,112,31420,6,0,P|376:224|336:240,1,150
354,235,31786,2,0,B|320:200|320:200|200:240,1,150
224,231,32152,2,0,P|176:288|128:272,1,100
256,120,32518,2,0,L|136:176,1,100
352,176,32884,6,0,P|392:232|408:288,2,100
168,232,33432,1,0,0:0:0:0:
296,88,33615,2,0,P|368:72|416:88,1,100
288,240,33981,2,0,P|344:304|376:320,1,100
224,176,34347,6,0,P|168:224|152:264,1,100
224,64,34713,1,0,0:0:0:0:
384,168,34896,2,0,P|376:224|344:264,1,100
176,184,35262,2,0,P|112:232|96:272,1,100
288,296,35628,2,0,P|296:160|240:112,1,200
80,184,36176,5,0,0:0:0:0:
80,184,36359,1,0,0:0:0:0:
272,200,36542,5,0,0:0:0:0:
120,80,36725,1,0,0:0:0:0:
136,272,36908,5,0,0:0:0:0:
216,96,37091,1,0,0:0:0:0:
360,216,37274,6,0,L|304:336,1,100
272,120,37640,2,0,L|216:232,1,100
416,184,38006,2,0,L|304:224,1,100
144,144,38371,2,0,L|264:104,1,100
128,272,38737,6,0,P|176:224|216:208,1,100
384,264,39103,1,0,0:0:0:0:
232,152,39286,2,0,P|144:136|112:152,1,100
328,96,39652,2,0,P|240:56|216:56,2,100
208,240,40201,1,0,0:0:0:0:
392,192,40384,5,0,0:0:0:0:
216,120,40567,2,0,P|280:64|328:48,2,100
360,248,41115,1,0,0:0:0:0:
248,88,41298,1,0,0:0:0:0:
56,144,41481,1,0,0:0:0:0:
168,256,41664,5,0,0:0:0:0:
200,280,41756,1,0,0:0:0:0:
240,288,41847,1,0,0:0:0:0:
280,272,41938,1,0,0:0:0:0:
304,240,42030,1,0,0:0:0:0:
304,200,42121,1,0,0:0:0:0:
280,168,42213,1,0,0:0:0:0:
248,144,42304,1,0,0:0:0:0:
208,136,42396,1,0,0:0:0:0:
176,112,42487,1,0,0:0:0:0:
160,72,42579,1,0,0:0:0:0:
184,40,42670,1,0,0:0:0:0:
224,32,42762,1,0,0:0:0:0:
264,40,42853,1,0,0:0:0:0:
296,64,42945,1,0,0:0:0:0:
336,72,43036,1,0,0:0:0:0:
376,80,43128,6,0,P|456:80|488:56,1,100
288,192,43493,1,0,0:0:0:0:
488,288,43676,1,0,0:0:0:0:
328,136,43859,6,0,P|272:112|192:112,1,100
384,272,44225,1,0,0:0:0:0:
168,304,44408,1,0,0:0:0:0:
328,152,44591,5,0,0:0:0:0:
328,152,44774,1,0,0:0:0:0:
112,104,44957,2,0,L|144:208,1,100
288,32,45323,1,0,0:0:0:0:
288,32,45506,1,0,0:0:0:0:
344,240,45688,6,0,P|296:296|248:304,1,100
400,120,46054,1,0,0:0:0:0:
184,176,46237,1,0,0:0:0:0:
400,232,46420,1,0,0:0:0:0:
192,296,46603,1,0,0:0:0:0:
400,120,46786,1,0,0:0:0:0:
184,176,46969,1,0,0:0:0:0:
360,48,47152,6,0,L|320:160,1,100
112,104,47518,2,0,L|152:224,1,100
352,280,47884,1,0,0:0:0:0:
352,280,48067,1,0,0:0:0:0:
160,176,48249,2,0,L|264:128,1,100
424,272,48615,6,0,P|368:312|320:312,1,100
192,152,48981,1,0,0:0:0:0:
392,64,49164,1,0,0:0:0:0:
312,272,49347,1,0,0:0:0:0:
240,64,49530,1,0,0:0:0:0:
176,224,49713,5,0,0:0:0:0:
368,120,49896,1,0,0:0:0:0:
248,304,50079,1,0,0:0:0:0:
280,88,50262,1,0,0:0:0:0:
352,296,50445,1,0,0:0:0:0:
208,128,50628,1,0,0:0:0:0:
408,216,50810,1,0,0:0:0:0:
184,216,50993,1,0,0:0:0:0:
384,120,51176,1,0,0:0:0:0:
240,288,51359,5,8,0:0:0:0:
240,288,51542,1,8,0:0:0:0:
104,80,51908,5,0,0:0:0:0:
296,184,52091,1,0,0:0:0:0:
88,264,52274,2,0,P|152:192|192:176,1,100
360,272,52640,2,0,P|312:200|280:184,1,100
112,88,53006,2,0,P|184:88|224:120,1,100
112,296,53371,6,0,P|160:288|208:232,1,100
408,248,53737,1,0,0:0:0:0:
232,120,53920,1,0,0:0:0:0:
336,312,54103,1,0,0:0:0:0:
376,96,54286,1,0,0:0:0:0:
184,200,54469,1,0,0:0:0:0:
408,200,54652,1,0,0:0:0:0:
280,128,54835,6,0,P|320:176|336:224,1,100
120,160,55201,2,0,P|160:80|200:56,1,100
384,88,55567,2,0,L|352:216,2,100
168,128,56115,1,0,0:0:0:0:
328,280,56298,5,0,0:0:0:0:
328,280,56481,1,0,0:0:0:0:
128,192,56664,5,0,0:0:0:0:
128,192,56847,1,0,0:0:0:0:
320,88,57030,5,0,0:0:0:0:
216,280,57213,1,0,0:0:0:0:
48,136,57396,1,0,0:0:0:0:
248,232,57579,5,0,0:0:0:0:
248,232,57670,1,0,0:0:0:0:
248,232,57762,1,0,0:0:0:0:
384,136,57945,1,0,0:0:0:0:
168,96,58128,5,0,0:0:0:0:
384,80,58310,1,0,0:0:0:0:
168,136,58493,5,0,0:0:0:0:
384,136,58676,1,0,0:0:0:0:
168,80,58859,5,0,0:0:0:0:
384,104,59042,1,0,0:0:0:0:
200,224,59225,6,0,P|232:296|272:320,1,100
432,192,59591,2,0,P|352:168|320:176,1,100
136,88,59957,2,0,P|144:160|168:200,1,100
320,128,60323,5,0,0:0:0:0:
312,168,60414,1,0,0:0:0:0:
304,208,60506,1,0,0:0:0:0:
296,248,60597,1,0,0:0:0:0:
288,288,60688,2,0,P|240:328|192:320,2,100
336,72,61237,1,0,0:0:0:0:
104,168,61420,6,0,L|208:112,1,100
376,240,61786,2,0,L|272:192,1,100
72,256,62152,2,0,L|184:312,1,100
336,160,62518,2,0,L|208:208,1,100
40,104,62884,5,0,0:0:0:0:
256,80,63067,1,0,0:0:0:0:
376,264,63250,1,0,0:0:0:0:
168,184,63432,2,0,L|208:296,1,100
368,128,63798,5,0,0:0:0:0:
152,112,63981,2,0,P|176:184|200:208,1,100
408,216,64347,2,0,P|352:280|304:288,2,100
192,184,64896,1,0,0:0:0:0:
408,104,65079,5,0,0:0:0:0:
304,296,65262,1,0,0:0:0:0:
160,128,65445,1,0,0:0:0:0:
368,192,65628,1,0,0:0:0:0:
168,288,65810,1,0,0:0:0:0:
288,104,65993,1,0,0:0:0:0:
328,320,66176,1,0,0:0:0:0:
168,168,66359,1,0,0:0:0:0:
392,168,66542,1,0,0:0:0:0:
