osu file format v14

[General]
AudioFilename: audio.mp3
AudioLeadIn: 0
PreviewTime: 39002
Countdown: 0
SampleSet: Soft
StackLeniency: 0.7
Mode: 0
LetterboxInBreaks: 0
WidescreenStoryboard: 1

[Editor]
DistanceSpacing: 1.5
BeatDivisor: 4
GridSize: 4
TimelineZoom: 1.7

[Metadata]
Title:I CAN'T STOP ME
TitleUnicode:I CAN'T STOP ME
Artist:TWICE
ArtistUnicode:트와이스
Creator:Fragmented
Version:RED LINE
Source:
Tags:charmcaster futser [Im nayeon] nabori cosmic cosmiccc Joo Haknyeon arnoldusj dora- doraemonelf synth retro k-pop kpop korean korea pop jype jyp entertainment title track second 2nd full album eyes wide open cant sana jihyo dahyun nayeon jeongyeon chaeyoung momo mina tzuyu 나연 정연 모모 사나 지효 미나 다현 채영 쯔위
BeatmapID:2671118
BeatmapSetID:1286496

[Difficulty]
HPDrainRate:5.5
CircleSize:4.2
OverallDifficulty:8.5
ApproachRate:9.2
SliderMultiplier:2
SliderTickRate:1

[Events]
//Background and Video events
0,0,"TWICE _I CAN'T STOP ME_ M_V 0-34 screenshot.jpg",0,0
Video,-3400,"Twice I Can't Stop Me M V-1-1.mp4"
//Break Periods
//Storyboard Layer 0 (Background)
//Storyboard Layer 1 (Fail)
//Storyboard Layer 2 (Pass)
//Storyboard Layer 3 (Foreground)
//Storyboard Layer 4 (Overlay)
//Storyboard Sound Samples

[TimingPoints]
202,400,4,2,1,70,1,0
402,-100,4,2,2,70,0,0
602,400,4,2,3,75,1,0
1802,-100,4,2,2,75,0,0
2002,-100,4,2,1,75,0,0
3202,-100,4,2,2,75,0,0
3402,-200,4,2,1,75,0,0
3602,-200,4,2,1,5,0,0
3802,-200,4,2,4,75,0,0
6002,-100,4,2,5,75,0,0
6202,-100,4,2,5,5,0,0
6402,-100,4,2,4,75,0,0
6602,-100,4,2,1,75,0,0
6802,-100,4,2,1,5,0,0
7002,-100,4,2,6,75,0,0
7102,-100,4,2,7,75,0,0
7602,-100,4,2,8,75,0,0
8202,-100,4,2,7,75,0,0
9202,-100,4,2,5,75,0,0
9402,-100,4,2,7,75,0,0
9602,-100,4,2,4,75,0,0
9802,-100,4,2,1,75,0,0
10002,-100,4,2,1,5,0,0
10202,-66.6666666666667,4,2,9,75,0,0
10552,-66.6666666666667,4,2,9,5,0,0
10602,-66.6666666666667,4,2,9,75,0,0
10802,-200,4,2,8,75,0,0
11152,-200,4,2,8,5,0,0
11202,-100,4,2,1,75,0,0
11252,-100,4,2,1,5,0,0
11402,-100,4,2,1,75,0,0
11452,-100,4,2,1,5,0,0
11602,-100,4,2,1,75,0,0
11652,-100,4,2,1,5,0,0
11802,-100,4,2,1,75,0,0
12002,-100,4,2,2,75,0,0
12052,-100,4,2,2,5,0,0
12202,-100,4,2,2,75,0,0
12252,-100,4,2,2,5,0,0
12402,-100,4,2,2,75,0,0
12452,-100,4,2,2,5,0,0
12602,-100,4,2,7,75,0,0
12802,-100,4,2,1,75,0,0
12852,-100,4,2,1,5,0,0
13002,-100,4,2,1,75,0,0
13052,-100,4,2,1,5,0,0
13202,-100,4,2,1,75,0,0
13252,-100,4,2,1,5,0,0
13402,-100,4,2,1,70,0,0
13752,-100,4,2,1,5,0,0
13802,-100,4,2,1,70,0,0
14002,-100,4,2,10,70,0,0
16952,-100,4,2,10,5,0,0
17002,-100,4,2,10,70,0,0
20152,-100,4,2,10,5,0,0
20202,-100,4,2,10,70,0,0
21602,-100,4,2,10,5,0,0
21802,-100,4,2,10,70,0,0
23952,-100,4,2,10,5,0,0
24002,-100,4,2,3,70,0,0
24052,-100,4,2,3,5,0,0
24202,-100,4,2,3,70,0,0
24252,-100,4,2,3,5,0,0
24402,-100,4,2,3,70,0,0
24452,-100,4,2,3,5,0,0
24602,-100,4,2,3,70,0,0
24652,-100,4,2,3,5,0,0
24802,-100,4,2,4,70,0,0
24852,-100,4,2,4,5,0,0
25002,-100,4,2,4,70,0,0
25402,-100,4,2,10,70,0,0
25452,-100,4,2,10,5,0,0
25602,-100,4,2,3,70,0,0
25652,-100,4,2,3,5,0,0
25802,-100,4,2,3,70,0,0
26202,-111.111111111111,4,2,10,65,0,0
27002,-111.111111111111,4,2,11,65,0,0
27402,-111.111111111111,4,2,10,65,0,0
28602,-111.111111111111,4,2,11,65,0,0
28802,-111.111111111111,4,2,10,65,0,0
30202,-111.111111111111,4,2,11,65,0,0
30602,-111.111111111111,4,2,10,65,0,0
31802,-111.111111111111,4,2,11,65,0,0
32002,-111.111111111111,4,2,10,65,0,0
33402,-111.111111111111,4,2,11,65,0,0
33802,-111.111111111111,4,2,10,65,0,0
35002,-111.111111111111,4,2,11,65,0,0
35202,-111.111111111111,4,2,10,65,0,0
35802,-200,4,2,7,65,0,0
36802,-200,4,2,1,65,0,0
36852,-200,4,2,1,5,0,0
37002,-200,4,2,1,65,0,0
37052,-200,4,2,1,5,0,0
37202,-200,4,2,1,65,0,0
37252,-200,4,2,1,5,0,0
37602,-200,4,2,2,65,0,0
37652,-200,4,2,2,5,0,0
37802,-200,4,2,2,65,0,0
37852,-200,4,2,2,5,0,0
38002,-200,4,2,2,65,0,0
38052,-200,4,2,2,5,0,0
38202,-50,4,2,2,65,0,0
39002,-83.3333333333333,4,2,12,90,0,1
39202,-83.3333333333333,4,2,13,90,0,1
40602,-66.6666666666667,4,2,13,90,0,1
40902,-66.6666666666667,4,2,13,5,0,1
41002,-50,4,2,13,90,0,1
41302,-50,4,2,13,5,0,1
41402,-40,4,2,13,90,0,1
41702,-40,4,2,13,5,0,1
41802,-66.6666666666667,4,2,13,90,0,1
42102,-66.6666666666667,4,2,13,5,0,1
42202,-66.6666666666667,4,2,13,90,0,1
43802,-50,4,2,13,90,0,1
44102,-50,4,2,13,5,0,1
44202,-50,4,2,13,90,0,1
44502,-50,4,2,13,5,0,1
44602,-50,4,2,13,90,0,1
45602,-83.3333333333333,4,2,13,90,0,1
47002,-66.6666666666667,4,2,13,90,0,1
47302,-66.6666666666667,4,2,13,5,0,1
47402,-66.6666666666667,4,2,13,90,0,1
47702,-66.6666666666667,4,2,13,5,0,1
47802,-83.3333333333333,4,2,13,90,0,1
48502,-83.3333333333333,4,2,13,5,0,1
48602,-83.3333333333333,4,2,13,80,0,1
48802,-83.3333333333333,4,2,10,80,0,1
49002,-83.3333333333333,4,2,14,80,0,1
49552,-83.3333333333333,4,2,14,5,0,1
49602,-83.3333333333333,4,2,4,80,0,1
49802,-83.3333333333333,4,2,5,80,0,1
50002,-83.3333333333333,4,2,4,80,0,1
50202,-83.3333333333333,4,2,3,80,0,1
50602,-83.3333333333333,4,2,6,80,0,1
51002,-83.3333333333333,4,2,15,80,0,1
51202,-83.3333333333333,4,2,1,80,0,1
51402,-83.3333333333333,4,2,15,80,0,0
51602,-83.3333333333333,4,2,1,80,0,0
51802,-83.3333333333333,4,2,12,90,0,1
52002,-83.3333333333333,4,2,13,90,0,1
53402,-66.6666666666667,4,2,13,90,0,1
53702,-66.6666666666667,4,2,13,5,0,1
53802,-66.6666666666667,4,2,13,90,0,1
54102,-66.6666666666667,4,2,13,5,0,1
54202,-66.6666666666667,4,2,13,90,0,1
54502,-66.6666666666667,4,2,13,5,0,1
54602,-66.6666666666667,4,2,13,90,0,1
54902,-66.6666666666667,4,2,13,5,0,1
55002,-66.6666666666667,4,2,13,90,0,1
56602,-83.3333333333333,4,2,16,90,0,1
56952,-83.3333333333333,4,2,16,5,0,1
57002,-83.3333333333333,4,2,16,90,0,1
57552,-83.3333333333333,4,2,16,5,0,1
57602,-83.3333333333333,4,2,16,90,0,1
58402,-83.3333333333333,4,2,16,5,0,1
58602,-83.3333333333333,4,2,13,90,0,1
59802,-66.6666666666667,4,2,13,90,0,1
60102,-66.6666666666667,4,2,13,5,0,1
60202,-66.6666666666667,4,2,13,90,0,1
60502,-66.6666666666667,4,2,13,5,0,1
60602,-66.6666666666667,4,2,13,90,0,1
61002,-83.3333333333333,4,2,13,90,0,1
61302,-83.3333333333333,4,2,13,5,0,1
61402,-83.3333333333333,4,2,13,80,0,1
61602,-83.3333333333333,4,2,10,80,0,1
61802,-83.3333333333333,4,2,14,80,0,1
62352,-83.3333333333333,4,2,14,5,0,1
62402,-83.3333333333333,4,2,4,80,0,1
62602,-83.3333333333333,4,2,5,80,0,1
62802,-83.3333333333333,4,2,4,80,0,1
63002,-83.3333333333333,4,2,3,80,0,1
63402,-83.3333333333333,4,2,6,80,0,1
63802,-83.3333333333333,4,2,15,80,0,1
64002,-83.3333333333333,4,2,1,80,0,1
64202,-83.3333333333333,4,2,17,80,0,1
64402,-83.3333333333333,4,2,18,80,0,1
64602,-83.3333333333333,4,2,19,85,0,0
64702,-83.3333333333333,4,2,7,85,0,0
65002,-100,4,2,7,85,0,0
65352,-100,4,2,7,5,0,0
65402,-100,4,2,7,85,0,0
65602,-100,4,2,3,85,0,0
65802,-100,4,2,20,85,0,0
65902,-100,4,2,7,85,0,0
66002,-100,4,2,21,85,0,0
66202,-100,4,2,7,85,0,0
66402,-100,4,2,7,5,0,0
66602,-100,4,2,7,85,0,0
66802,-100,4,2,7,5,0,0
67002,-100,4,2,21,85,0,0
67202,-100,4,2,2,85,0,0
67402,-100,4,2,1,85,0,0
67702,-100,4,2,1,5,0,0
67802,-100,4,2,22,85,0,0
67902,-100,4,2,7,85,0,0
68552,-100,4,2,7,5,0,0
68602,-100,4,2,7,85,0,0
69602,-100,4,2,7,5,0,0
69802,-100,4,2,7,85,0,0
70002,-100,4,2,5,85,0,0
70202,-100,4,2,7,85,0,0
70402,-100,4,2,4,85,0,0
70602,-100,4,2,1,85,0,0
70902,-100,4,2,1,5,0,0
71002,-100,4,2,6,85,0,0
71102,-100,4,2,7,85,0,0
71602,-100,4,2,8,85,0,0
71752,-100,4,2,8,5,0,0
71802,-100,4,2,8,85,0,0
72002,-100,4,2,7,85,0,0
72802,-100,4,2,7,5,0,0
73002,-100,4,2,7,85,0,0
73202,-100,4,2,5,85,0,0
73402,-100,4,2,7,85,0,0
73602,-100,4,2,4,85,0,0
73802,-100,4,2,1,85,0,0
74102,-100,4,2,1,5,0,0
74202,-100,4,2,9,75,0,0
74402,-100,4,2,10,75,0,0
74802,-100,4,2,8,75,0,0
75152,-100,4,2,8,5,0,0
75202,-100,4,2,10,75,0,0
75952,-100,4,2,10,5,0,0
76002,-100,4,2,10,75,0,0
76402,-100,4,2,7,75,0,0
76902,-100,4,2,7,5,0,0
77002,-100,4,2,7,75,0,0
77302,-100,4,2,7,5,0,0
77402,-100,4,2,7,70,0,0
77802,-125,4,2,7,70,0,0
78602,-125,4,2,10,70,0,0
79602,-125,4,2,7,80,0,0
80002,-66.6666666666667,4,2,7,80,0,0
80052,-66.6666666666667,4,2,7,5,0,0
80202,-66.6666666666667,4,2,7,80,0,0
80252,-66.6666666666667,4,2,7,5,0,0
80402,-66.6666666666667,4,2,7,80,0,0
80452,-66.6666666666667,4,2,7,5,0,0
80602,-66.6666666666667,4,2,7,75,0,0
81002,-100,4,2,7,75,0,0
81802,-100,4,2,10,75,0,0
81902,-100,4,2,10,5,0,0
82002,-100,4,2,10,75,0,0
82102,-100,4,2,10,5,0,0
82202,-100,4,2,10,75,0,0
82802,-100,4,2,7,75,0,0
83302,-100,4,2,7,5,0,0
83402,-100,4,2,7,75,0,0
83702,-100,4,2,7,5,0,0
83802,-100,4,2,7,75,0,0
84102,-100,4,2,7,5,0,0
84202,-100,4,2,7,75,0,0
86802,-100,4,2,10,75,0,0
88002,-100,4,2,3,75,0,0
88052,-100,4,2,3,5,0,0
88202,-100,4,2,3,75,0,0
88252,-100,4,2,3,5,0,0
88402,-100,4,2,3,75,0,0
88452,-100,4,2,3,5,0,0
88602,-100,4,2,3,75,0,0
88802,-100,4,2,4,75,0,0
88852,-100,4,2,4,5,0,0
89002,-100,4,2,4,75,0,0
89052,-100,4,2,4,5,0,0
89202,-100,4,2,4,75,0,0
89602,-100,4,2,3,75,0,0
90202,-111.111111111111,4,2,10,65,0,0
91002,-111.111111111111,4,2,11,65,0,0
91402,-111.111111111111,4,2,10,65,0,0
92602,-111.111111111111,4,2,11,65,0,0
92802,-111.111111111111,4,2,10,65,0,0
94202,-111.111111111111,4,2,11,65,0,0
94602,-111.111111111111,4,2,10,65,0,0
95802,-111.111111111111,4,2,11,65,0,0
96002,-111.111111111111,4,2,10,65,0,0
97402,-111.111111111111,4,2,11,65,0,0
97802,-111.111111111111,4,2,10,65,0,0
99002,-111.111111111111,4,2,11,65,0,0
99202,-111.111111111111,4,2,10,65,0,0
99802,-200,4,2,7,65,0,0
100802,-200,4,2,1,65,0,0
100852,-200,4,2,1,5,0,0
101002,-200,4,2,1,65,0,0
101052,-200,4,2,1,5,0,0
101202,-200,4,2,1,65,0,0
101252,-200,4,2,1,5,0,0
101602,-200,4,2,2,65,0,0
101652,-200,4,2,2,5,0,0
101802,-200,4,2,2,65,0,0
101852,-200,4,2,2,5,0,0
102002,-200,4,2,2,65,0,0
102052,-200,4,2,2,5,0,0
102202,-50,4,2,2,65,0,0
102252,-50,4,2,2,5,0,0
103002,-83.3333333333333,4,2,12,90,0,1
103202,-83.3333333333333,4,2,13,90,0,1
104602,-66.6666666666667,4,2,13,90,0,1
104902,-66.6666666666667,4,2,13,5,0,1
105002,-50,4,2,13,90,0,1
105302,-50,4,2,13,5,0,1
105402,-40,4,2,13,90,0,1
105702,-40,4,2,13,5,0,1
105802,-66.6666666666667,4,2,13,90,0,1
106102,-66.6666666666667,4,2,13,5,0,1
106202,-66.6666666666667,4,2,13,90,0,1
107802,-50,4,2,13,90,0,1
108102,-50,4,2,13,5,0,1
108202,-50,4,2,13,90,0,1
108502,-50,4,2,13,5,0,1
108602,-50,4,2,13,90,0,1
109602,-83.3333333333333,4,2,13,90,0,1
111002,-66.6666666666667,4,2,13,90,0,1
111302,-66.6666666666667,4,2,13,5,0,1
111402,-66.6666666666667,4,2,13,90,0,1
111702,-66.6666666666667,4,2,13,5,0,1
111802,-83.3333333333333,4,2,13,90,0,1
112502,-83.3333333333333,4,2,13,5,0,1
112602,-83.3333333333333,4,2,13,80,0,1
112802,-83.3333333333333,4,2,10,80,0,1
113002,-83.3333333333333,4,2,14,80,0,1
113552,-83.3333333333333,4,2,14,5,0,1
113602,-83.3333333333333,4,2,4,80,0,1
113802,-83.3333333333333,4,2,5,80,0,1
114002,-83.3333333333333,4,2,4,80,0,1
114202,-83.3333333333333,4,2,3,80,0,1
114602,-83.3333333333333,4,2,6,80,0,1
115002,-83.3333333333333,4,2,15,80,0,1
115202,-83.3333333333333,4,2,1,80,0,1
115402,-83.3333333333333,4,2,15,80,0,0
115602,-83.3333333333333,4,2,1,80,0,0
115802,-83.3333333333333,4,2,12,90,0,1
116002,-83.3333333333333,4,2,13,90,0,1
117402,-66.6666666666667,4,2,13,90,0,1
117702,-66.6666666666667,4,2,13,5,0,1
117802,-66.6666666666667,4,2,13,90,0,1
118102,-66.6666666666667,4,2,13,5,0,1
118202,-66.6666666666667,4,2,13,90,0,1
118502,-66.6666666666667,4,2,13,5,0,1
118602,-66.6666666666667,4,2,13,90,0,1
118902,-66.6666666666667,4,2,13,5,0,1
119002,-66.6666666666667,4,2,13,90,0,1
120602,-83.3333333333333,4,2,16,90,0,1
120952,-83.3333333333333,4,2,16,5,0,1
121002,-83.3333333333333,4,2,16,90,0,1
121552,-83.3333333333333,4,2,16,5,0,1
121602,-83.3333333333333,4,2,16,90,0,1
122402,-83.3333333333333,4,2,16,5,0,1
122602,-83.3333333333333,4,2,13,90,0,1
123802,-66.6666666666667,4,2,13,90,0,1
124102,-66.6666666666667,4,2,13,5,0,1
124202,-66.6666666666667,4,2,13,90,0,1
124502,-66.6666666666667,4,2,13,5,0,1
124602,-83.3333333333333,4,2,13,90,0,1
125302,-83.3333333333333,4,2,13,5,0,1
125402,-83.3333333333333,4,2,13,80,0,1
125602,-83.3333333333333,4,2,10,80,0,1
125802,-83.3333333333333,4,2,14,80,0,1
126352,-83.3333333333333,4,2,14,5,0,1
126402,-83.3333333333333,4,2,4,80,0,1
126602,-83.3333333333333,4,2,5,80,0,1
126802,-83.3333333333333,4,2,4,80,0,1
127002,-83.3333333333333,4,2,3,80,0,1
127402,-83.3333333333333,4,2,6,80,0,1
127802,-83.3333333333333,4,2,15,80,0,1
128002,-83.3333333333333,4,2,1,80,0,1
128202,-83.3333333333333,4,2,17,80,0,1
128402,-83.3333333333333,4,2,18,80,0,1
128602,-90.9090909090909,4,2,23,80,0,0
128702,-90.9090909090909,4,2,24,80,0,0
129602,-90.9090909090909,4,2,23,80,0,0
129802,-90.9090909090909,4,2,18,80,0,0
130002,-90.9090909090909,4,2,25,80,0,0
130202,-90.9090909090909,4,2,24,80,0,0
131002,-90.9090909090909,4,2,25,80,0,0
131202,-90.9090909090909,4,2,18,80,0,0
131402,-90.9090909090909,4,2,25,80,0,0
131602,-90.9090909090909,4,2,25,5,0,0
131802,-90.9090909090909,4,2,26,80,0,0
131902,-90.9090909090909,4,2,26,5,0,0
132002,-90.9090909090909,4,2,24,80,0,0
132302,-90.9090909090909,4,2,24,5,0,0
132402,-90.9090909090909,4,2,24,80,0,0
134002,-90.9090909090909,4,2,27,80,0,0
134202,-90.9090909090909,4,2,24,80,0,0
134402,-90.9090909090909,4,2,26,80,0,0
134602,-90.9090909090909,4,2,25,80,0,0
134802,-90.9090909090909,4,2,25,5,0,0
135002,-90.9090909090909,4,2,28,80,0,0
135402,-90.9090909090909,4,2,2,80,0,0
135602,-90.9090909090909,4,2,29,80,0,0
135702,-90.9090909090909,4,2,7,80,0,0
137202,-90.9090909090909,4,2,30,80,0,0
137302,-90.9090909090909,4,2,7,80,0,0
137602,-90.9090909090909,4,2,31,80,0,0
137802,-90.9090909090909,4,2,32,80,0,0
138002,-90.9090909090909,4,2,7,80,0,0
138202,-90.9090909090909,4,2,28,80,0,0
138602,-90.9090909090909,4,2,2,80,0,0
138802,-90.9090909090909,4,2,33,80,0,0
138902,-90.9090909090909,4,2,24,80,0,0
141402,-200,4,2,1,55,0,0
141802,-200,4,2,7,55,0,0
142402,-200,4,2,23,55,0,0
142602,-200,4,2,18,55,0,0
142802,-200,4,2,32,55,0,0
143002,-200,4,2,7,55,0,0
143802,-200,4,2,32,55,0,0
144002,-200,4,2,18,55,0,0
144202,-200,4,2,25,55,0,0
144602,-200,4,2,31,55,0,0
145002,-200,4,2,7,55,0,0
146802,-200,4,2,27,55,0,0
147202,-200,4,2,26,55,0,0
147402,-200,4,2,25,55,0,0
147802,-200,4,2,28,55,0,0
148202,-200,4,2,7,55,0,0
148402,-200,4,2,33,55,0,0
148602,-200,4,2,7,55,0,0
150002,-200,4,2,27,55,0,0
150402,-200,4,2,31,65,0,0
150602,-200,4,2,32,65,0,0
150802,-200,4,2,7,65,0,0
151002,-200,4,2,28,65,0,0
151202,-200,4,2,7,65,0,0
151402,-200,4,2,10,75,0,0
151602,-142.857142857143,4,2,8,75,0,0
152002,-142.857142857143,4,2,4,75,0,0
152202,-142.857142857143,4,2,7,85,0,0
152402,-90.9090909090909,4,2,7,85,0,0
152802,-90.9090909090909,4,2,6,85,0,0
153202,-90.9090909090909,4,2,16,85,0,0
153402,-200,4,2,16,85,0,0
154202,-80,4,2,34,95,0,1
154402,-80,4,2,13,95,0,1
155802,-64.5161290322581,4,2,13,95,0,1
156102,-64.5161290322581,4,2,13,5,0,1
156202,-48.780487804878,4,2,13,95,0,1
156502,-48.780487804878,4,2,13,5,0,1
156602,-39.2156862745098,4,2,13,95,0,1
156902,-39.2156862745098,4,2,13,5,0,1
157002,-64.5161290322581,4,2,13,95,0,1
157302,-64.5161290322581,4,2,13,5,0,1
157402,-64.5161290322581,4,2,13,95,0,1
159002,-48.780487804878,4,2,13,95,0,1
159302,-48.780487804878,4,2,13,5,0,1
159402,-48.780487804878,4,2,13,95,0,1
159702,-48.780487804878,4,2,13,5,0,1
159802,-48.780487804878,4,2,13,95,0,1
160802,-80,4,2,13,95,0,1
162202,-64.5161290322581,4,2,13,95,0,1
162502,-64.5161290322581,4,2,13,5,0,1
162602,-64.5161290322581,4,2,13,95,0,1
162902,-64.5161290322581,4,2,13,5,0,1
163002,-80,4,2,13,95,0,1
163702,-80,4,2,13,5,0,1
163802,-80,4,2,13,85,0,1
164002,-80,4,2,10,85,0,1
164202,-80,4,2,14,85,0,1
164752,-80,4,2,14,5,0,1
164802,-80,4,2,4,85,0,1
165002,-80,4,2,5,85,0,1
165202,-80,4,2,4,85,0,1
165402,-80,4,2,3,85,0,1
165802,-80,4,2,6,85,0,1
166202,-80,4,2,15,85,0,1
166402,-80,4,2,1,85,0,1
166602,-80,4,2,15,85,0,0
166802,-80,4,2,1,85,0,0
167002,-80,4,2,12,95,0,1
167202,-80,4,2,13,95,0,1
168602,-64.5161290322581,4,2,13,95,0,1
168902,-64.5161290322581,4,2,13,5,0,1
169002,-64.5161290322581,4,2,13,95,0,1
169302,-64.5161290322581,4,2,13,5,0,1
169402,-64.5161290322581,4,2,13,95,0,1
169702,-64.5161290322581,4,2,13,5,0,1
169802,-64.5161290322581,4,2,13,95,0,1
170102,-64.5161290322581,4,2,13,5,0,1
170202,-64.5161290322581,4,2,13,95,0,1
171802,-80,4,2,16,95,0,1
172152,-80,4,2,16,5,0,1
172202,-80,4,2,16,95,0,1
172752,-80,4,2,16,5,0,1
172802,-80,4,2,16,95,0,1
173602,-80,4,2,16,5,0,1
173802,-80,4,2,13,95,0,1
175002,-64.5161290322581,4,2,13,95,0,1
175302,-64.5161290322581,4,2,13,5,0,1
175402,-64.5161290322581,4,2,13,95,0,1
175702,-64.5161290322581,4,2,13,5,0,1
175802,-80,4,2,13,95,0,1
176502,-80,4,2,13,5,0,1
176602,-80,4,2,13,85,0,1
176802,-80,4,2,10,85,0,1
177002,-80,4,2,14,85,0,1
177552,-80,4,2,14,5,0,1
177602,-80,4,2,4,85,0,1
177802,-80,4,2,5,85,0,1
178002,-80,4,2,4,85,0,1
178202,-80,4,2,3,85,0,1
178602,-80,4,2,6,85,0,1
179002,-80,4,2,15,85,0,1
179202,-80,4,2,1,85,0,1
179402,-80,4,2,17,85,0,1
179602,-80,4,2,18,85,0,1
179802,-80,4,2,35,90,0,0
179902,-80,4,2,7,90,0,0
180202,-86.9565217391304,4,2,7,90,0,0
180552,-86.9565217391304,4,2,7,5,0,0
180602,-86.9565217391304,4,2,7,90,0,0
180802,-86.9565217391304,4,2,3,90,0,0
181002,-86.9565217391304,4,2,20,90,0,0
181102,-86.9565217391304,4,2,7,90,0,0
181202,-86.9565217391304,4,2,21,90,0,0
181402,-86.9565217391304,4,2,7,90,0,0
181602,-86.9565217391304,4,2,7,5,0,0
181802,-86.9565217391304,4,2,7,90,0,0
182002,-86.9565217391304,4,2,7,5,0,0
182202,-86.9565217391304,4,2,21,90,0,0
182402,-86.9565217391304,4,2,2,90,0,0
182602,-86.9565217391304,4,2,1,90,0,0
182902,-86.9565217391304,4,2,1,5,0,0
183002,-86.9565217391304,4,2,22,90,0,0
183102,-86.9565217391304,4,2,7,90,0,0
183752,-86.9565217391304,4,2,7,5,0,0
183802,-86.9565217391304,4,2,7,90,0,0
184802,-86.9565217391304,4,2,7,5,0,0
185002,-86.9565217391304,4,2,7,90,0,0
185202,-86.9565217391304,4,2,5,90,0,0
185402,-86.9565217391304,4,2,7,90,0,0
185602,-86.9565217391304,4,2,4,90,0,0
185802,-86.9565217391304,4,2,1,90,0,0
186102,-86.9565217391304,4,2,1,5,0,0
186202,-86.9565217391304,4,2,6,90,0,0
186302,-86.9565217391304,4,2,7,90,0,0
186802,-86.9565217391304,4,2,8,90,0,0
186952,-86.9565217391304,4,2,8,5,0,0
187002,-86.9565217391304,4,2,8,90,0,0
187202,-86.9565217391304,4,2,7,90,0,0
188002,-86.9565217391304,4,2,7,5,0,0
188202,-86.9565217391304,4,2,7,90,0,0
188402,-86.9565217391304,4,2,5,90,0,0
188602,-86.9565217391304,4,2,7,90,0,0
188802,-86.9565217391304,4,2,4,90,0,0
189002,-86.9565217391304,4,2,1,90,0,0
189352,-86.9565217391304,4,2,1,5,0,0
189402,-86.9565217391304,4,2,9,90,0,0
189602,-86.9565217391304,4,2,10,90,0,0
190002,-86.9565217391304,4,2,8,90,0,0
190352,-86.9565217391304,4,2,8,5,0,0
190402,-86.9565217391304,4,2,4,90,0,0
191002,-86.9565217391304,4,2,3,90,0,0
191802,-86.9565217391304,4,2,15,90,0,0
192002,-86.9565217391304,4,2,1,90,0,0
192202,-86.9565217391304,4,2,15,90,0,0
192402,-86.9565217391304,4,2,1,90,0,0
192602,-200,4,2,1,70,0,0
192702,-200,4,2,7,40,0,0
205202,-200,4,2,7,5,0,0

[Colours]
Combo1 : 1,198,239
Combo2 : 255,0,128
Combo3 : 255,255,91
Combo4 : 149,43,255
Combo5 : 146,223,0
Combo6 : 183,0,0
SliderBorder : 168,63,57
SliderTrackOverride : 19,38,32

[HitObjects]
181,211,202,5,2,2:0:0:0:
181,211,402,1,2,2:0:0:0:
181,211,602,5,2,2:0:0:0:
270,165,802,1,0,2:0:0:0:
315,254,1002,1,0,2:0:0:0:
226,300,1202,1,0,2:0:0:0:
184,216,1402,1,0,2:0:0:0:
396,136,1602,5,2,2:0:0:0:
456,264,1802,1,2,2:0:0:0:
315,254,2002,1,2,2:0:0:0:
232,48,2202,5,0,2:0:0:0:
330,30,2402,1,0,2:0:0:0:
347,129,2602,1,0,2:0:0:0:
249,146,2802,1,0,2:0:0:0:
330,30,3002,5,2,2:0:0:0:
452,88,3202,1,2,2:0:0:0:
336,168,3402,2,0,L|281:163,1,50,2|0,2:0|2:0,2:0:0:0:
286,163,3802,5,2,2:0:0:0:
272,63,4002,1,0,2:0:0:0:
371,50,4202,1,0,2:0:0:0:
385,149,4402,1,0,2:0:0:0:
224,256,4602,5,0,2:0:0:0:
131,295,4802,1,0,2:0:0:0:
92,203,5002,1,0,2:0:0:0:
185,163,5202,1,0,2:0:0:0:
316,220,5402,5,0,2:0:0:0:
304,316,5602,1,0,2:0:0:0:
408,176,5802,1,0,2:0:0:0:
336,72,6002,6,0,L|212:84,1,100,2|0,2:0|2:0,2:0:0:0:
64,176,6402,1,2,2:0:0:0:
136,72,6602,2,0,L|260:84,1,100,2|0,2:0|2:0,2:0:0:0:
112,264,7002,6,0,P|72:276|-8:244,1,100,2|2,2:0|2:0,2:0:0:0:
64,176,7402,1,2,2:0:0:0:
232,288,7602,2,0,P|244:344|220:396,1,100,2|0,2:0|2:0,2:0:0:0:
148,328,8002,1,0,2:0:0:0:
132,236,8202,1,2,2:0:0:0:
188,156,8402,1,2,2:0:0:0:
172,64,8602,5,2,2:0:0:0:
88,104,8802,1,0,2:0:0:0:
260,96,9002,1,2,2:0:0:0:
384,44,9202,2,0,L|376:172,1,100,2|2,2:0|2:0,2:0:0:0:
176,144,9602,1,2,2:0:0:0:
72,208,9802,2,0,L|80:336,1,100,2|0,2:0|2:0,2:0:0:0:
28,120,10202,6,0,P|60:20|96:108,1,262.5,6|0,2:0|2:0,2:0:0:0:
104,128,10602,1,0,2:0:0:0:
100,224,10802,6,0,P|140:200|188:192,1,87.5,2|0,2:0|2:0,2:0:0:0:
204,192,11202,6,0,L|244:184,1,25,8|0,2:3|2:0,2:0:0:0:
212,284,11402,2,0,L|247:303,1,25,8|0,2:3|2:0,2:0:0:0:
140,340,11602,2,0,L|154:378,1,25,8|0,2:3|2:0,2:0:0:0:
116,240,11802,1,0,2:0:0:0:
328,128,12002,6,0,L|288:120,1,25,10|0,2:3|2:0,2:0:0:0:
320,220,12202,2,0,L|284:239,1,25,10|0,2:3|2:0,2:0:0:0:
392,276,12402,2,0,L|377:314,1,25,10|0,2:3|2:0,2:0:0:0:
416,176,12602,1,2,2:0:0:0:
228,20,12802,6,0,L|204:24,1,25,6|0,2:3|2:0,2:0:0:0:
152,124,13002,2,0,L|128:120,1,25,6|0,2:3|2:0,2:0:0:0:
56,56,13202,2,0,L|32:60,1,25,6|0,2:3|2:0,2:0:0:0:
284,160,13402,6,0,B|344:148|344:148|384:164|384:164|456:152,1,175,0|0,3:0|2:0,2:0:0:0:
480,148,13802,1,0,1:0:0:0:
240,240,14002,2,0,P|280:256|336:240,1,100,2|0,2:0|2:0,2:0:0:0:
280,72,14402,1,0,3:0:0:0:
220,264,14602,1,2,1:2:0:0:
396,144,14802,1,2,2:0:0:0:
168,72,15002,2,0,L|180:204,2,100,0|0|0,3:0|2:0|1:0,2:0:0:0:
32,284,15602,5,2,2:0:0:0:
204,176,15802,1,2,3:2:0:0:
4,148,16002,1,2,3:2:0:0:
264,120,16202,2,0,P|288:192|256:240,1,100,2|2,1:2|2:0,2:0:0:0:
44,48,16602,6,0,B|92:20|140:40|120:52|168:68|224:44,1,175,2|0,3:2|2:0,2:0:0:0:
240,40,17002,1,0,1:0:0:0:
464,168,17202,2,0,B|420:184|420:184|356:160,1,100,2|0,2:0|2:0,2:0:0:0:
420,44,17602,1,2,3:2:0:0:
296,148,17802,1,2,1:2:0:0:
460,320,18002,2,0,B|488:332|520:312|500:276|476:272|436:300|412:328|348:300,1,200,2|0,2:0|2:0,2:0:0:0:
220,100,18602,2,0,P|208:172|228:208,1,100,0|2,1:0|2:0,2:0:0:0:
404,64,19002,5,2,3:2:0:0:
340,276,19202,1,2,3:2:0:0:
192,92,19402,2,0,L|320:104,1,100,2|2,1:2|2:0,2:0:0:0:
52,316,19802,6,0,B|24:284|16:252|32:208|44:196|44:196|32:228|44:248,1,175,0|0,3:0|2:0,2:0:0:0:
60,252,20202,1,0,1:0:0:0:
292,116,20402,2,0,P|292:48|224:112,1,200,2|0,2:0|3:0,2:0:0:0:
320,228,21002,1,2,1:2:0:0:
420,56,21202,2,0,B|452:36|452:36|432:212,1,200,2|0,2:0|2:0,2:0:0:0:
223,238,21802,2,0,P|271:222|327:230,1,100,0|2,1:0|2:0,2:0:0:0:
284,340,22202,5,2,3:2:0:0:
360,160,22402,1,2,3:2:0:0:
480,312,22602,1,2,1:2:0:0:
284,340,22802,1,2,2:0:0:0:
192,132,23002,6,0,B|260:124|260:124|280:160,2,100,2|2|0,3:2|2:0|1:0,2:0:0:0:
120,56,23602,1,2,2:0:0:0:
35,256,23802,2,0,P|91:264|123:252,1,75,2|0,2:0|2:0,2:0:0:0:
127,244,24002,2,0,L|135:208,1,25,10|0,3:0|2:0,2:0:0:0:
215,124,24202,2,0,L|179:135,1,25,10|0,1:3|2:0,2:0:0:0:
67,108,24402,2,0,L|94:132,1,25,10|0,2:3|2:0,2:0:0:0:
336,272,24602,6,0,L|292:280,1,25,0|0,3:0|2:0,2:0:0:0:
396,180,24802,2,0,L|411:137,1,25,8|0,2:3|2:0,2:0:0:0:
452,288,25002,1,8,1:3:0:0:
452,288,25202,1,10,2:3:0:0:
241,156,25402,2,0,L|256:113,1,25,2|0,3:2|2:0,2:0:0:0:
295,257,25602,2,0,L|323:291,1,25,6|0,3:0|2:0,2:0:0:0:
172,256,25802,1,6,1:3:0:0:
172,256,26002,1,6,2:3:0:0:
82,267,26202,6,0,B|136:256|168:304|144:312|176:352|248:348,1,180,6|0,3:2|2:0,2:0:0:0:
364,192,26802,2,0,L|372:228,1,22.5,10|8,3:2|2:0,2:0:0:0:
340,240,26902,2,0,L|368:256,1,22.5,8|8,2:0|2:0,2:0:0:0:
364,288,27002,2,0,L|468:280,1,90.0000000000001,2|2,1:2|2:0,2:0:0:0:
272,184,27402,2,0,L|168:176,1,90.0000000000001,2|2,3:2|2:0,2:0:0:0:
384,32,27802,1,2,2:0:0:0:
496,152,28002,2,0,L|488:120,4,22.5,8|8|8|8|0,2:0|2:0|2:0|2:0|3:0,2:0:0:0:
400,248,28402,1,2,2:0:0:0:
184,176,28602,5,2,1:2:0:0:
252,268,28802,1,2,3:2:0:0:
240,112,29002,1,2,2:0:0:0:
196,332,29202,1,2,2:0:0:0:
400,248,29402,6,0,P|416:200|408:156,2,90.0000000000001,2|2|2,3:2|2:0|2:0,2:0:0:0:
224,120,30002,1,10,3:2:0:0:
224,120,30102,2,0,L|228:96,1,22.5,8|8,2:0|2:0,2:0:0:0:
224,120,30202,1,2,1:2:0:0:
328,192,30402,1,2,2:0:0:0:
144,224,30602,1,2,3:2:0:0:
392,260,30802,2,0,B|436:276|436:276|480:256,1,90.0000000000001,10|0,2:0|2:0,2:0:0:0:
324,169,31202,2,0,L|328:193,4,22.5,8|8|8|8|0,2:0|2:0|2:0|2:0|3:0,2:0:0:0:
216,312,31602,6,0,L|209:273,1,22.5,10|8,2:0|2:0,2:0:0:0:
228,264,31702,2,0,L|204:232,1,22.5,8|8,2:0|2:0,2:0:0:0:
212,216,31802,2,0,L|116:200,1,90.0000000000001,2|2,1:2|3:2,2:0:0:0:
80,56,32202,1,2,2:0:0:0:
32,252,32402,1,2,2:0:0:0:
236,200,32602,6,0,B|260:148|260:148|220:12,1,180,2|0,3:2|2:0,2:0:0:0:
12,100,33202,2,0,L|8:136,1,22.5,10|8,3:2|2:0,2:0:0:0:
48,96,33302,2,0,L|44:132,1,22.5,8|8,2:0|2:0,2:0:0:0:
84,92,33402,2,0,L|76:192,1,90.0000000000001,2|2,1:2|2:0,2:0:0:0:
196,320,33802,2,0,L|188:220,1,90.0000000000001,2|2,3:2|2:0,2:0:0:0:
336,136,34202,1,2,2:0:0:0:
172,64,34402,2,0,L|176:96,4,22.5,8|8|8|8|0,2:0|2:0|2:0|2:0|3:0,2:0:0:0:
356,136,34802,1,2,2:0:0:0:
116,316,35002,5,2,1:2:0:0:
296,252,35202,1,2,3:2:0:0:
88,160,35402,1,2,2:0:0:0:
120,336,35602,1,2,2:0:0:0:
264,80,35802,6,0,P|296:76|328:84,1,50,6|2,2:0|2:0,2:0:0:0:
384,136,36202,2,0,P|416:140|448:132,1,50,2|2,2:0|2:0,2:0:0:0:
496,72,36602,1,2,2:0:0:0:
472,228,36802,6,0,L|476:248,1,12.5,10|0,2:3|2:0,2:0:0:0:
404,296,37002,2,0,L|400:316,1,12.5,10|0,2:3|2:0,2:0:0:0:
480,356,37202,2,0,L|484:376,1,12.5,10|0,2:3|2:0,2:0:0:0:
304,104,37602,6,0,L|308:124,1,12.5,10|0,2:3|2:0,2:0:0:0:
236,172,37802,2,0,L|232:192,1,12.5,10|0,2:3|2:0,2:0:0:0:
312,232,38002,2,0,L|316:252,1,12.5,10|0,2:3|2:0,2:0:0:0:
145,29,38202,6,0,L|92:36,1,50,0|0,1:0|2:0,2:0:0:0:
96,36,39002,6,0,L|80:176,1,120,6|2,3:2|2:0,2:0:0:0:
212,348,39402,1,10,1:2:0:0:
80,184,39602,1,2,2:0:0:0:
264,64,39802,1,2,2:0:0:0:
188,340,40002,1,2,3:2:0:0:
374,241,40202,1,10,1:2:0:0:
244,56,40402,1,2,2:0:0:0:
444,272,40602,6,0,P|436:180|384:260,1,225,2|0,3:2|2:0,2:0:0:0:
368,248,41002,2,0,P|444:164|434:282,1,300,10|0,1:2|2:0,2:0:0:0:
436,288,41402,2,0,P|456:148|392:280,1,375,2|0,3:2|2:0,2:0:0:0:
128,84,41802,6,0,B|212:92|212:92|256:68|256:68|360:80,1,225,10|0,1:2|2:0,2:0:0:0:
276,172,42202,5,0,3:0:0:0:
48,168,42402,1,2,2:0:0:0:
252,272,42602,1,10,1:2:0:0:
72,68,42802,1,2,2:0:0:0:
368,160,43002,1,2,2:0:0:0:
294,350,43202,1,2,3:2:0:0:
104,276,43402,1,10,1:2:0:0:
177,86,43602,1,2,2:0:0:0:
488,212,43802,6,0,B|474:227|442:243|410:215|388:184|388:184|356:132|304:120|252:140|236:180,1,300,2|0,3:2|2:0,2:0:0:0:
240,252,44202,2,0,B|252:284|304:304|356:292|388:240|388:240|410:209|442:181|474:197|488:212,1,300,10|0,1:2|2:0,2:0:0:0:
448,304,44602,1,2,3:2:0:0:
224,256,44802,1,2,3:2:0:0:
492,92,45002,1,10,1:2:0:0:
284,40,45202,1,2,2:0:0:0:
240,252,45402,5,0,3:0:0:0:
68,80,45602,2,0,L|76:216,2,120,2|10|2,2:0|1:2|2:0,2:0:0:0:
292,136,46202,1,2,2:0:0:0:
76,200,46402,1,2,3:2:0:0:
344,276,46602,1,10,1:2:0:0:
96,208,46802,1,2,2:0:0:0:
388,56,47002,6,0,B|480:116|480:116|448:256,1,225,2|0,3:2|2:0,2:0:0:0:
440,248,47402,2,0,B|465:135|465:135|373:75,1,225,10|0,1:2|2:0,2:0:0:0:
296,136,47802,6,0,P|276:92|312:12,1,120,2|0,3:2|3:0,2:0:0:0:
440,248,48202,2,0,B|416:292|372:296|372:296|332:252|252:280,1,180,10|0,1:2|2:0,2:0:0:0:
208,328,48602,5,0,3:0:0:0:
192,104,48802,1,2,2:0:0:0:
56,188,49002,1,10,1:2:0:0:
344,200,49202,2,0,B|384:172|384:172|416:96|364:20,1,210,2|0,2:0|2:0,2:0:0:0:
336,16,49602,1,10,3:0:0:0:
208,144,49802,1,10,1:3:0:0:
368,308,50002,2,0,P|428:324|504:288,1,120,10|4,2:3|3:0,2:0:0:0:
321,143,50402,2,0,P|261:127|185:163,1,120,6|12,2:3|1:3,2:0:0:0:
268,236,50802,1,4,3:0:0:0:
136,60,51002,5,6,1:2:0:0:
240,356,51202,1,4,3:0:0:0:
248,32,51402,5,6,1:2:0:0:
128,320,51602,1,4,3:0:0:0:
448,220,51802,6,0,L|416:84,1,120,6|2,3:2|2:0,2:0:0:0:
220,36,52202,1,10,1:2:0:0:
424,88,52402,1,2,2:0:0:0:
372,300,52602,1,2,2:0:0:0:
212,56,52802,1,2,3:2:0:0:
432,68,53002,1,10,1:2:0:0:
164,248,53202,1,2,2:0:0:0:
448,48,53402,6,0,L|460:280,1,225,2|0,3:2|2:0,2:0:0:0:
440,288,53802,2,0,L|428:56,1,225,10|0,1:2|2:0,2:0:0:0:
408,84,54202,2,0,L|420:316,1,225,2|0,3:2|2:0,2:0:0:0:
332,200,54602,6,0,B|276:192|276:192|256:168|256:168|100:148,1,225,10|0,1:2|2:0,2:0:0:0:
64,64,55002,5,0,3:0:0:0:
144,268,55202,1,2,2:0:0:0:
152,32,55402,1,10,1:2:0:0:
56,228,55602,1,2,2:0:0:0:
304,76,55802,1,2,2:0:0:0:
20,144,56002,1,2,3:2:0:0:
304,220,56202,1,10,1:2:0:0:
12,132,56402,1,2,2:0:0:0:
384,24,56602,6,0,B|440:44|460:96|460:96|428:128|440:200,1,210,2|0,3:2|2:0,2:0:0:0:
452,220,57002,1,10,1:2:0:0:
116,280,57202,2,0,P|172:220|188:308,1,210,2|0,2:0|2:0,2:0:0:0:
180,336,57602,1,2,3:2:0:0:
252,128,57802,1,10,1:2:0:0:
412,320,58002,1,2,2:0:0:0:
248,112,58202,2,0,L|276:256,1,120,0|0,3:0|2:0,2:0:0:0:
356,96,58602,5,10,1:2:0:0:
295,313,58802,1,2,2:0:0:0:
76,252,59002,1,2,2:0:0:0:
137,35,59202,2,0,B|216:24|216:24|264:40,2,120,2|10|2,3:2|1:2|2:0,2:0:0:0:
440,180,59802,6,0,B|496:128|496:128|448:32|448:32|400:68,1,225,2|0,3:2|2:0,2:0:0:0:
400,68,60202,2,0,B|432:43|432:43|480:139|480:139|424:191,1,225,10|0,1:2|2:0,2:0:0:0:
348,276,60602,6,0,P|396:244|504:264,1,150,2|0,3:2|3:0,2:0:0:0:
240,348,61002,2,0,B|228:288|228:288|256:236|256:236|240:136,1,180,10|0,1:2|2:0,2:0:0:0:
236,80,61402,5,0,3:0:0:0:
144,280,61602,1,2,2:0:0:0:
376,264,61802,1,10,1:2:0:0:
88,352,62002,2,0,P|56:272|156:200,1,210,2|0,2:0|2:0,2:0:0:0:
168,204,62402,1,10,3:0:0:0:
324,336,62602,1,10,1:3:0:0:
312,56,62802,2,0,L|300:192,1,120,10|4,2:3|3:0,2:0:0:0:
178,323,63202,2,0,L|166:187,1,120,6|12,2:3|1:3,2:0:0:0:
152,32,63602,1,4,3:0:0:0:
456,224,63802,5,6,1:2:0:0:
56,112,64002,1,4,3:0:0:0:
432,100,64202,5,6,1:2:0:0:
24,256,64402,1,6,3:2:0:0:
444,320,64602,5,6,3:2:0:0:
444,320,64702,1,2,2:0:0:0:
444,320,64802,1,2,2:0:0:0:
292,108,65002,2,0,P|252:168|332:180,1,175,2|0,1:2|2:0,2:0:0:0:
340,172,65402,1,0,2:0:0:0:
492,88,65602,1,2,3:2:0:0:
368,268,65802,5,2,1:2:0:0:
368,268,65902,1,2,2:0:0:0:
368,268,66002,1,2,2:0:0:0:
104,100,66202,2,0,P|144:80|200:92,1,100,2|0,3:2|2:0,2:0:0:0:
148,276,66602,2,0,P|108:296|52:284,1,100,2|0,1:2|2:0,2:0:0:0:
88,84,67002,1,2,3:2:0:0:
172,280,67202,1,2,3:2:0:0:
276,88,67402,2,0,P|376:72|416:100,1,150,2|0,1:2|2:0,2:0:0:0:
444,140,67802,5,2,3:2:0:0:
444,140,67902,1,2,2:0:0:0:
444,140,68002,1,2,2:0:0:0:
188,264,68202,2,0,B|152:220|180:168|180:196|212:144|176:96,1,175,2|0,1:2|2:0,2:0:0:0:
160,76,68602,1,0,2:0:0:0:
52,200,68802,1,0,3:0:0:0:
288,144,69002,5,2,1:2:0:0:
288,144,69102,1,2,2:0:0:0:
288,144,69202,1,2,2:0:0:0:
364,328,69402,2,0,P|316:352|264:340,1,100,2|0,3:2|2:0,2:0:0:0:
220,76,69802,2,0,P|268:52|320:64,1,100,2|2,1:2|2:0,2:0:0:0:
256,320,70202,1,2,3:2:0:0:
384,112,70402,1,2,3:2:0:0:
444,352,70602,2,0,L|284:328,1,150,2|0,1:2|2:0,2:0:0:0:
264,328,71002,5,2,3:2:0:0:
264,328,71102,1,2,2:0:0:0:
264,328,71202,1,2,2:0:0:0:
180,80,71402,2,0,P|252:48|344:88,1,175,2|0,1:2|2:0,2:0:0:0:
352,108,71802,1,0,2:0:0:0:
252,184,72002,1,0,3:0:0:0:
64,44,72202,5,2,1:2:0:0:
64,44,72302,1,2,2:0:0:0:
64,44,72402,1,2,2:0:0:0:
20,260,72602,2,0,P|64:272|120:252,1,100,2|0,3:2|2:0,2:0:0:0:
180,80,73002,2,0,P|226:64|274:76,1,100,2|2,1:2|2:0,2:0:0:0:
320,256,73402,1,2,3:2:0:0:
184,104,73602,1,2,3:2:0:0:
452,24,73802,2,0,B|496:84|496:84|464:176,1,150,2|0,1:2|2:0,2:0:0:0:
452,196,74202,5,2,3:2:0:0:
112,168,74402,1,2,2:0:0:0:
276,128,74602,1,2,1:2:0:0:
56,108,74802,2,0,P|24:188|76:256,1,175,2|0,2:0|2:0,2:0:0:0:
100,264,75202,1,2,3:2:0:0:
200,152,75402,1,2,1:2:0:0:
344,336,75602,6,0,B|384:300|384:300|360:168,1,175,2|0,2:0|2:0,2:0:0:0:
352,148,76002,1,2,2:0:0:0:
192,256,76202,1,0,1:0:0:0:
284,56,76402,1,2,2:0:0:0:
464,188,76602,1,2,3:2:0:0:
464,188,76702,2,0,L|460:304,1,100,2|0,2:0|2:0,2:0:0:0:
376,248,77002,1,2,1:2:0:0:
376,248,77102,2,0,L|380:364,1,100,2|0,2:0|2:0,2:0:0:0:
188,128,77402,5,2,2:0:0:0:
240,204,77602,1,0,2:0:0:0:
280,120,77802,2,0,L|268:28,1,80,0|0,2:0|2:0,2:0:0:0:
240,204,78202,1,0,2:0:0:0:
144,212,78402,2,0,L|44:228,1,80,0|2,2:0|2:0,2:0:0:0:
24,312,78802,1,2,2:0:0:0:
184,328,79002,2,0,L|268:336,1,80,0|0,2:0|2:0,2:0:0:0:
144,212,79402,2,0,L|44:228,1,80,0|2,2:0|2:0,2:0:0:0:
24,312,79802,1,2,2:0:0:0:
216,48,80002,6,0,L|194:108,1,37.5,0|0,1:0|2:0,2:0:0:0:
288,268,80202,2,0,L|246:219,1,37.5,2|0,1:2|2:0,2:0:0:0:
65,224,80402,2,0,L|127:211,1,37.5,0|0,1:0|2:0,2:0:0:0:
304,84,80602,5,2,3:2:0:0:
264,240,80802,1,0,2:0:0:0:
120,40,81002,2,0,L|136:168,1,100,0|0,1:0|2:0,2:0:0:0:
176,328,81402,1,0,2:0:0:0:
216,160,81602,1,0,3:0:0:0:
40,280,81802,6,0,P|72:284|104:276,1,50,2|0,1:2|2:0,2:0:0:0:
56,196,82002,2,0,P|24:192|-8:200,1,50,2|0,2:0|2:0,2:0:0:0:
8,364,82202,5,0,3:0:0:0:
136,216,82402,1,0,2:0:0:0:
244,368,82602,2,0,L|352:360,1,100,0|2,1:0|2:0,2:0:0:0:
136,216,83002,1,2,3:2:0:0:
136,216,83102,2,0,P|132:272|168:332,1,100,2|0,2:0|2:0,2:0:0:0:
260,120,83402,1,2,1:2:0:0:
260,120,83502,2,0,P|264:176|228:236,1,100,2|0,2:0|2:0,2:0:0:0:
20,72,83802,6,0,B|76:64|76:64|100:76|100:76|180:64,1,150,2|0,3:2|2:0,2:0:0:0:
101,168,84202,2,0,B|80:192|80:192|246:215,1,200,2|0,1:2|2:0,2:0:0:0:
320,48,84802,1,0,3:0:0:0:
244,240,85002,1,2,1:2:0:0:
468,152,85202,2,0,L|348:156,1,100,2|0,2:0|3:0,2:0:0:0:
232,28,85602,1,2,2:0:0:0:
93,209,85802,2,0,B|140:225|140:225|204:201,1,100,0|0,1:0|2:0,2:0:0:0:
232,28,86202,1,0,3:0:0:0:
272,252,86402,1,0,3:0:0:0:
44,136,86602,2,0,B|91:120|91:120|155:144,1,100,0|2,1:0|2:0,2:0:0:0:
192,352,87002,5,2,3:2:0:0:
138,137,87202,1,2,2:0:0:0:
326,37,87402,5,2,1:2:0:0:
272,252,87602,1,2,2:0:0:0:
444,360,87802,5,2,2:0:0:0:
368,128,88002,2,0,L|376:96,1,25,10|0,3:0|2:0,2:0:0:0:
272,252,88202,2,0,L|240:261,1,25,10|0,1:3|2:0,2:0:0:0:
428,272,88402,2,0,L|451:294,1,25,10|0,2:3|2:0,2:0:0:0:
360,212,88602,1,0,3:0:0:0:
240,44,88802,6,0,L|248:80,1,25,10|0,2:3|2:0,2:0:0:0:
176,160,89002,2,0,L|164:195,1,25,10|0,1:3|2:0,2:0:0:0:
44,196,89202,2,0,B|24:200|24:200|36:116,1,100,10|0,2:3|3:0,2:0:0:0:
132,16,89602,1,6,3:0:0:0:
248,216,89802,1,6,1:3:0:0:
288,240,89902,1,0,2:0:0:0:
336,244,90002,1,4,2:3:0:0:
380,224,90102,1,0,2:0:0:0:
412,184,90202,6,0,B|428:128|392:100|392:100|412:48|364:4,1,180,6|0,3:2|2:0,2:0:0:0:
192,120,90802,2,0,L|224:124,1,22.5,10|8,3:2|2:0,2:0:0:0:
208,88,90902,2,0,L|240:92,1,22.5,8|8,2:0|2:0,2:0:0:0:
228,56,91002,2,0,L|332:68,1,90.0000000000001,2|2,1:2|2:0,2:0:0:0:
144,188,91402,2,0,L|40:200,1,90.0000000000001,2|2,3:2|2:0,2:0:0:0:
88,60,91802,1,2,2:0:0:0:
240,168,92002,2,0,L|244:132,4,22.5,8|8|8|8|0,2:0|2:0|2:0|2:0|3:0,2:0:0:0:
68,52,92402,1,2,2:0:0:0:
248,120,92602,5,2,1:2:0:0:
172,280,92802,1,2,3:2:0:0:
172,84,93002,1,2,2:0:0:0:
248,316,93202,1,2,2:0:0:0:
300,72,93402,6,0,L|288:176,2,90.0000000000001,2|2|2,3:2|2:0|2:0,2:0:0:0:
376,264,94002,1,10,3:2:0:0:
376,264,94102,2,0,L|380:304,1,22.5,8|8,2:0|2:0,2:0:0:0:
376,264,94202,1,2,1:2:0:0:
396,120,94402,1,2,2:0:0:0:
500,296,94602,1,2,3:2:0:0:
300,316,94802,2,0,B|284:276|284:276|300:228,1,90.0000000000001,10|0,2:0|2:0,2:0:0:0:
393,97,95202,2,0,L|397:129,4,22.5,10|8|8|8|0,2:0|2:0|2:0|2:0|3:0,2:0:0:0:
248,24,95602,6,0,L|256:56,1,22.5,10|8,2:0|2:0,2:0:0:0:
264,80,95702,2,0,L|256:112,1,22.5,8|8,2:0|2:0,2:0:0:0:
280,132,95802,2,0,P|220:144|184:136,1,90.0000000000001,2|2,1:2|3:2,2:0:0:0:
68,52,96202,1,2,2:0:0:0:
24,240,96402,1,2,2:0:0:0:
304,224,96602,6,0,B|252:212|212:232|232:236|184:264|120:240,1,180,2|0,3:2|2:0,2:0:0:0:
384,276,97202,2,0,P|396:248|396:240,1,22.5,10|8,3:2|2:0,2:0:0:0:
404,224,97302,2,0,P|399:213|393:204,1,22.5,8|8,2:0|2:0,2:0:0:0:
380,168,97402,2,0,P|376:136|388:72,1,90.0000000000001,2|2,1:2|2:0,2:0:0:0:
496,224,97802,2,0,P|500:256|488:320,1,90.0000000000001,2|2,3:2|2:0,2:0:0:0:
356,368,98202,1,2,2:0:0:0:
200,296,98402,2,0,L|228:292,4,22.5,8|8|8|8|0,2:0|2:0|2:0|2:0|3:0,2:0:0:0:
356,368,98802,1,2,2:0:0:0:
296,128,99002,5,2,1:2:0:0:
440,224,99202,1,2,3:2:0:0:
288,108,99402,1,2,2:0:0:0:
222,292,99602,1,2,2:0:0:0:
16,112,99802,6,0,P|12:140|20:172,1,50,6|2,2:0|2:0,2:0:0:0:
84,228,100202,2,0,P|112:232|144:224,1,50,2|2,2:0|2:0,2:0:0:0:
192,156,100602,1,2,2:0:0:0:
356,252,100802,6,0,L|336:248,1,12.5,10|0,2:3|2:0,2:0:0:0:
232,240,101002,2,0,L|245:224,1,12.5,10|0,2:3|2:0,2:0:0:0:
300,144,101202,2,0,L|306:163,1,12.5,10|0,2:3|2:0,2:0:0:0:
56,304,101602,6,0,L|69:288,1,12.5,10|0,2:3|2:0,2:0:0:0:
128,202,101802,2,0,L|134:221,1,12.5,10|0,2:3|2:0,2:0:0:0:
177,309,102002,2,0,L|157:305,1,12.5,10|0,2:3|2:0,2:0:0:0:
28,188,102202,6,0,L|36:128,1,50,0|0,1:0|2:0,2:0:0:0:
34,138,103002,6,0,L|178:122,1,120,6|2,3:2|2:0,2:0:0:0:
408,272,103402,1,10,1:2:0:0:
172,120,103602,1,2,2:0:0:0:
356,68,103802,1,2,2:0:0:0:
208,312,104002,1,2,3:2:0:0:
153,124,104202,1,10,1:2:0:0:
376,64,104402,1,2,2:0:0:0:
208,312,104602,6,0,P|172:360|168:260,1,225,2|0,3:2|2:0,2:0:0:0:
156,252,105002,2,0,P|113:356|212:288,1,300,10|0,1:2|2:0,2:0:0:0:
228,288,105402,2,0,P|114:368|172:240,1,375,2|0,3:2|2:0,2:0:0:0:
368,300,105802,6,0,B|400:316|384:360|324:368|296:308|340:284|368:252|344:176,1,225,10|0,1:2|2:0,2:0:0:0:
320,108,106202,5,0,3:0:0:0:
138,261,106402,1,2,2:0:0:0:
192,40,106602,1,10,1:2:0:0:
424,84,106802,1,2,2:0:0:0:
156,272,107002,1,2,2:0:0:0:
168,36,107202,1,2,3:2:0:0:
412,68,107402,1,10,1:2:0:0:
400,304,107602,1,2,2:0:0:0:
96,176,107802,6,0,B|164:208|204:184|224:128|296:136|336:208|288:256|224:264,1,300,2|0,3:2|2:0,2:0:0:0:
196,328,108202,2,0,B|128:296|88:320|68:376|-4:368|-44:296|4:248|68:240,1,300,10|0,1:2|2:0,2:0:0:0:
96,176,108602,1,2,3:2:0:0:
208,348,108802,1,2,3:2:0:0:
228,96,109002,1,10,1:2:0:0:
196,328,109202,1,2,2:0:0:0:
344,292,109402,5,0,3:0:0:0:
216,72,109602,2,0,L|348:88,2,120,2|10|2,2:0|1:2|2:0,2:0:0:0:
136,276,110202,1,2,2:0:0:0:
348,224,110402,1,2,3:2:0:0:
216,40,110602,1,10,1:2:0:0:
4,92,110802,1,2,2:0:0:0:
140,296,111002,6,0,B|304:292|304:292|240:244,1,225,2|0,3:2|2:0,2:0:0:0:
251,235,111402,2,0,B|299:271|299:271|135:275,1,225,10|0,1:2|2:0,2:0:0:0:
117,156,111802,6,0,L|135:282,1,120,2|0,3:2|3:0,2:0:0:0:
56,56,112202,2,0,B|94:28|140:40|140:40|140:44|140:44|188:52|252:24,1,180,10|0,1:2|2:0,2:0:0:0:
324,16,112602,5,0,3:0:0:0:
368,276,112802,1,2,2:0:0:0:
424,108,113002,1,10,1:2:0:0:
268,256,113202,2,0,B|248:304|188:336|188:336|228:324|284:348,1,210,2|0,2:0|2:0,2:0:0:0:
308,364,113602,1,10,3:0:0:0:
496,304,113802,1,10,1:3:0:0:
328,156,114002,2,0,P|268:140|204:160,1,120,10|4,2:3|3:0,2:0:0:0:
76,336,114402,2,0,P|136:352|200:332,1,120,6|12,2:3|1:3,2:0:0:0:
132,160,114802,1,4,3:0:0:0:
48,340,115002,5,6,1:2:0:0:
144,24,115202,1,4,3:0:0:0:
204,348,115402,5,6,1:2:0:0:
56,56,115602,1,4,3:0:0:0:
376,72,115802,6,0,L|352:208,1,120,6|2,3:2|2:0,2:0:0:0:
64,240,116202,1,10,1:2:0:0:
344,204,116402,1,2,2:0:0:0:
180,88,116602,1,2,2:0:0:0:
228,364,116802,1,2,3:2:0:0:
355,190,117002,1,10,1:2:0:0:
160,84,117202,1,2,2:0:0:0:
32,300,117402,6,0,L|260:280,1,225,2|0,3:2|2:0,2:0:0:0:
272,252,117802,2,0,L|47:271,1,225,10|0,1:2|2:0,2:0:0:0:
64,240,118202,2,0,L|288:220,1,225,2|0,3:2|2:0,2:0:0:0:
412,328,118602,6,0,B|408:288|408:288|440:228|440:228|424:104,1,225,10|0,1:2|2:0,2:0:0:0:
352,44,119002,5,0,3:0:0:0:
272,256,119202,1,2,2:0:0:0:
264,24,119402,1,10,1:2:0:0:
356,228,119602,1,2,2:0:0:0:
160,116,119802,1,2,2:0:0:0:
425,112,120002,1,2,3:2:0:0:
148,140,120202,1,10,1:2:0:0:
413,136,120402,1,2,2:0:0:0:
128,344,120602,6,0,B|44:372|0:324|0:324|40:316|68:284,1,210,2|0,3:2|2:0,2:0:0:0:
76,260,121002,1,10,1:2:0:0:
372,128,121202,2,0,P|420:148|364:256,1,210,2|0,2:0|2:0,2:0:0:0:
340,240,121602,1,2,3:2:0:0:
200,64,121802,1,10,1:2:0:0:
76,260,122002,1,2,2:0:0:0:
204,48,122202,2,0,L|188:176,1,120,0|0,3:0|2:0,2:0:0:0:
324,48,122602,5,10,1:2:0:0:
88,40,122802,1,2,2:0:0:0:
68,280,123002,1,2,2:0:0:0:
304,288,123202,2,0,B|336:236|336:236|320:168,2,120,2|10|2,3:2|1:2|2:0,2:0:0:0:
4,104,123802,6,0,P|84:40|196:92,1,225,2|0,3:2|2:0,2:0:0:0:
192,100,124202,2,0,P|93:58|7:123,1,225,10|0,1:2|2:0,2:0:0:0:
252,172,124602,6,0,P|276:140|252:32,1,120,2|0,3:2|3:0,2:0:0:0:
148,300,125002,2,0,B|192:280|192:280|272:300|272:300|336:272,1,180,10|0,1:2|2:0,2:0:0:0:
396,216,125402,5,0,3:0:0:0:
180,192,125602,1,2,2:0:0:0:
428,228,125802,1,10,1:2:0:0:
272,56,126002,2,0,B|244:112|272:188|272:188|248:212|200:208,1,210,2|0,2:0|2:0,2:0:0:0:
180,192,126402,1,10,3:0:0:0:
288,40,126602,1,10,1:3:0:0:
508,224,126802,2,0,P|448:244|388:236,1,120,10|4,2:3|3:0,2:0:0:0:
172,53,127202,2,0,P|232:33|292:41,1,120,6|12,2:3|1:3,2:0:0:0:
392,237,127602,1,4,3:0:0:0:
76,204,127802,5,6,1:2:0:0:
440,84,128002,1,4,3:0:0:0:
8,84,128202,5,6,1:2:0:0:
420,244,128402,1,6,3:2:0:0:
44,352,128602,6,0,P|36:328|40:284,1,55,6|2,3:2|2:0,2:0:0:0:
76,204,128802,1,2,2:0:0:0:
280,352,129002,2,0,P|288:328|284:284,1,55,10|2,1:2|2:0,2:0:0:0:
248,204,129202,1,2,2:0:0:0:
44,352,129402,1,2,2:0:0:0:
76,204,129602,1,2,3:2:0:0:
280,352,129802,1,10,1:2:0:0:
248,204,130002,1,2,2:0:0:0:
399,35,130202,5,2,3:2:0:0:
264,280,130402,1,2,2:0:0:0:
209,89,130602,1,10,1:2:0:0:
454,225,130802,1,2,2:0:0:0:
200,120,131002,1,2,3:2:0:0:
428,52,131202,1,2,3:2:0:0:
376,292,131402,2,0,L|256:280,1,110,10|0,1:2|2:0,2:0:0:0:
64,76,131802,6,0,P|96:72|136:80,1,55,2|0,3:2|2:0,2:0:0:0:
200,120,132002,1,2,2:0:0:0:
64,260,132202,2,0,P|96:264|136:256,1,55,10|0,1:2|2:0,2:0:0:0:
200,216,132402,1,2,2:0:0:0:
64,76,132602,1,2,2:0:0:0:
248,32,132802,1,2,3:2:0:0:
248,32,132902,1,2,2:0:0:0:
248,32,133002,1,10,1:2:0:0:
208,240,133202,1,2,2:0:0:0:
464,176,133402,6,0,P|476:124|452:52,1,110,2|2,3:2|2:0,2:0:0:0:
312,252,133802,2,0,P|300:304|324:376,1,110,10|2,1:2|2:0,2:0:0:0:
472,296,134202,1,2,3:2:0:0:
288,160,134402,1,2,3:2:0:0:
470,66,134602,2,0,L|462:206,1,110,10|0,1:2|2:0,2:0:0:0:
220,256,135002,6,0,P|172:180|228:68,1,220,2|8,3:2|1:2,2:0:0:0:
463,175,135602,2,0,L|399:167,1,55,2|2,2:0|2:0,2:0:0:0:
340,272,135802,1,2,2:0:0:0:
416,264,135902,1,2,2:0:0:0:
492,256,136002,2,0,L|476:372,2,110,2|10|2,3:2|1:2|2:0,2:0:0:0:
400,88,136602,5,0,3:0:0:0:
336,284,136802,1,0,2:0:0:0:
404,76,137002,1,8,1:2:0:0:
144,152,137202,1,2,2:0:0:0:
156,228,137302,1,2,2:0:0:0:
168,304,137402,2,0,L|88:292,1,55,2|2,3:2|2:0,2:0:0:0:
40,284,137602,1,2,3:2:0:0:
224,148,137802,2,0,L|244:280,1,110,10|2,1:2|2:0,2:0:0:0:
0,52,138202,6,0,B|56:16|120:44|96:52|156:76|224:40,1,220,2|8,3:2|1:2,2:0:0:0:
464,128,138802,1,2,2:0:0:0:
388,136,138902,1,2,2:0:0:0:
312,144,139002,2,0,L|328:20,1,110,2|2,2:0|3:2,2:0:0:0:
400,228,139402,1,10,1:2:0:0:
312,24,139602,1,2,2:0:0:0:
80,136,139802,6,0,P|68:188|88:256,1,110,2|2,3:2|2:0,2:0:0:0:
148,284,140102,1,2,2:0:0:0:
212,244,140202,2,0,P|224:190|212:137,1,110,10|2,1:2|2:0,2:0:0:0:
20,328,140602,1,2,3:2:0:0:
224,256,140802,1,2,3:2:0:0:
68,256,141002,1,10,1:2:0:0:
272,328,141202,1,2,2:0:0:0:
168,40,141402,6,0,B|172:104|144:132|128:108|116:152|140:200|188:212|240:152|199:111,1,250,4|2,2:0|2:0,2:0:0:0:
202,114,142602,1,2,2:0:0:0:
200,264,142802,2,0,B|156:272|121:252|121:252|122:260|122:260|92:264|54:291,1,150,2|2,2:0|2:0,2:0:0:0:
288,124,143802,2,0,P|292:96|284:64,2,50,2|2|2,2:0|2:0|2:0,2:0:0:0:
480,336,144602,6,0,B|456:344|436:340|440:332|416:324|388:336|388:336|404:284|388:248|388:248|348:244|328:268|328:268|304:244|264:248|264:248|248:284|264:336|264:336|244:328|216:336|228:344|200:356|156:336,1,500,2|2,2:0|2:0,2:0:0:0:
264,248,146802,2,0,B|304:244|328:268|328:268|348:252|368:244,1,100,2|2,2:0|2:0,2:0:0:0:
388,336,147402,1,2,2:0:0:0:
108,44,147802,6,0,B|148:92|124:142,1,100,2|2,2:0|2:0,2:0:0:0:
44,100,148402,2,0,P|132:224|208:100,1,350,2|2,2:0|2:0,2:0:0:0:
144,44,150002,6,0,B|104:92|128:142,1,100,2|2,2:0|2:0,2:0:0:0:
292,48,150602,1,2,2:0:0:0:
368,112,150802,1,2,2:0:0:0:
296,188,151002,6,0,L|304:308,1,100,6|2,2:0|2:0,2:0:0:0:
220,180,151602,6,0,L|232:332,1,140,2|10,2:0|2:3,2:0:0:0:
302,287,152202,1,10,2:3:0:0:
144,152,152402,6,0,L|164:376,1,220,10|6,2:3|2:3,2:0:0:0:
231,319,153002,1,4,2:3:0:0:
224,180,153202,1,6,2:0:0:0:
108,68,153402,6,0,P|144:60|180:64,3,50,6|6|6|6,1:2|2:0|2:0|2:0,2:0:0:0:
164,72,154202,6,0,L|296:60,1,125,6|2,3:2|2:0,2:0:0:0:
448,216,154602,1,10,1:2:0:0:
312,44,154802,1,2,2:0:0:0:
120,168,155002,1,2,2:0:0:0:
256,340,155202,1,2,3:2:0:0:
281,48,155402,1,10,1:2:0:0:
116,204,155602,1,2,2:0:0:0:
396,320,155802,6,0,P|420:252|332:308,1,232.5,2|0,3:2|2:0,2:0:0:0:
316,296,156202,2,0,P|393:209|373:330,1,307.5,10|0,1:2|2:0,2:0:0:0:
376,340,156602,2,0,P|413:203|340:332,1,382.5,2|0,3:2|2:0,2:0:0:0:
228,192,157002,6,0,P|268:140|448:120,1,232.5,10|0,1:2|2:0,2:0:0:0:
512,160,157402,5,0,3:0:0:0:
307,299,157602,1,2,2:0:0:0:
232,60,157802,1,10,1:2:0:0:
140,276,158002,1,2,2:0:0:0:
240,36,158202,1,2,2:0:0:0:
348,208,158402,1,2,3:2:0:0:
88,160,158602,1,10,1:2:0:0:
392,60,158802,1,2,2:0:0:0:
144,248,159002,6,0,B|196:224|196:144|196:144|220:196|272:208|332:196|356:132,1,307.5,2|0,3:2|2:0,2:0:0:0:
396,48,159402,2,0,B|344:72|344:152|344:152|320:100|268:88|208:100|188:164,1,307.5,10|0,1:2|2:0,2:0:0:0:
268,192,159802,1,2,3:2:0:0:
84,88,160002,1,2,3:2:0:0:
0,280,160202,1,10,1:2:0:0:
184,376,160402,1,2,2:0:0:0:
192,100,160602,5,0,3:0:0:0:
92,332,160802,2,0,L|256:320,2,125,2|10|2,2:0|1:2|2:0,2:0:0:0:
168,84,161402,1,2,2:0:0:0:
244,336,161602,1,2,3:2:0:0:
248,56,161802,1,10,1:2:0:0:
172,304,162002,1,2,2:0:0:0:
448,240,162202,6,0,B|488:200|488:200|460:84|460:84|392:60,1,232.5,2|0,3:2|2:0,2:0:0:0:
388,72,162602,2,0,B|441:90|441:90|469:206|469:206|429:246,1,232.5,10|0,1:2|2:0,2:0:0:0:
300,136,163002,6,0,B|276:80|276:80|304:8,1,125,2|0,3:2|3:0,2:0:0:0:
324,252,163402,2,0,B|272:288|228:260|240:252|196:224|120:264,1,187.5,10|0,1:2|2:0,2:0:0:0:
192,328,163802,5,0,3:0:0:0:
108,52,164002,1,2,2:0:0:0:
32,260,164202,1,10,1:2:0:0:
288,112,164402,2,0,B|232:256|232:256|304:216,1,218.75,2|0,2:0|2:0,2:0:0:0:
316,208,164802,1,10,3:0:0:0:
208,32,165002,1,10,1:3:0:0:
468,100,165202,2,0,B|488:152|488:152|464:224,1,125,10|4,2:3|3:0,2:0:0:0:
286,326,165602,2,0,B|266:274|266:274|290:202,1,125,6|12,2:3|1:3,2:0:0:0:
360,72,166002,1,4,3:0:0:0:
496,232,166202,5,6,1:2:0:0:
120,172,166402,1,4,3:0:0:0:
348,52,166602,5,6,1:2:0:0:
404,336,166802,1,4,3:0:0:0:
124,204,167002,6,0,L|116:56,1,125,6|2,3:2|2:0,2:0:0:0:
352,136,167402,1,10,1:2:0:0:
112,60,167602,1,2,2:0:0:0:
32,292,167802,1,2,2:0:0:0:
348,160,168002,1,2,3:2:0:0:
272,368,168202,1,10,1:2:0:0:
48,268,168402,1,2,2:0:0:0:
240,44,168602,6,0,L|480:36,1,232.5,2|0,3:2|2:0,2:0:0:0:
488,64,169002,2,0,L|255:71,1,232.5,10|0,1:2|2:0,2:0:0:0:
276,104,169402,2,0,L|508:96,1,232.5,2|0,3:2|2:0,2:0:0:0:
332,184,169802,6,0,B|256:188|256:188|248:196|248:196|184:200|184:200|176:208|176:208|68:216,1,232.5,10|0,1:2|2:0,2:0:0:0:
36,156,170202,5,0,3:0:0:0:
192,340,170402,1,2,2:0:0:0:
124,88,170602,1,10,1:2:0:0:
84,312,170802,1,2,2:0:0:0:
328,236,171002,1,2,2:0:0:0:
84,312,171202,1,2,3:2:0:0:
220,96,171402,1,10,1:2:0:0:
64,328,171602,1,2,2:0:0:0:
384,336,171802,6,0,B|432:320|432:320|504:352|504:352|492:252,1,218.75,2|0,3:2|2:0,2:0:0:0:
492,244,172202,1,10,1:2:0:0:
180,56,172402,2,0,B|136:96|148:168|148:168|244:148,1,218.75,2|0,2:0|2:0,2:0:0:0:
272,140,172802,1,2,3:2:0:0:
512,224,173002,1,10,1:2:0:0:
264,288,173202,1,2,2:0:0:0:
364,80,173402,2,0,B|380:136|380:136|356:200,1,125,0|0,3:0|2:0,2:0:0:0:
168,36,173802,5,10,1:2:0:0:
128,288,174002,1,2,2:0:0:0:
396,308,174202,1,2,2:0:0:0:
436,56,174402,2,0,B|404:36|404:36|288:52,2,125,2|10|2,3:2|1:2|2:0,2:0:0:0:
360,320,175002,6,0,B|270:299|270:299|209:260|258:189|320:224,1,232.5,2|0,3:2|2:0,2:0:0:0:
327,213,175402,2,0,B|279:184|229:255|290:293|290:293|380:314,1,232.5,10|0,1:2|2:0,2:0:0:0:
420,178,175802,6,0,P|398:218|317:199,1,125,2|0,3:2|3:0,2:0:0:0:
80,176,176202,2,0,P|85:251|161:201,1,187.5,10|0,1:2|2:0,2:0:0:0:
160,112,176602,5,0,3:0:0:0:
248,320,176802,1,2,2:0:0:0:
152,96,177002,1,10,1:2:0:0:
400,108,177202,2,0,B|444:160|400:224|400:224|424:328,1,218.75,2|0,2:0|2:0,2:0:0:0:
428,348,177602,1,10,3:0:0:0:
228,324,177802,1,10,1:3:0:0:
384,88,178002,2,0,B|464:84|464:84|496:128,1,125,10|4,2:3|3:0,2:0:0:0:
208,232,178402,2,0,B|128:236|128:236|96:192,1,125,6|12,2:3|1:3,2:0:0:0:
136,48,178802,1,4,3:0:0:0:
240,352,179002,5,6,1:2:0:0:
128,24,179202,1,4,3:0:0:0:
32,288,179402,5,6,1:2:0:0:
488,184,179602,1,6,3:2:0:0:
52,116,179802,5,6,3:2:0:0:
52,116,179902,1,2,2:0:0:0:
52,116,180002,1,2,2:0:0:0:
304,196,180202,2,0,P|252:240|248:144,1,201.25,2|0,1:2|2:0,2:0:0:0:
260,136,180602,1,0,2:0:0:0:
132,288,180802,1,2,3:2:0:0:
160,80,181002,5,2,1:2:0:0:
160,80,181102,1,2,2:0:0:0:
160,80,181202,1,2,2:0:0:0:
388,176,181402,2,0,L|376:300,1,115,2|0,3:2|2:0,2:0:0:0:
128,176,181802,2,0,L|139:61,1,115,2|0,1:2|2:0,2:0:0:0:
368,144,182202,1,2,3:2:0:0:
132,204,182402,1,2,3:2:0:0:
384,320,182602,2,0,B|492:308|492:308|448:244,1,172.5,2|0,1:2|2:0,2:0:0:0:
440,224,183002,5,2,3:2:0:0:
440,224,183102,1,2,2:0:0:0:
440,224,183202,1,2,2:0:0:0:
196,304,183402,2,0,P|140:240|188:136,1,201.25,2|0,1:2|2:0,2:0:0:0:
208,120,183802,1,0,2:0:0:0:
412,216,184002,1,0,3:0:0:0:
188,332,184202,5,2,1:2:0:0:
188,332,184302,1,2,2:0:0:0:
188,332,184402,1,2,2:0:0:0:
340,136,184602,2,0,P|356:76|328:16,1,115,2|0,3:2|2:0,2:0:0:0:
120,32,185002,2,0,P|104:92|132:152,1,115,2|2,1:2|2:0,2:0:0:0:
320,268,185402,1,2,3:2:0:0:
228,48,185602,1,2,3:2:0:0:
0,224,185802,2,0,L|188:212,1,172.5,2|0,1:2|2:0,2:0:0:0:
208,252,186202,5,2,3:2:0:0:
208,252,186302,1,2,2:0:0:0:
208,252,186402,1,2,2:0:0:0:
44,80,186602,2,0,B|96:40|144:72|128:76|176:108|256:64,1,201.25,2|0,1:2|2:0,2:0:0:0:
268,60,187002,1,0,2:0:0:0:
188,292,187202,1,0,3:0:0:0:
28,112,187402,5,2,1:2:0:0:
28,112,187502,1,2,2:0:0:0:
28,112,187602,1,2,2:0:0:0:
284,140,187802,2,0,L|408:128,1,115,2|0,3:2|2:0,2:0:0:0:
168,304,188202,2,0,L|44:292,1,115,2|2,1:2|2:0,2:0:0:0:
124,104,188602,1,2,3:2:0:0:
32,308,188802,1,2,3:2:0:0:
296,216,189002,2,0,P|344:140|308:36,1,201.25,2|0,1:2|2:0,2:0:0:0:
284,24,189402,5,2,3:2:0:0:
112,224,189602,1,2,2:0:0:0:
280,304,189802,1,2,1:2:0:0:
176,152,190002,2,0,B|36:160|36:160|92:208,1,201.25,2|0,2:0|2:0,2:0:0:0:
112,224,190402,1,10,3:0:0:0:
256,48,190602,1,10,1:3:0:0:
408,220,190802,2,0,B|424:252|424:252|416:340,1,115,10|4,2:3|3:0,2:0:0:0:
204,248,191202,2,0,B|188:216|188:216|196:128,1,115,6|4,2:3|1:3,2:0:0:0:
300,52,191602,1,4,3:0:0:0:
280,349,191802,5,6,1:2:0:0:
122,96,192002,1,4,3:0:0:0:
398,208,192202,1,6,1:2:0:0:
109,280,192402,1,4,3:0:0:0:
300,52,192602,6,0,L|368:48,1,50,4|2,2:0|2:0,2:0:0:0:
424,104,193002,2,0,L|492:100,3,50,2|0|0|0,2:0|2:0|2:0|2:0,2:0:0:0:
304,132,193802,2,0,L|254:134,1,50,2|2,2:0|2:0,2:0:0:0:
192,208,194202,2,0,L|142:210,1,50,2|0,2:0|2:0,2:0:0:0:
48,136,194602,2,0,L|97:133,1,50,2|0,2:0|2:0,2:0:0:0:
208,56,195002,2,0,L|158:58,3,50,2|0|0|0,2:0|2:0|2:0|2:0,2:0:0:0:
288,200,195802,6,0,L|284:256,1,50,2|2,2:0|2:0,2:0:0:0:
348,324,196202,2,0,L|344:380,3,50,2|0|2|0,2:0|2:0|2:0|2:0,2:0:0:0:
380,176,197002,2,0,L|376:232,1,50,2|2,2:0|2:0,2:0:0:0:
440,384,197402,2,0,L|443:334,1,50,2|0,2:0|2:0,2:0:0:0:
476,188,197802,2,0,L|472:244,1,50,2|0,2:0|2:0,2:0:0:0:
432,100,198202,2,0,L|435:50,3,50,2|0|0|0,2:0|2:0|2:0|2:0,2:0:0:0:
380,176,199002,5,2,2:0:0:0:
256,192,199102,12,0,205202,2:0:0:0:
