osu file format v14

[General]
AudioFilename: audio.mp3
AudioLeadIn: 0
PreviewTime: 39002
Countdown: 0
SampleSet: Soft
StackLeniency: 0.7
Mode: 0
LetterboxInBreaks: 0
WidescreenStoryboard: 1

[Editor]
Bookmarks: 13402,26202,39002,51802,64602,77402,90202,103002,115802,128602,141402,154202,167002,179802,192602
DistanceSpacing: 1.5
BeatDivisor: 4
GridSize: 4
TimelineZoom: 2.2

[Metadata]
Title:I CAN'T STOP ME
TitleUnicode:I CAN'T STOP ME
Artist:TWICE
ArtistUnicode:트와이스
Creator:Fragmented
Version:Fragmic's Hard
Source:
Tags:charmcaster futser [Im nayeon] nabori cosmic cosmiccc Joo Haknyeon arnoldusj dora- doraemonelf synth retro k-pop kpop korean korea pop jype jyp entertainment title track second 2nd full album eyes wide open cant sana jihyo dahyun nayeon jeongyeon chaeyoung momo mina tzuyu 나연 정연 모모 사나 지효 미나 다현 채영 쯔위
BeatmapID:2697457
BeatmapSetID:1286496

[Difficulty]
HPDrainRate:4
CircleSize:3.3
OverallDifficulty:5
ApproachRate:7
SliderMultiplier:1.4
SliderTickRate:1

[Events]
//Background and Video events
0,0,"TWICE _I CAN'T STOP ME_ M_V 0-34 screenshot.jpg",0,0
Video,-3400,"Twice I Can't Stop Me M V-1-1.mp4"
//Break Periods
//Storyboard Layer 0 (Background)
//Storyboard Layer 1 (Fail)
//Storyboard Layer 2 (Pass)
//Storyboard Layer 3 (Foreground)
//Storyboard Layer 4 (Overlay)
//Storyboard Sound Samples

[TimingPoints]
202,400,4,2,1,70,1,0
402,-100,4,2,2,70,0,0
602,400,4,2,3,75,1,0
602,-111.111111111111,4,2,3,75,0,0
1402,-111.111111111111,4,2,3,5,0,0
1602,-111.111111111111,4,2,3,75,0,0
1802,-111.111111111111,4,2,2,75,0,0
2002,-111.111111111111,4,2,1,75,0,0
2602,-111.111111111111,4,2,1,5,0,0
3002,-111.111111111111,4,2,1,75,0,0
3202,-111.111111111111,4,2,2,75,0,0
3402,-111.111111111111,4,2,1,75,0,0
3802,-111.111111111111,4,2,4,75,0,0
5402,-111.111111111111,4,2,4,5,0,0
6002,-111.111111111111,4,2,5,75,0,0
6402,-111.111111111111,4,2,4,75,0,0
6602,-111.111111111111,4,2,1,75,0,0
7002,-111.111111111111,4,2,6,75,0,0
7402,-111.111111111111,4,2,7,75,0,0
7602,-111.111111111111,4,2,8,75,0,0
9002,-111.111111111111,4,2,7,75,0,0
9202,-111.111111111111,4,2,5,75,0,0
9602,-111.111111111111,4,2,4,75,0,0
9802,-111.111111111111,4,2,1,75,0,0
10202,-111.111111111111,4,2,9,75,0,0
10802,-111.111111111111,4,2,8,75,0,0
11202,-111.111111111111,4,2,1,75,0,0
12002,-111.111111111111,4,2,2,75,0,0
12602,-111.111111111111,4,2,7,75,0,0
12802,-111.111111111111,4,2,1,75,0,0
13402,-99.9999999999999,4,2,1,70,0,0
14002,-99.9999999999999,4,2,10,70,0,0
18402,-99.9999999999999,4,2,10,5,0,0
18602,-99.9999999999999,4,2,10,70,0,0
21602,-99.9999999999999,4,2,10,5,0,0
21802,-99.9999999999999,4,2,10,70,0,0
24002,-99.9999999999999,4,2,3,70,0,0
24802,-99.9999999999999,4,2,4,70,0,0
25402,-99.9999999999999,4,2,10,70,0,0
25602,-99.9999999999999,4,2,3,70,0,0
26202,-111.111111111111,4,2,10,65,0,0
27002,-111.111111111111,4,2,11,65,0,0
27402,-111.111111111111,4,2,10,65,0,0
28602,-111.111111111111,4,2,11,65,0,0
28802,-111.111111111111,4,2,10,65,0,0
30202,-111.111111111111,4,2,11,65,0,0
30602,-111.111111111111,4,2,10,65,0,0
31802,-111.111111111111,4,2,11,65,0,0
32002,-111.111111111111,4,2,10,65,0,0
33402,-111.111111111111,4,2,11,65,0,0
33802,-111.111111111111,4,2,10,65,0,0
35002,-111.111111111111,4,2,11,65,0,0
35202,-111.111111111111,4,2,10,65,0,0
35802,-125,4,2,7,65,0,0
36802,-125,4,2,1,65,0,0
37602,-125,4,2,2,65,0,0
38302,-125,4,2,2,5,0,0
39002,-125,4,2,12,90,0,1
39202,-125,4,2,13,90,0,1
39402,-90.9090909090909,4,2,13,90,0,1
48602,-90.9090909090909,4,2,13,80,0,1
48802,-90.9090909090909,4,2,10,80,0,1
49002,-90.9090909090909,4,2,14,80,0,1
49602,-90.9090909090909,4,2,4,80,0,1
49802,-90.9090909090909,4,2,5,80,0,1
50002,-90.9090909090909,4,2,4,80,0,1
50402,-90.9090909090909,4,2,3,80,0,1
50602,-90.9090909090909,4,2,6,80,0,1
51002,-90.9090909090909,4,2,15,80,0,1
51202,-90.9090909090909,4,2,1,80,0,1
51402,-90.9090909090909,4,2,15,80,0,0
51802,-90.9090909090909,4,2,12,90,0,1
52002,-90.9090909090909,4,2,13,90,0,1
56602,-90.9090909090909,4,2,16,90,0,1
58602,-90.9090909090909,4,2,13,90,0,1
61402,-90.9090909090909,4,2,13,80,0,1
61602,-90.9090909090909,4,2,10,80,0,1
61802,-90.9090909090909,4,2,14,80,0,1
62402,-90.9090909090909,4,2,4,80,0,1
62602,-90.9090909090909,4,2,5,80,0,1
62802,-90.9090909090909,4,2,4,80,0,1
63202,-90.9090909090909,4,2,3,80,0,1
63402,-90.9090909090909,4,2,6,80,0,1
63802,-90.9090909090909,4,2,15,80,0,1
64002,-90.9090909090909,4,2,1,80,0,1
64202,-90.9090909090909,4,2,17,80,0,1
64402,-90.9090909090909,4,2,18,80,0,1
64602,-90.9090909090909,4,2,19,85,0,0
64802,-90.9090909090909,4,2,7,85,0,0
65002,-111.111111111111,4,2,7,85,0,0
65602,-111.111111111111,4,2,3,85,0,0
65802,-111.111111111111,4,2,20,85,0,0
66002,-111.111111111111,4,2,21,85,0,0
66202,-111.111111111111,4,2,7,85,0,0
67002,-111.111111111111,4,2,21,85,0,0
67202,-111.111111111111,4,2,2,85,0,0
67402,-111.111111111111,4,2,1,85,0,0
67802,-111.111111111111,4,2,22,85,0,0
68002,-111.111111111111,4,2,7,85,0,0
70402,-111.111111111111,4,2,4,85,0,0
70602,-111.111111111111,4,2,1,85,0,0
71002,-111.111111111111,4,2,6,85,0,0
71202,-111.111111111111,4,2,7,85,0,0
73602,-111.111111111111,4,2,4,85,0,0
73802,-111.111111111111,4,2,1,85,0,0
74202,-111.111111111111,4,2,9,75,0,0
74402,-111.111111111111,4,2,10,75,0,0
74802,-111.111111111111,4,2,8,75,0,0
75202,-111.111111111111,4,2,10,75,0,0
76402,-111.111111111111,4,2,7,75,0,0
77402,-125,4,2,7,70,0,0
78602,-125,4,2,10,70,0,0
79602,-125,4,2,7,80,0,0
80602,-100,4,2,7,75,0,0
81802,-100,4,2,10,75,0,0
81902,-100,4,2,10,5,0,0
82002,-100,4,2,10,75,0,0
82102,-100,4,2,10,5,0,0
82202,-100,4,2,10,75,0,0
82802,-100,4,2,7,75,0,0
83302,-100,4,2,7,5,0,0
83402,-100,4,2,7,75,0,0
83702,-100,4,2,7,5,0,0
83802,-100,4,2,7,75,0,0
86002,-100,4,2,7,5,0,0
86202,-100,4,2,7,75,0,0
86802,-100,4,2,10,75,0,0
88002,-100,4,2,3,75,0,0
88802,-100,4,2,4,75,0,0
89602,-100,4,2,3,75,0,0
90202,-111.111111111111,4,2,10,65,0,0
91002,-111.111111111111,4,2,11,65,0,0
91402,-111.111111111111,4,2,10,65,0,0
92602,-111.111111111111,4,2,11,65,0,0
92802,-111.111111111111,4,2,10,65,0,0
94202,-111.111111111111,4,2,11,65,0,0
94602,-111.111111111111,4,2,10,65,0,0
95802,-111.111111111111,4,2,11,65,0,0
96002,-111.111111111111,4,2,10,65,0,0
97402,-111.111111111111,4,2,11,65,0,0
97802,-111.111111111111,4,2,10,65,0,0
99002,-111.111111111111,4,2,11,65,0,0
99202,-111.111111111111,4,2,10,65,0,0
99802,-125,4,2,7,65,0,0
100802,-125,4,2,1,65,0,0
101602,-125,4,2,2,65,0,0
103002,-125,4,2,12,90,0,1
103202,-90.9090909090909,4,2,13,90,0,1
112602,-90.9090909090909,4,2,13,80,0,1
112802,-90.9090909090909,4,2,10,80,0,1
113002,-90.9090909090909,4,2,14,80,0,1
113602,-90.9090909090909,4,2,4,80,0,1
113802,-90.9090909090909,4,2,5,80,0,1
114002,-90.9090909090909,4,2,4,80,0,1
114402,-90.9090909090909,4,2,3,80,0,1
114602,-90.9090909090909,4,2,6,80,0,1
115002,-90.9090909090909,4,2,15,80,0,1
115202,-90.9090909090909,4,2,1,80,0,1
115402,-90.9090909090909,4,2,15,80,0,0
115802,-90.9090909090909,4,2,12,90,0,1
116002,-90.9090909090909,4,2,13,90,0,1
120602,-90.9090909090909,4,2,16,90,0,1
122402,-90.9090909090909,4,2,16,5,0,1
122602,-90.9090909090909,4,2,13,90,0,1
125402,-90.9090909090909,4,2,13,80,0,1
125602,-90.9090909090909,4,2,10,80,0,1
125802,-90.9090909090909,4,2,14,80,0,1
126402,-90.9090909090909,4,2,4,80,0,1
126602,-90.9090909090909,4,2,5,80,0,1
126802,-90.9090909090909,4,2,4,80,0,1
127202,-90.9090909090909,4,2,3,80,0,1
127402,-90.9090909090909,4,2,6,80,0,1
127802,-90.9090909090909,4,2,15,80,0,1
128002,-90.9090909090909,4,2,1,80,0,1
128202,-90.9090909090909,4,2,17,80,0,1
128602,-90.9090909090909,4,2,23,80,0,0
128802,-90.9090909090909,4,2,24,80,0,0
129402,-100,4,2,24,80,0,0
129602,-100,4,2,23,80,0,0
129802,-100,4,2,18,80,0,0
130002,-100,4,2,25,80,0,0
130202,-100,4,2,24,80,0,0
131002,-100,4,2,25,80,0,0
131202,-100,4,2,18,80,0,0
131402,-100,4,2,25,80,0,0
131802,-100,4,2,26,80,0,0
132002,-100,4,2,24,80,0,0
134002,-100,4,2,27,80,0,0
134202,-100,4,2,24,80,0,0
134402,-100,4,2,26,80,0,0
134602,-100,4,2,25,80,0,0
135002,-100,4,2,28,80,0,0
135402,-100,4,2,2,80,0,0
135602,-100,4,2,29,80,0,0
135702,-100,4,2,7,80,0,0
137202,-100,4,2,30,80,0,0
137302,-100,4,2,7,80,0,0
137602,-100,4,2,31,80,0,0
137802,-100,4,2,32,80,0,0
138002,-100,4,2,7,80,0,0
138202,-100,4,2,28,80,0,0
138602,-100,4,2,2,80,0,0
138802,-100,4,2,33,80,0,0
138902,-100,4,2,24,80,0,0
141402,-142.857142857143,4,2,1,55,0,0
142402,-142.857142857143,4,2,23,55,0,0
142602,-142.857142857143,4,2,18,55,0,0
142802,-142.857142857143,4,2,32,55,0,0
144002,-142.857142857143,4,2,18,55,0,0
144202,-142.857142857143,4,2,25,55,0,0
144602,-142.857142857143,4,2,31,55,0,0
146202,-142.857142857143,4,2,7,55,0,0
146802,-142.857142857143,4,2,27,55,0,0
147202,-142.857142857143,4,2,26,55,0,0
147402,-142.857142857143,4,2,25,55,0,0
147802,-142.857142857143,4,2,28,55,0,0
148202,-142.857142857143,4,2,7,55,0,0
148402,-142.857142857143,4,2,33,55,0,0
149802,-142.857142857143,4,2,7,55,0,0
150002,-142.857142857143,4,2,27,55,0,0
150402,-142.857142857143,4,2,31,65,0,0
150602,-142.857142857143,4,2,32,65,0,0
153802,-142.857142857143,4,2,16,85,0,0
154202,-142.857142857143,4,2,34,95,0,1
154402,-86.9565217391304,4,2,13,95,0,1
163802,-86.9565217391304,4,2,13,85,0,1
164002,-86.9565217391304,4,2,10,85,0,1
164202,-86.9565217391304,4,2,14,85,0,1
164802,-86.9565217391304,4,2,4,85,0,1
165002,-86.9565217391304,4,2,5,85,0,1
165202,-86.9565217391304,4,2,4,85,0,1
165602,-86.9565217391304,4,2,3,85,0,1
165802,-86.9565217391304,4,2,6,85,0,1
166202,-86.9565217391304,4,2,15,85,0,1
166402,-86.9565217391304,4,2,1,85,0,1
166602,-86.9565217391304,4,2,15,85,0,0
167002,-86.9565217391304,4,2,12,95,0,1
167202,-86.9565217391304,4,2,13,95,0,1
171802,-86.9565217391304,4,2,16,95,0,1
173602,-86.9565217391304,4,2,16,5,0,1
173802,-86.9565217391304,4,2,13,95,0,1
176602,-86.9565217391304,4,2,13,85,0,1
176802,-86.9565217391304,4,2,10,85,0,1
177002,-86.9565217391304,4,2,14,85,0,1
177602,-86.9565217391304,4,2,4,85,0,1
177802,-86.9565217391304,4,2,5,85,0,1
178002,-86.9565217391304,4,2,4,85,0,1
178402,-86.9565217391304,4,2,3,85,0,1
178602,-86.9565217391304,4,2,6,85,0,1
179002,-86.9565217391304,4,2,15,85,0,1
179202,-86.9565217391304,4,2,1,85,0,1
179402,-86.9565217391304,4,2,17,85,0,1
179802,-95.2380952380952,4,2,35,90,0,0
179902,-95.2380952380952,4,2,7,90,0,0
180802,-95.2380952380952,4,2,3,90,0,0
181002,-95.2380952380952,4,2,20,90,0,0
181102,-95.2380952380952,4,2,7,90,0,0
181202,-95.2380952380952,4,2,21,90,0,0
181402,-95.2380952380952,4,2,7,90,0,0
181602,-95.2380952380952,4,2,7,5,0,0
181802,-95.2380952380952,4,2,7,90,0,0
182002,-95.2380952380952,4,2,7,5,0,0
182202,-95.2380952380952,4,2,21,90,0,0
182402,-95.2380952380952,4,2,2,90,0,0
182602,-95.2380952380952,4,2,1,90,0,0
183002,-95.2380952380952,4,2,22,90,0,0
183102,-95.2380952380952,4,2,7,90,0,0
184802,-95.2380952380952,4,2,7,5,0,0
185002,-95.2380952380952,4,2,7,90,0,0
185202,-95.2380952380952,4,2,5,90,0,0
185402,-95.2380952380952,4,2,7,90,0,0
185602,-95.2380952380952,4,2,4,90,0,0
185802,-95.2380952380952,4,2,1,90,0,0
186202,-95.2380952380952,4,2,6,90,0,0
186302,-95.2380952380952,4,2,7,90,0,0
188002,-95.2380952380952,4,2,7,5,0,0
188202,-95.2380952380952,4,2,7,90,0,0
188402,-95.2380952380952,4,2,5,90,0,0
188602,-95.2380952380952,4,2,7,90,0,0
188802,-95.2380952380952,4,2,4,90,0,0
189002,-95.2380952380952,4,2,1,90,0,0
189402,-95.2380952380952,4,2,9,90,0,0
189602,-95.2380952380952,4,2,10,90,0,0
190002,-95.2380952380952,4,2,8,90,0,0
190402,-95.2380952380952,4,2,4,90,0,0
191202,-95.2380952380952,4,2,3,90,0,0
191802,-95.2380952380952,4,2,15,90,0,0
192002,-95.2380952380952,4,2,1,90,0,0
192202,-95.2380952380952,4,2,15,90,0,0
192602,-100,4,2,1,70,0,0
192702,-100,4,2,1,40,0,0
192802,-100,4,2,7,40,0,0
193602,-100,4,2,7,5,0,0
193802,-100,4,2,7,40,0,0
195802,-111.111111111111,4,2,7,40,0,0
196802,-111.111111111111,4,2,7,5,0,0
197002,-111.111111111111,4,2,7,40,0,0
199002,-125,4,2,7,40,0,0
200002,-125,4,2,7,5,0,0
200202,-125,4,2,7,40,0,0
205202,-125,4,2,7,5,0,0

[Colours]
Combo1 : 1,198,239
Combo2 : 255,0,128
Combo3 : 255,255,91
Combo4 : 149,43,255
Combo5 : 146,223,0
Combo6 : 183,0,0
SliderBorder : 168,63,57
SliderTrackOverride : 19,38,32

[HitObjects]
416,56,202,5,2,2:0:0:0:
336,72,402,1,2,2:0:0:0:
256,88,602,6,0,B|208:152|248:204|248:192|288:264|228:352,1,252,2|0,2:0|2:0,2:0:0:0:
168,264,1602,1,2,2:0:0:0:
92,320,1802,1,2,2:0:0:0:
36,244,2002,2,0,B|24:160|96:92|128:128|108:176,1,189,2|0,2:0|2:0,2:0:0:0:
240,328,3002,2,0,P|308:336|324:328,1,63.0000000000001,2|2,2:0|2:0,2:0:0:0:
384,296,3402,1,2,2:0:0:0:
432,112,3802,6,0,B|372:76|280:108|304:112|232:164|156:176|112:144|92:48|164:-12|232:-8|288:76|228:116,1,504,2|0,2:0|2:0,2:0:0:0:
40,224,6002,2,0,L|44:372,1,126,2|2,2:0|2:0,2:0:0:0:
136,368,6602,1,2,2:0:0:0:
132,164,7002,6,0,B|216:160|216:160|248:196,1,126,2|2,2:0|2:0,2:0:0:0:
180,260,7602,2,0,B|216:300|316:324|380:244|344:152|380:136|296:116|204:92|268:8|344:12|324:80,1,441,2|2,2:0|2:0,2:0:0:0:
412,112,9202,2,0,B|508:100|508:100|504:148,1,126,2|2,2:0|2:0,2:0:0:0:
496,224,9802,1,2,2:0:0:0:
348,344,10202,6,0,B|304:352|304:352|268:336|268:336|216:344,1,126,6|0,2:0|2:0,2:0:0:0:
136,368,10802,2,0,P|140:308|208:256,1,126,2|8,2:0|2:3,2:0:0:0:
276,236,11402,1,8,2:3:0:0:
212,168,11602,1,8,2:3:0:0:
212,168,12002,1,10,2:3:0:0:
276,236,12202,1,10,2:3:0:0:
184,262,12402,2,0,L|108:256,1,63.0000000000001,10|2,2:3|2:0,2:0:0:0:
28,248,12802,1,6,2:3:0:0:
88,168,13002,2,0,L|84:80,1,63.0000000000001,6|6,2:3|2:3,2:0:0:0:
162,34,13402,6,0,B|199:27|199:27|252:43|252:43|306:33,1,140,0|0,3:0|1:0,2:0:0:0:
403,28,14002,2,0,B|436:54|436:54|434:160,1,140,2|0,2:0|3:0,2:0:0:0:
440,255,14602,2,0,L|353:262,1,70.0000000000001,2|2,1:2|2:0,2:0:0:0:
269,288,15002,2,0,L|260:385,2,70.0000000000001,0|0|0,3:0|2:0|1:0,2:0:0:0:
281,184,15602,1,2,2:0:0:0:
294,87,15802,2,0,P|254:70|208:74,1,70.0000000000001,2|2,3:2|3:2,2:0:0:0:
129,61,16202,1,2,1:2:0:0:
129,61,16402,1,2,2:0:0:0:
43,107,16602,6,0,B|26:173|26:173|65:256,1,140,2|0,3:2|1:0,2:0:0:0:
118,314,17202,2,0,P|183:330|249:288,1,140,2|2,2:0|3:2,2:0:0:0:
310,221,17802,1,2,1:2:0:0:
411,218,18002,2,0,P|469:247|481:318,1,140,2|0,2:0|2:0,2:0:0:0:
399,361,18602,1,0,1:0:0:0:
243,295,19002,2,0,B|225:270|225:270|226:205,1,70.0000000000001,2|2,3:2|3:2,2:0:0:0:
268,135,19402,1,2,1:2:0:0:
268,135,19602,6,0,P|335:123|295:219,1,210,2|0,2:0|1:0,2:0:0:0:
200,230,20402,2,0,L|39:216,1,140,2|0,2:0|3:0,2:0:0:0:
18,122,21002,1,2,1:2:0:0:
84,53,21202,2,0,B|152:36|152:36|237:58,1,140,2|0,2:0|2:0,2:0:0:0:
316,77,21802,1,0,1:0:0:0:
406,39,22002,1,2,2:0:0:0:
406,39,22202,2,0,L|428:114,1,70.0000000000001,2|2,3:2|3:2,2:0:0:0:
483,186,22602,2,0,L|461:261,1,70.0000000000001,2|2,1:2|2:0,2:0:0:0:
413,341,23002,5,2,3:2:0:0:
413,341,23202,2,0,P|340:349|281:283,1,140,2|2,2:0|2:0,2:0:0:0:
232,230,23802,2,0,P|189:219|143:236,1,70.0000000000001,2|10,2:0|3:0,2:0:0:0:
70,241,24202,1,10,1:3:0:0:
14,161,24402,1,10,2:3:0:0:
56,78,24602,2,0,B|93:66|93:66|135:79,1,70.0000000000001,0|8,3:0|2:3,2:0:0:0:
214,100,25002,1,8,1:3:0:0:
300,46,25202,1,10,2:3:0:0:
300,46,25402,2,0,P|334:45|366:60,1,70.0000000000001,2|6,3:2|3:0,2:0:0:0:
433,127,25802,2,0,P|433:161|418:193,1,70.0000000000001,6|6,1:3|2:3,2:0:0:0:
352,320,26202,6,0,B|328:280|292:272|292:272|316:256|328:216,1,126,6|0,3:2|2:0,2:0:0:0:
208,108,27002,2,0,P|212:72|224:32,1,63.0000000000001,2|2,1:2|2:0,2:0:0:0:
140,164,27402,2,0,P|125:130|115:90,1,63.0000000000001,2|2,3:2|2:0,2:0:0:0:
40,52,27802,2,0,P|32:136|48:200,1,126,2|0,2:0|3:0,2:0:0:0:
104,248,28402,1,2,2:0:0:0:
72,332,28602,2,0,L|4:324,1,63.0000000000001,2|2,1:2|3:2,2:0:0:0:
112,252,29002,2,0,L|180:244,1,63.0000000000001,2|2,2:0|2:0,2:0:0:0:
252,316,29402,6,0,B|268:332|268:332|284:392,2,63.0000000000001,2|2|2,3:2|2:0|2:0,2:0:0:0:
288,220,30002,1,10,3:2:0:0:
216,156,30202,2,0,L|132:164,1,63.0000000000001,2|2,1:2|2:0,2:0:0:0:
76,104,30602,1,2,3:2:0:0:
12,176,30802,2,0,P|0:252|44:308,1,126,10|8,2:0|2:0,2:0:0:0:
108,332,31402,1,0,3:0:0:0:
216,156,31802,6,0,L|220:92,1,63.0000000000001,2|2,1:2|3:2,2:0:0:0:
304,160,32202,2,0,L|300:224,1,63.0000000000001,2|2,2:0|2:0,2:0:0:0:
352,300,32602,2,0,P|292:316|220:280,1,126,2|0,3:2|2:0,2:0:0:0:
160,236,33202,1,10,3:2:0:0:
96,304,33402,2,0,L|84:372,1,63.0000000000001,2|2,1:2|2:0,2:0:0:0:
12,264,33802,2,0,L|1:201,1,63.0000000000001,2|2,3:2|2:0,2:0:0:0:
40,112,34202,2,0,B|84:104|84:104|108:112|108:112|168:104,1,126,2|0,2:0|3:0,2:0:0:0:
368,40,35002,5,2,1:2:0:0:
368,40,35202,1,2,3:2:0:0:
328,124,35402,2,0,L|336:208,1,63.0000000000001,2|2,2:0|2:0,2:0:0:0:
280,272,35802,6,0,P|248:276|212:272,2,56,6|2|2,2:0|2:0|2:0,2:0:0:0:
248,192,36402,1,2,2:0:0:0:
164,212,36602,1,2,2:0:0:0:
224,274,36802,1,10,2:3:0:0:
248,192,37002,1,10,2:3:0:0:
188,128,37202,2,0,B|144:116|124:128|140:128|120:144|68:132,1,112,10|10,2:3|2:3,2:0:0:0:
16,88,37802,1,10,2:3:0:0:
16,88,38002,1,10,2:3:0:0:
3,209,38202,2,0,L|11:261,1,28,0|0,1:0|2:0,2:0:0:0:
188,128,39002,5,6,3:2:0:0:
259,56,39202,1,2,2:0:0:0:
259,56,39402,2,0,P|295:42|336:48,1,77,10|2,1:2|2:0,2:0:0:0:
425,24,39802,2,0,P|449:53|458:94,1,77,2|2,2:0|3:2,2:0:0:0:
398,173,40202,1,10,1:2:0:0:
475,230,40402,1,2,2:0:0:0:
466,332,40602,2,0,B|409:357|409:357|305:342,1,154,2|10,3:2|1:2,2:0:0:0:
136,307,41402,2,0,L|35:306,1,77,2|0,3:2|3:0,2:0:0:0:
23,223,41802,2,0,P|10:160|60:73,1,154,10|0,1:2|3:0,2:0:0:0:
137,35,42402,5,2,2:0:0:0:
189,118,42602,2,0,L|189:217,1,77,10|2,1:2|2:0,2:0:0:0:
282,251,43002,2,0,L|282:174,1,77,2|2,2:0|3:2,2:0:0:0:
284,77,43402,1,10,1:2:0:0:
379,39,43602,1,2,2:0:0:0:
455,112,43802,2,0,B|493:177|493:177|447:278,1,154,2|10,3:2|1:2,2:0:0:0:
236,290,44602,2,0,L|136:273,2,77,2|2|10,3:2|3:2|1:2,2:0:0:0:
337,309,45202,2,0,P|387:314|463:223,1,154,2|2,2:0|2:0,2:0:0:0:
481,145,45802,5,10,1:2:0:0:
394,99,46002,1,2,2:0:0:0:
318,154,46202,2,0,P|273:166|215:148,1,77,2|2,2:0|3:2,2:0:0:0:
186,82,46602,2,0,P|141:70|83:88,1,77,10|2,1:2|2:0,2:0:0:0:
16,101,47002,2,0,L|17:273,1,154,2|10,3:2|1:2,2:0:0:0:
163,350,47802,2,0,B|204:363|204:363|257:347,1,77,2|0,3:2|3:0,2:0:0:0:
317,312,48202,1,10,1:2:0:0:
317,312,48602,6,0,L|314:235,1,77,0|2,3:0|2:0,2:0:0:0:
307,134,49002,1,10,1:2:0:0:
301,41,49202,2,0,B|348:13|348:13|454:25,1,154,2|10,2:0|3:0,2:0:0:0:
491,115,49802,1,10,1:3:0:0:
459,219,50002,2,0,B|412:247|412:247|305:234,1,154,10|6,2:3|2:3,2:0:0:0:
225,197,50602,1,12,1:3:0:0:
153,265,50802,1,4,3:0:0:0:
153,265,51002,2,0,P|108:262|75:242,1,77,6|4,1:2|3:0,2:0:0:0:
36,167,51402,1,6,1:2:0:0:
184,40,51802,5,6,3:2:0:0:
254,97,52002,1,2,2:0:0:0:
192,164,52202,2,0,L|112:156,1,77,10|2,1:2|2:0,2:0:0:0:
80,256,52602,2,0,L|3:263,2,77,2|2|10,2:0|3:2|1:2,2:0:0:0:
144,336,53202,1,2,2:0:0:0:
228,272,53402,2,0,B|272:244|272:244|404:272,1,154,2|10,3:2|1:2,2:0:0:0:
272,96,54202,2,0,L|188:100,1,77,2|0,3:2|3:0,2:0:0:0:
112,48,54602,1,10,1:2:0:0:
112,48,55002,5,0,3:0:0:0:
28,120,55202,2,0,L|12:36,2,77,2|10|2,2:0|1:2|2:0,2:0:0:0:
88,204,55802,2,0,L|73:279,1,77,2|2,2:0|3:2,2:0:0:0:
144,360,56202,1,10,1:2:0:0:
224,296,56402,1,2,2:0:0:0:
348,348,56602,2,0,B|404:336|404:336|448:352|448:352|516:340,1,154,2|10,3:2|1:2,2:0:0:0:
468,240,57202,2,0,P|436:200|468:88,1,154,2|2,2:0|3:2,2:0:0:0:
376,24,57802,1,10,1:2:0:0:
376,24,58002,1,2,2:0:0:0:
288,88,58202,6,0,L|300:264,1,154,0|10,3:0|1:2,2:0:0:0:
232,324,58802,1,2,2:0:0:0:
160,248,59002,2,0,L|168:160,1,77,2|2,2:0|3:2,2:0:0:0:
128,72,59402,2,0,P|180:64|224:76,1,77,10|2,1:2|2:0,2:0:0:0:
288,132,59802,2,0,B|400:140|400:140|452:92,1,154,2|10,3:2|1:2,2:0:0:0:
344,280,60602,2,0,L|260:273,1,77,2|0,3:2|3:0,2:0:0:0:
170,251,61002,1,10,1:2:0:0:
170,251,61402,5,0,3:0:0:0:
90,323,61602,1,2,2:0:0:0:
90,323,61802,1,10,1:2:0:0:
34,231,62002,2,0,B|14:187|14:187|50:67,1,154,2|10,2:0|3:0,2:0:0:0:
138,35,62602,1,10,1:3:0:0:
210,107,62802,2,0,B|314:103|314:103|346:163,1,154,10|6,2:3|2:3,2:0:0:0:
360,252,63402,1,12,1:3:0:0:
236,220,63602,5,4,3:0:0:0:
236,220,63802,2,0,L|152:232,1,77,6|4,1:2|3:0,2:0:0:0:
76,324,64202,2,0,L|160:336,1,77,6|6,1:2|3:2,2:0:0:0:
276,320,64602,5,6,3:2:0:0:
372,337,64802,1,2,2:0:0:0:
475,354,65002,2,0,L|468:152,1,189,2|2,1:2|3:2,2:0:0:0:
385,72,65802,1,2,1:2:0:0:
284,84,66002,1,2,2:0:0:0:
187,96,66202,2,0,L|190:245,1,126,2|2,3:2|1:2,2:0:0:0:
80,337,67002,2,0,L|-1:330,2,63.0000000000001,2|2|2,3:2|3:2|1:2,2:0:0:0:
252,354,67802,5,2,3:2:0:0:
252,354,68002,1,2,2:0:0:0:
320,279,68202,2,0,B|359:217|359:217|296:104,1,189,2|0,1:2|3:0,2:0:0:0:
249,33,69002,1,2,1:2:0:0:
249,33,69202,1,2,2:0:0:0:
355,28,69402,2,0,P|406:30|476:85,1,126,2|2,3:2|1:2,2:0:0:0:
496,236,70202,2,0,L|490:300,1,63.0000000000001,2|2,3:2|3:2,2:0:0:0:
419,354,70602,1,2,1:2:0:0:
265,243,71002,5,2,3:2:0:0:
172,260,71202,1,2,2:0:0:0:
78,278,71402,2,0,B|66:214|66:214|86:156|86:156|70:87,1,189,2|0,1:2|3:0,2:0:0:0:
135,24,72202,1,2,1:2:0:0:
216,71,72402,1,2,2:0:0:0:
298,118,72602,2,0,L|184:208,1,126,2|2,3:2|1:2,2:0:0:0:
43,302,73402,2,0,L|33:371,2,63.0000000000001,2|2|2,3:2|3:2|1:2,2:0:0:0:
199,196,74202,6,0,P|229:190|261:201,1,63.0000000000001,2|2,3:2|2:0,2:0:0:0:
350,224,74602,1,2,1:2:0:0:
440,195,74802,2,0,B|464:129|464:129|442:52,1,126,2|2,2:0|3:2,2:0:0:0:
355,57,75402,1,2,1:2:0:0:
261,42,75602,2,0,L|117:50,1,126,2|2,2:0|2:0,2:0:0:0:
52,95,76202,2,0,P|46:131|55:164,1,63.0000000000001,0|2,1:0|2:0,2:0:0:0:
93,241,76602,1,2,3:2:0:0:
234,174,77002,1,2,1:2:0:0:
234,174,77402,6,0,L|296:176,3,56,2|0|0|0,2:0|2:0|2:0|2:0,2:0:0:0:
356,232,78202,2,0,L|411:230,1,56,0|0,2:0|2:0,2:0:0:0:
432,140,78602,1,2,2:0:0:0:
432,140,78802,1,2,2:0:0:0:
492,200,79002,2,0,P|500:240|492:268,1,56,0|0,2:0|2:0,2:0:0:0:
440,320,79402,2,0,P|400:328|372:320,1,56,0|2,2:0|2:0,2:0:0:0:
300,304,79802,1,2,2:0:0:0:
260,176,80002,5,0,1:0:0:0:
260,176,80202,1,2,1:2:0:0:
260,176,80402,1,0,1:0:0:0:
192,256,80602,6,0,B|168:280|144:276|144:276|28:256,1,140,2|0,3:2|1:0,2:0:0:0:
8,176,81202,1,0,2:0:0:0:
88,116,81402,2,0,L|164:108,1,70,0|0,2:0|3:0,2:0:0:0:
256,124,81802,2,0,P|260:156|252:184,1,35,2|0,1:2|2:0,2:0:0:0:
280,192,82002,2,0,P|280:209|276:226,1,35,2|0,2:0|2:0,2:0:0:0:
272,268,82202,6,0,P|328:260|364:264,2,70,0|0|0,3:0|2:0|1:0,2:0:0:0:
180,328,82802,1,2,2:0:0:0:
108,264,83002,1,2,3:2:0:0:
92,244,83102,2,0,L|96:168,1,70,2|0,2:0|2:0,2:0:0:0:
80,152,83402,1,2,1:2:0:0:
64,132,83502,2,0,L|68:56,1,70,2|0,2:0|2:0,2:0:0:0:
48,40,83802,6,0,B|116:36|116:36|128:44|128:44|208:40,2,140,2|2|0,3:2|1:2|2:0,2:0:0:0:
4,136,84802,1,0,3:0:0:0:
84,204,85002,1,2,1:2:0:0:
84,204,85202,2,0,B|128:184|156:196|148:204|184:224|240:200,1,140,2|2,2:0|2:0,2:0:0:0:
320,184,85802,2,0,L|312:96,1,70,0|0,1:0|2:0,2:0:0:0:
380,36,86202,1,0,3:0:0:0:
452,104,86402,1,0,3:0:0:0:
440,200,86602,2,0,L|433:269,1,70,0|2,1:0|2:0,2:0:0:0:
312,352,87002,6,0,P|304:300|312:264,1,70,2|2,3:2|2:0,2:0:0:0:
320,184,87402,2,0,P|328:132|320:96,1,70,2|2,1:2|2:0,2:0:0:0:
220,40,87802,2,0,L|304:32,2,70,2|10|10,2:0|3:0|1:3,2:0:0:0:
152,116,88402,2,0,B|140:168|140:168|156:192|156:192|136:280,1,140,10|10,2:3|2:3,2:0:0:0:
64,312,89002,1,10,1:3:0:0:
148,360,89202,2,0,L|232:356,1,70,10|0,2:3|3:0,2:0:0:0:
303,310,89602,1,6,3:0:0:0:
303,310,89802,2,0,P|307:258|295:222,1,70,6|4,1:3|2:3,2:0:0:0:
284,96,90202,6,0,P|302:49|409:86,1,189,6|10,3:2|3:2,2:0:0:0:
447,161,91002,2,0,L|430:252,1,63.0000000000001,2|2,1:2|2:0,2:0:0:0:
448,314,91402,2,0,L|359:326,1,63.0000000000001,2|2,3:2|2:0,2:0:0:0:
273,337,91802,2,0,P|203:302|147:325,1,126,2|0,2:0|3:0,2:0:0:0:
71,345,92402,1,2,2:0:0:0:
71,345,92602,2,0,L|56:264,1,63.0000000000001,2|2,1:2|3:2,2:0:0:0:
17,191,93002,2,0,L|32:110,1,63.0000000000001,2|2,2:0|2:0,2:0:0:0:
74,46,93402,5,2,3:2:0:0:
152,102,93602,1,2,2:0:0:0:
220,35,93802,2,0,P|263:28|300:39,1,63.0000000000001,2|10,2:0|3:2,2:0:0:0:
360,86,94202,2,0,L|351:167,2,63.0000000000001,2|2|2,1:2|2:0|3:2,2:0:0:0:
450,39,94802,2,0,B|481:66|481:66|487:171,1,126,10|10,2:0|2:0,2:0:0:0:
493,246,95402,1,0,3:0:0:0:
323,357,95802,2,0,P|294:362|259:353,1,63.0000000000001,2|2,1:2|3:2,2:0:0:0:
185,286,96202,2,0,P|180:257|189:222,1,63.0000000000001,2|2,2:0|2:0,2:0:0:0:
232,140,96602,6,0,B|286:125|286:125|352:147,1,126,2|0,3:2|2:0,2:0:0:0:
352,235,97202,1,10,3:2:0:0:
251,229,97402,2,0,L|162:223,1,63.0000000000001,2|2,1:2|2:0,2:0:0:0:
88,174,97802,2,0,L|82:263,1,63.0000000000001,2|2,3:2|2:0,2:0:0:0:
35,334,98202,2,0,L|185:343,1,126,2|0,2:0|3:0,2:0:0:0:
380,351,99002,2,0,B|394:318|394:318|387:280,1,63.0000000000001,2|2,1:2|3:2,2:0:0:0:
346,198,99402,2,0,B|331:165|331:165|339:127,1,63.0000000000001,2|2,2:0|2:0,2:0:0:0:
361,48,99802,6,0,P|393:44|431:54,1,56,6|2,2:0|2:0,2:0:0:0:
470,128,100202,2,0,P|457:157|429:185,1,56,2|2,2:0|2:0,2:0:0:0:
346,199,100602,1,2,2:0:0:0:
252,158,100802,1,10,2:3:0:0:
193,235,101002,1,10,2:3:0:0:
193,235,101202,2,0,B|182:272|182:272|193:302|193:302|181:351,1,112,10|10,2:3|2:3,2:0:0:0:
89,351,101802,2,0,L|75:277,1,56,10|10,2:3|2:3,2:0:0:0:
58,209,102202,1,0,1:0:0:0:
252,88,103002,5,6,3:2:0:0:
320,164,103202,2,0,L|312:260,2,77,2|10|2,2:0|1:2|2:0,2:0:0:0:
412,108,103802,2,0,L|420:200,1,77,2|2,2:0|3:2,2:0:0:0:
496,248,104202,1,10,1:2:0:0:
476,352,104402,1,2,2:0:0:0:
376,320,104602,2,0,B|324:320|324:320|284:344|284:344|200:344,1,154,2|10,3:2|1:2,2:0:0:0:
268,164,105402,2,0,P|280:116|264:72,1,77,2|0,3:2|3:0,2:0:0:0:
192,32,105802,1,10,1:2:0:0:
36,132,106202,5,0,3:0:0:0:
92,216,106402,2,0,L|192:208,1,77,2|10,2:0|1:2,2:0:0:0:
268,164,106802,1,2,2:0:0:0:
328,244,107002,2,0,P|340:304|332:332,1,77,2|2,2:0|3:2,2:0:0:0:
248,376,107402,2,0,P|236:316|244:288,1,77,10|2,1:2|2:0,2:0:0:0:
328,244,107802,2,0,B|376:220|408:236|400:244|440:260|508:228,1,154,2|10,3:2|1:2,2:0:0:0:
440,56,108602,1,2,3:2:0:0:
440,56,108802,1,2,3:2:0:0:
360,120,109002,2,0,L|284:112,1,77,10|2,1:2|2:0,2:0:0:0:
208,40,109402,5,0,3:0:0:0:
144,152,109602,2,0,L|148:240,2,77,2|10|2,2:0|1:2|2:0,2:0:0:0:
52,204,110202,2,0,P|60:272|76:296,1,77,2|2,2:0|3:2,2:0:0:0:
152,328,110602,2,0,P|220:320|244:304,1,77,10|2,1:2|2:0,2:0:0:0:
300,244,111002,2,0,P|368:232|464:284,1,154,2|10,3:2|1:2,2:0:0:0:
376,92,111802,2,0,P|332:92|284:108,1,77,2|0,3:2|3:0,2:0:0:0:
208,152,112202,1,10,1:2:0:0:
208,152,112602,6,0,B|200:188|200:188|216:240,1,77,0|2,3:0|2:0,2:0:0:0:
276,312,113002,1,10,1:2:0:0:
180,352,113202,2,0,P|120:368|12:336,1,154,2|10,2:0|3:0,2:0:0:0:
68,252,113802,1,10,1:3:0:0:
44,156,114002,2,0,P|104:140|212:172,1,154,10|6,2:3|2:3,2:0:0:0:
260,244,114602,1,12,1:3:0:0:
368,172,114802,1,4,3:0:0:0:
368,172,115002,2,0,L|364:72,2,77,6|4|6,1:2|3:0|1:2,2:0:0:0:
480,289,115802,5,6,3:2:0:0:
405,348,116002,1,2,2:0:0:0:
405,348,116202,2,0,P|359:356|316:336,1,77,10|2,1:2|2:0,2:0:0:0:
242,293,116602,2,0,B|201:280|201:280|158:288,1,77,2|2,2:0|3:2,2:0:0:0:
74,313,117002,1,10,1:2:0:0:
7,236,117202,1,2,2:0:0:0:
51,144,117402,2,0,P|108:118|197:157,1,154,2|10,3:2|1:2,2:0:0:0:
329,238,118202,2,0,L|321:338,2,77,2|0|10,3:2|3:0|1:2,2:0:0:0:
364,54,119002,5,0,3:0:0:0:
436,124,119202,1,2,2:0:0:0:
436,124,119402,2,0,L|430:214,1,77,10|2,1:2|2:0,2:0:0:0:
417,298,119802,2,0,P|455:312|514:300,2,77,2|2|10,2:0|3:2|1:2,2:0:0:0:
341,220,120402,1,2,2:0:0:0:
240,301,120602,2,0,P|182:335|86:290,1,154,2|10,3:2|1:2,2:0:0:0:
17,347,121202,2,0,P|16:279|102:219,1,154,2|2,2:0|3:2,2:0:0:0:
171,251,121802,1,10,1:2:0:0:
204,148,122002,2,0,B|277:123|277:123|365:152,1,154,2|0,2:0|2:0,2:0:0:0:
481,194,122602,6,0,L|480:288,1,77,10|2,1:2|2:0,2:0:0:0:
449,364,123002,1,2,2:0:0:0:
338,331,123202,1,2,3:2:0:0:
366,237,123402,2,0,L|366:160,1,77,10|2,1:2|2:0,2:0:0:0:
372,66,123802,2,0,B|321:72|321:72|266:49|266:49|203:57,1,154,2|10,3:2|1:2,2:0:0:0:
61,151,124602,2,0,L|55:241,1,77,2|0,3:2|3:0,2:0:0:0:
93,326,125002,1,10,1:2:0:0:
93,326,125402,6,0,L|183:332,1,77,0|2,3:0|2:0,2:0:0:0:
279,357,125802,1,10,1:2:0:0:
372,306,126002,2,0,P|400:241|366:156,1,154,2|10,2:0|3:0,2:0:0:0:
286,109,126602,1,10,1:3:0:0:
218,186,126802,2,0,B|172:214|172:214|73:198,1,154,10|6,2:3|2:3,2:0:0:0:
7,131,127402,1,12,1:3:0:0:
31,30,127602,1,4,3:0:0:0:
136,42,127802,2,0,L|212:53,1,77,6|4,1:2|3:0,2:0:0:0:
299,109,128202,1,6,1:2:0:0:
299,109,128602,5,6,3:2:0:0:
292,212,128802,1,2,2:0:0:0:
380,160,129002,1,10,1:2:0:0:
373,263,129202,1,2,2:0:0:0:
280,312,129402,2,0,B|256:316|256:316|240:308|240:308|200:316,1,70,2|2,2:0|3:2,2:0:0:0:
124,216,129802,2,0,B|148:220|148:220|164:212|164:212|191:217,1,70,10|2,1:2|2:0,2:0:0:0:
292,212,130202,5,2,3:2:0:0:
394,184,130402,1,2,2:0:0:0:
393,78,130602,1,10,1:2:0:0:
295,43,130802,1,2,2:0:0:0:
231,126,131002,2,0,L|124:128,1,70,2|2,3:2|3:2,2:0:0:0:
68,88,131402,1,10,1:2:0:0:
68,88,131802,6,0,L|76:172,1,70,2|2,3:2|2:0,2:0:0:0:
144,232,132202,2,0,L|136:316,1,70,10|2,1:2|2:0,2:0:0:0:
216,364,132602,1,2,2:0:0:0:
296,296,132802,1,2,3:2:0:0:
292,272,132902,1,2,2:0:0:0:
288,244,133002,2,0,L|294:174,1,70,10|2,1:2|2:0,2:0:0:0:
244,72,133402,2,0,B|212:64|212:64|152:76,2,70,2|2|10,3:2|2:0|1:2,2:0:0:0:
344,32,134002,5,2,2:0:0:0:
392,136,134202,1,2,3:2:0:0:
392,136,134402,1,2,3:2:0:0:
294,174,134602,2,0,P|228:192|154:166,2,140,10|2|8,1:2|3:2|1:2,2:0:0:0:
392,228,135602,5,2,2:0:0:0:
388,260,135702,1,2,2:0:0:0:
384,296,135802,2,0,L|448:288,2,35,2|2|2,2:0|2:0|3:2,2:0:0:0:
304,360,136202,2,0,L|232:352,1,70,10|2,1:2|2:0,2:0:0:0:
144,296,136602,2,0,P|128:248|144:160,1,140,0|8,3:0|1:2,2:0:0:0:
228,92,137202,1,2,2:0:0:0:
260,100,137302,1,2,2:0:0:0:
292,108,137402,2,0,L|300:168,2,35,2|2|2,3:2|2:0|3:2,2:0:0:0:
380,52,137802,2,0,L|452:44,1,70,10|2,1:2|2:0,2:0:0:0:
484,180,138202,6,0,B|496:204|496:204|360:196,1,140,2|8,3:2|1:2,2:0:0:0:
296,144,138802,1,2,2:0:0:0:
292,108,138902,1,2,2:0:0:0:
288,72,139002,1,2,2:0:0:0:
200,28,139202,1,2,3:2:0:0:
136,100,139402,2,0,P|84:104|60:96,1,70,10|2,1:2|2:0,2:0:0:0:
16,196,139802,5,2,3:2:0:0:
100,264,140002,1,2,2:0:0:0:
136,256,140102,1,2,2:0:0:0:
172,248,140202,2,0,P|224:244|248:252,1,70,10|2,1:2|2:0,2:0:0:0:
314,170,140602,2,0,B|370:166|370:166|394:186,2,70,2|2|10,3:2|3:2|1:2,2:0:0:0:
253,95,141202,1,2,2:0:0:0:
360,59,141402,6,0,P|417:60|471:217,1,245,4|2,2:0|2:0,2:0:0:0:
422,285,142602,1,2,2:0:0:0:
368,356,142802,2,0,L|122:347,1,245,2|2,2:0|2:0,2:0:0:0:
34,346,144002,1,2,2:0:0:0:
34,346,144202,1,2,2:0:0:0:
109,180,144602,6,0,B|68:209|22:183|-8:130|28:64|98:47|141:86|154:142|224:162|290:114,1,392,2|2,2:0|2:0,2:0:0:0:
281,119,146802,2,0,L|386:126,1,97.9999999999999,2|2,2:0|2:0,2:0:0:0:
452,173,147402,1,2,2:0:0:0:
337,327,147802,6,0,B|288:340|288:340|226:319,1,97.9999999999999,2|2,2:0|2:0,2:0:0:0:
152,298,148402,2,0,B|104:326|104:326|38:163|38:163|100:57,1,343,2|2,2:0|2:0,2:0:0:0:
184,68,150002,1,2,2:0:0:0:
256,192,150402,5,2,2:0:0:0:
256,192,150602,1,2,2:0:0:0:
256,192,151002,12,6,153802,2:0:0:0:
384,240,154202,5,6,3:2:0:0:
304,320,154402,2,0,P|260:324|216:312,2,80.5,2|10|2,2:0|1:2|2:0,2:0:0:0:
264,216,155002,2,0,L|260:135,1,80.5,2|2,2:0|3:2,2:0:0:0:
156,92,155402,2,0,L|159:172,1,80.5,10|2,1:2|2:0,2:0:0:0:
60,232,155802,2,0,B|56:160|56:160|44:144|44:144|40:48,1,161,2|10,3:2|1:2,2:0:0:0:
236,36,156602,2,0,P|296:32|324:44,1,80.5,2|0,3:2|3:0,2:0:0:0:
268,136,157002,1,10,1:2:0:0:
148,296,157402,5,0,3:0:0:0:
244,252,157602,2,0,L|332:260,1,80.5,2|10,2:0|1:2,2:0:0:0:
396,176,158002,1,2,2:0:0:0:
328,88,158202,2,0,B|288:76|288:76|244:88,1,80.5,2|2,2:0|3:2,2:0:0:0:
100,164,158602,2,0,B|140:176|140:176|184:164,1,80.5,10|2,1:2|2:0,2:0:0:0:
244,252,159002,2,0,B|248:364|248:364|284:324,1,161,2|10,3:2|1:2,2:0:0:0:
76,300,159802,1,2,3:2:0:0:
76,300,160002,1,2,3:2:0:0:
136,212,160202,2,0,P|140:160|132:128,1,80.5,10|2,1:2|2:0,2:0:0:0:
72,48,160602,5,0,3:0:0:0:
204,64,160802,2,0,B|268:56|268:56|292:28,2,80.5,2|10|2,2:0|1:2|2:0,2:0:0:0:
248,156,161402,2,0,L|348:144,1,80.5,2|2,2:0|3:2,2:0:0:0:
428,92,161802,2,0,L|440:192,1,80.5,10|2,1:2|2:0,2:0:0:0:
376,268,162202,2,0,B|336:284|304:268|304:256|268:236|220:260,1,161,2|10,3:2|1:2,2:0:0:0:
48,148,163002,2,0,L|40:240,1,80.5,2|0,3:2|3:0,2:0:0:0:
32,332,163402,1,10,1:2:0:0:
32,332,163802,6,0,L|124:352,1,80.5,0|2,3:0|2:0,2:0:0:0:
216,340,164202,1,10,1:2:0:0:
164,252,164402,2,0,B|136:175|136:175|168:67,1,161,2|10,2:0|3:0,2:0:0:0:
256,44,165002,1,10,1:3:0:0:
353,99,165202,2,0,B|376:175|376:175|348:252,1,161,10|6,2:3|2:3,2:0:0:0:
256,312,165802,1,12,1:3:0:0:
256,176,166002,1,4,3:0:0:0:
256,176,166202,2,0,L|256:68,2,80.5,6|4|6,1:2|3:0|1:2,2:0:0:0:
151,324,167002,5,6,3:2:0:0:
52,305,167202,1,2,2:0:0:0:
52,305,167402,2,0,P|38:253|59:199,1,80.5,10|2,1:2|2:0,2:0:0:0:
43,128,167802,2,0,P|82:135|114:159,1,80.5,2|2,2:0|3:2,2:0:0:0:
178,236,168202,1,10,1:2:0:0:
256,176,168402,1,2,2:0:0:0:
324,261,168602,2,0,L|501:252,1,161,2|10,3:2|1:2,2:0:0:0:
512,78,169402,2,0,B|472:62|472:62|419:72,1,80.5,2|0,3:2|3:0,2:0:0:0:
343,105,169802,1,10,1:2:0:0:
139,34,170202,5,0,3:0:0:0:
61,109,170402,1,2,2:0:0:0:
61,109,170602,2,0,L|49:217,1,80.5,10|2,1:2|2:0,2:0:0:0:
133,268,171002,2,0,L|143:161,1,80.5,2|2,2:0|3:2,2:0:0:0:
219,136,171402,1,10,1:2:0:0:
298,201,171602,1,2,2:0:0:0:
412,120,171802,2,0,B|459:115|459:115|433:254,1,161,2|10,3:2|1:2,2:0:0:0:
408,320,172402,2,0,P|330:354|249:315,1,161,2|2,2:0|3:2,2:0:0:0:
189,259,173002,1,10,1:2:0:0:
99,328,173202,2,0,B|71:331|41:320|41:320|16:252|42:195,1,161,2|0,2:0|2:0,2:0:0:0:
47,111,173802,6,0,P|90:92|146:106,1,80.5,10|2,1:2|2:0,2:0:0:0:
211,144,174202,1,2,2:0:0:0:
289,84,174402,1,2,3:2:0:0:
356,169,174602,2,0,L|355:278,1,80.5,10|2,1:2|2:0,2:0:0:0:
447,333,175002,2,0,L|449:172,1,161,2|10,3:2|1:2,2:0:0:0:
402,33,175802,2,0,L|482:26,2,80.5,2|0|10,3:2|3:0|1:2,2:0:0:0:
211,59,176602,6,0,B|195:89|195:89|205:149,1,80.5,0|2,3:0|2:0,2:0:0:0:
220,229,177002,1,10,1:2:0:0:
239,324,177202,2,0,B|282:351|282:351|357:342|357:342|391:313,1,161,2|10,2:0|3:0,2:0:0:0:
451,239,177802,1,10,1:3:0:0:
447,143,178002,2,0,P|393:115|296:148,1,161,10|6,2:3|2:3,2:0:0:0:
232,219,178602,1,12,1:3:0:0:
159,291,178802,1,4,3:0:0:0:
81,222,179002,2,0,L|92:136,1,80.5,6|4,1:2|3:0,2:0:0:0:
109,50,179402,1,6,1:2:0:0:
109,50,179802,6,0,L|159:43,2,36.75,6|2|2,3:2|2:0|2:0,2:0:0:0:
200,156,180202,2,0,P|280:176|368:144,1,147,2|0,1:2|2:0,2:0:0:0:
416,88,180802,1,2,3:2:0:0:
508,172,181002,2,0,L|512:224,2,36.75,2|2|2,1:2|2:0|2:0,2:0:0:0:
432,248,181402,2,0,L|428:332,1,73.5,2|0,3:2|2:0,2:0:0:0:
337,234,181802,2,0,L|341:150,1,73.5,2|0,1:2|2:0,2:0:0:0:
264,80,182202,1,2,3:2:0:0:
264,80,182402,1,2,3:2:0:0:
172,180,182602,1,2,1:2:0:0:
172,180,183002,6,0,P|128:180|104:172,2,36.75,2|2|2,3:2|2:0|2:0,2:0:0:0:
232,304,183402,2,0,B|192:324|192:324|76:304,1,147,2|0,1:2|2:0,2:0:0:0:
36,216,184002,1,0,3:0:0:0:
100,96,184202,2,0,P|96:64|84:48,2,36.75,2|2|2,1:2|2:0|2:0,2:0:0:0:
192,160,184602,2,0,P|232:164|264:160,1,73.5,2|0,3:2|2:0,2:0:0:0:
344,96,185002,2,0,P|380:91|416:95,1,73.5,2|2,1:2|2:0,2:0:0:0:
492,160,185402,1,2,3:2:0:0:
492,160,185602,1,2,3:2:0:0:
424,280,185802,1,2,1:2:0:0:
424,280,186202,6,0,L|428:332,2,36.75,2|2|2,3:2|2:0|2:0,2:0:0:0:
312,216,186602,2,0,B|272:204|240:216|248:220|208:236|160:216,1,147,2|0,1:2|2:0,2:0:0:0:
208,120,187202,1,0,3:0:0:0:
84,72,187402,2,0,L|24:80,2,36.75,2|2|2,1:2|2:0|2:0,2:0:0:0:
64,176,187802,2,0,B|52:200|52:200|64:260,1,73.5,2|0,3:2|2:0,2:0:0:0:
164,292,188202,2,0,B|176:268|176:268|164:208,1,73.5,2|2,1:2|2:0,2:0:0:0:
204,116,188602,1,2,3:2:0:0:
208,120,188802,1,2,3:2:0:0:
332,188,189002,1,2,1:2:0:0:
164,292,189402,5,2,3:2:0:0:
236,216,189602,1,2,2:0:0:0:
236,216,189802,1,2,1:2:0:0:
312,292,190002,2,0,B|420:308|420:308|396:244,1,147,2|10,2:0|3:0,2:0:0:0:
468,192,190602,1,10,1:3:0:0:
406,111,190802,2,0,B|420:76|420:76|312:92,1,147,10|6,2:3|2:3,2:0:0:0:
224,32,191402,1,4,1:3:0:0:
144,140,191602,6,0,B|136:196|136:196|160:228,1,73.5,4|6,3:0|1:2,2:0:0:0:
240,324,192002,2,0,B|248:268|248:268|224:236,1,73.5,4|6,3:0|1:2,2:0:0:0:
59,331,192602,6,0,L|142:328,1,70,4|2,2:0|2:0,2:0:0:0:
240,324,193002,2,0,B|347:345|347:345|440:281,1,210,2|0,2:0|2:0,2:0:0:0:
467,194,193802,2,0,L|464:111,1,70,2|2,2:0|2:0,2:0:0:0:
385,55,194202,2,0,L|240:27,2,140,2|2|2,2:0|2:0|2:0,2:0:0:0:
385,55,195802,6,0,L|387:120,1,63.0000000000001,2|2,2:0|2:0,2:0:0:0:
320,183,196202,2,0,B|236:216|224:136|131:166,1,189,2|0,2:0|2:0,2:0:0:0:
58,205,197002,2,0,L|61:273,1,63.0000000000001,2|2,2:0|2:0,2:0:0:0:
110,345,197402,1,2,2:0:0:0:
239,269,197802,1,2,2:0:0:0:
365,348,198202,1,2,2:0:0:0:
365,348,199002,6,0,L|292:342,1,56,2|2,2:0|2:0,2:0:0:0:
239,269,199402,2,0,B|203:234|203:234|231:101,1,168,2|0,2:0|2:0,2:0:0:0:
304,66,200202,2,0,L|370:60,1,56,2|2,2:0|2:0,2:0:0:0:
454,50,200602,2,0,B|470:107|470:107|443:172,2,112,2|2|2,2:0|2:0|2:0,2:0:0:0:
256,192,202202,12,0,205202,2:0:0:0:
