osu file format v14

[General]
AudioFilename: audio.mp3
AudioLeadIn: 0
PreviewTime: 48246
Countdown: 0
SampleSet: Soft
StackLeniency: 0.7
Mode: 0
LetterboxInBreaks: 0
WidescreenStoryboard: 0

[Editor]
DistanceSpacing: 2.3
BeatDivisor: 4
GridSize: 4
TimelineZoom: 1.600003

[Metadata]
Title:Heart Shaker
TitleUnicode:Heart Shaker
Artist:TWICE
ArtistUnicode:트와이스
Creator:iYiyo
Version:Hazulade's Hard Shaker~
Source:
Tags:hazu- cosmolade pkhg kpop k-pop jyp entertainment japan korea once christmas xmas Merry & Happy sana jihyo dahyun nayeon jeongyeon chaeyoung momo mina tzuyu 나연 정연 모모 사나 지효 미나 다현 채영 쯔위
BeatmapID:1498977
BeatmapSetID:705597

[Difficulty]
HPDrainRate:5
CircleSize:4
OverallDifficulty:6
ApproachRate:7.5
SliderMultiplier:1.4
SliderTickRate:1

[Events]
//Background and Video events
0,0,"twice_xmas.png",0,0
Video,0,"TWICE 'Heart Shaker' MV.avi"
//Break Periods
2,125441,130485
//Storyboard Layer 0 (Background)
//Storyboard Layer 1 (Fail)
//Storyboard Layer 2 (Pass)
//Storyboard Layer 3 (Foreground)
//Storyboard Sound Samples

[TimingPoints]
1646,480,4,2,0,60,1,0
2515,365.853658536585,4,2,1,60,1,0
49344,-90.9090909090909,4,2,1,70,0,1
74222,-100,4,2,1,50,0,0
100563,-90.9090909090909,4,2,1,70,0,1
125441,-200,4,2,1,40,0,0
131295,-200,4,2,1,40,0,0
137057,-200,4,2,1,5,0,0
138612,-100,4,2,1,60,0,0
148856,-333.333333333333,4,1,1,60,0,0
150319,-83.3333333333333,4,2,1,70,0,1
173734,-83.3333333333333,4,2,1,70,0,0
185533,-83.3333333333333,4,2,1,5,0,0

[Colours]
Combo1 : 248,199,52
Combo2 : 0,221,111
Combo3 : 255,51,51
Combo4 : 72,164,255
Combo5 : 232,232,232

[HitObjects]
80,116,1646,70,0,P|76:72|72:44,2,70,2|2|2,0:0|0:0|0:0,0:0:0:0:
168,252,2515,6,0,P|220:276|304:248,1,140,6|0,0:0|0:0,0:0:0:0:
348,196,3063,2,0,P|340:324|340:352,1,140,2|0,0:0|0:0,0:0:0:0:
416,348,3612,2,0,L|420:256,1,70,2|0,0:0|0:0,0:0:0:0:
460,188,3978,6,0,P|456:132|452:40,1,140,2|0,0:0|0:0,0:0:0:0:
376,36,4527,2,0,B|308:16|308:68|228:40,1,140,2|0,0:0|0:0,0:0:0:0:
164,24,5075,2,0,P|168:56|172:124,1,70,4|4,3:0|3:0,0:0:0:0:
108,172,5441,6,0,P|112:204|116:272,2,70,2|0|0,0:0|0:0|0:0,0:0:0:0:
48,124,5990,1,2,0:0:0:0:
8,188,6173,2,0,P|16:264|24:352,1,140,0|2,0:0|0:0,0:0:0:0:
80,376,6722,1,0,0:0:0:0:
152,312,6905,6,0,P|204:312|240:320,1,70,2|0,0:0|0:0,0:0:0:0:
304,340,7271,2,0,P|338:344|373:343,1,70,0|2,0:0|0:0,0:0:0:0:
448,380,7636,2,0,P|420:328|440:240,1,140,0|2,0:0|0:0,0:0:0:0:
312,156,8368,22,0,P|316:184|320:244,1,70,10|0,0:0|0:0,0:0:0:0:
284,296,8734,1,0,0:0:0:0:
284,296,8917,1,10,0:0:0:0:
212,272,9101,2,0,P|184:272|140:276,1,70
68,296,9466,2,0,P|72:264|76:220,1,70,10|0,0:0|0:0,0:0:0:0:
36,136,9832,6,0,P|40:101|43:66,1,70,10|0,0:0|0:0,0:0:0:0:
112,32,10197,1,0,0:0:0:0:
112,32,10380,1,10,0:0:0:0:
176,76,10563,2,0,P|210:79|245:79,1,70
320,60,10929,2,0,P|354:60|389:63,1,70,10|0,0:0|0:0,0:0:0:0:
484,36,11295,6,0,L|480:84,3,35,2|2|2|2,0:0|0:0|0:0|0:0,0:0:0:0:
488,108,11661,2,0,L|484:156,3,35,10|2|2|2,0:0|0:0|0:0|0:0,0:0:0:0:
492,180,12027,2,0,L|488:228,3,35,2|2|2|2,0:0|0:0|0:0|0:0,0:0:0:0:
496,252,12393,2,0,L|492:300,3,35,10|2|2|2,0:0|0:0|0:0|0:0,0:0:0:0:
500,324,12758,1,2,0:0:0:0:
500,324,14222,6,0,P|460:320|404:316,1,70,2|0,0:0|0:0,0:0:0:0:
356,336,14588,2,0,P|316:332|260:328,1,70,8|2,0:0|0:0,0:0:0:0:
212,356,14954,2,0,P|184:300|216:220,1,140,0|8,0:0|0:0,0:0:0:0:
284,168,15502,22,0,P|316:164|376:160,1,70,0|2,0:0|0:0,0:0:0:0:
408,108,15868,1,0,0:0:0:0:
344,64,16051,2,0,P|309:66|274:71,1,70,8|2,0:0|0:0,0:0:0:0:
196,84,16417,1,0,0:0:0:0:
128,44,16600,1,2,0:0:0:0:
68,92,16783,2,0,P|72:116|76:176,1,70,8|0,0:0|0:0,0:0:0:0:
136,240,17149,6,0,P|132:264|128:324,2,70,2|0|8,0:0|0:0|0:0,0:0:0:0:
196,188,17697,1,2,0:0:0:0:
248,244,17880,2,0,P|312:264|392:216,1,140,0|8,0:0|0:0,0:0:0:0:
456,176,18429,6,0,P|460:216|468:268,1,70,0|2,0:0|0:0,0:0:0:0:
496,316,18795,1,0,0:0:0:0:
428,352,18978,2,0,P|392:348|332:344,1,70,8|2,0:0|0:0,0:0:0:0:
284,320,19344,1,0,0:0:0:0:
224,368,19527,1,2,0:0:0:0:
152,340,19710,2,0,L|156:248,1,70,8|0,0:0|0:0,0:0:0:0:
84,204,20075,6,0,P|88:144|92:60,1,140,2|8,0:0|0:0,0:0:0:0:
164,40,20624,2,0,P|232:24|312:64,1,140,2|2,0:0|0:0,0:0:0:0:
360,88,21173,2,0,P|392:92|432:88,1,70,8|2,0:0|0:0,0:0:0:0:
512,32,21539,22,0,P|504:84|500:192,1,140,2|8,0:0|0:0,0:0:0:0:
452,232,22088,2,0,P|380:212|316:240,1,140,2|2,0:0|0:0,0:0:0:0:
260,280,22636,1,8,0:0:0:0:
260,280,22819,1,0,0:0:0:0:
216,192,23002,6,0,P|220:144|224:104,1,70,2|0,0:0|0:0,0:0:0:0:
188,52,23368,1,8,0:0:0:0:
124,96,23551,2,0,P|80:100|52:100,2,70,2|0|0,0:0|0:0|0:0,0:0:0:0:
222,122,24100,6,0,P|270:114|310:110,1,70,8|0,0:0|0:0,0:0:0:0:
368,112,24466,1,2,0:0:0:0:
432,72,24649,1,0,0:0:0:0:
484,132,24832,2,0,B|492:176|492:176|479:270,1,140,8|0,0:0|0:0,0:0:0:0:
432,332,25380,1,8,0:0:0:0:
364,300,25563,2,0,P|332:304|288:308,1,70,8|8,0:0|0:0,0:0:0:0:
220,240,25929,6,0,P|164:212|84:240,1,140,6|8,0:0|0:0,0:0:0:0:
40,288,26478,2,0,P|46:218|49:148,1,140,2|2,0:0|0:0,0:0:0:0:
88,80,27027,1,8,0:0:0:0:
88,80,27210,1,0,0:0:0:0:
180,112,27393,22,0,P|224:112|264:104,1,70,2|0,0:0|0:0,0:0:0:0:
312,64,27758,1,8,0:0:0:0:
364,120,27941,2,0,P|360:184|360:276,1,140,2|2,0:0|0:0,0:0:0:0:
388,332,28490,1,8,0:0:0:0:
464,340,28673,1,0,0:0:0:0:
492,244,28856,6,0,P|492:224|496:164,1,70,2|0,0:0|0:0,0:0:0:0:
464,104,29222,1,8,0:0:0:0:
396,136,29405,2,0,B|328:156|328:112|252:132,1,140,2|2,0:0|0:0,0:0:0:0:
188,160,29954,1,8,0:0:0:0:
188,160,30136,1,2,0:0:0:0:
108,100,30319,6,0,P|112:60|116:8,1,70,2|0,0:0|0:0,0:0:0:0:
36,20,30685,1,8,0:0:0:0:
8,92,30868,2,0,P|12:144|20:240,1,140,2|2,0:0|0:0,0:0:0:0:
92,252,31417,2,0,P|88:296|84:348,1,70,8|0,0:0|0:0,0:0:0:0:
164,380,31783,6,0,P|196:344|304:348,1,140,2|8,0:0|0:0,0:0:0:0:
356,364,32332,2,0,B|424:380|424:335|492:356,1,140,2|2,0:0|0:0,0:0:0:0:
508,280,32880,2,0,P|508:244|500:188,1,70,8|2,0:0|0:0,0:0:0:0:
416,168,33246,22,0,B|348:144|348:196|264:168,1,140,2|8,0:0|0:0,0:0:0:0:
224,116,33795,2,0,P|228:164|232:272,1,140,2|2,0:0|0:0,0:0:0:0:
188,320,34344,1,8,0:0:0:0:
188,320,34527,1,2,0:0:0:0:
132,240,34710,6,0,P|132:196|136:156,1,70,2|2,0:0|0:0,0:0:0:0:
108,100,35075,1,10,0:0:0:0:
108,100,35258,1,2,0:0:0:0:
40,136,35441,2,0,P|37:170|37:205,1,70,2|2,0:0|0:0,0:0:0:0:
4,276,35807,2,0,P|3:310|5:345,1,70,10|2,0:0|0:0,0:0:0:0:
104,364,36173,6,0,L|148:360,3,35,2|2|2|2,0:0|0:0|0:0|0:0,0:0:0:0:
176,368,36539,2,0,L|220:364,3,35,10|2|2|2,0:0|0:0|0:0|0:0,0:0:0:0:
248,372,36905,2,0,L|292:368,3,35,2|2|2|2,0:0|0:0|0:0|0:0,0:0:0:0:
320,376,37271,2,0,L|364:372,3,35,10|2|2|2,0:0|0:0|0:0|0:0,0:0:0:0:
392,380,37636,5,6,0:0:0:0:
488,260,38002,1,2,0:0:0:0:
328,252,38368,1,8,0:0:0:0:
328,252,39100,21,2,0:0:0:0:
264,112,39466,1,2,0:0:0:0:
116,68,39832,1,8,0:0:0:0:
116,68,40563,5,2,0:0:0:0:
8,176,40929,1,2,0:0:0:0:
132,264,41295,2,0,P|212:256|300:252,1,140,8|0,0:0|0:0,0:0:0:0:
368,228,41844,6,0,P|408:232|456:236,1,70,0|2,0:0|0:0,0:0:0:0:
456,160,42210,2,0,P|421:156|386:153,1,70,0|2,0:0|0:0,0:0:0:0:
332,100,42575,1,0,0:0:0:0:
268,144,42758,1,8,0:0:0:0:
268,144,42941,2,0,P|272:168|276:224,2,70,0|0|0,0:0|0:0|0:0,0:0:0:0:
196,76,43490,6,0,P|156:72|112:72,1,70,2|0,0:0|0:0,0:0:0:0:
48,84,43856,2,0,P|52:116|56:160,1,70,2|0,0:0|0:0,0:0:0:0:
28,228,44222,1,8,0:0:0:0:
28,228,44405,2,0,P|32:260|40:376,1,140,0|0,0:0|0:0,0:0:0:0:
124,316,44954,22,0,P|168:312|208:316,1,70,2|0,0:0|0:0,0:0:0:0:
268,332,45319,2,0,P|302:333|337:329,1,70,2|0,0:0|0:0,0:0:0:0:
416,344,45685,2,0,B|408:300|408:300|416:200,1,140,8|0,0:0|0:0,0:0:0:0:
344,68,46417,5,2,0:0:0:0:
344,68,46600,2,0,P|312:64|264:68,1,70,0|2,0:0|0:0,0:0:0:0:
204,40,46966,1,0,0:0:0:0:
160,104,47149,2,0,P|168:144|172:192,1,70,8|2,0:0|0:0,0:0:0:0:
96,196,47514,2,0,P|91:161|84:126,1,70,0|0,0:0|0:0,0:0:0:0:
64,52,47880,1,2,0:0:0:0:
64,52,49344,6,0,P|76:120|84:208,1,154.000004699707,6|8,0:0|0:0,0:0:0:0:
128,276,49893,1,2,0:0:0:0:
204,240,50075,2,0,P|248:236|296:240,1,77.0000023498536,0|2,0:0|0:0,0:0:0:0:
356,200,50441,1,8,0:0:0:0:
412,292,50624,6,0,P|408:324|404:388,1,77.0000023498536,0|2,0:0|0:0,0:0:0:0:
488,380,50990,1,0,0:0:0:0:
488,380,51173,2,0,P|490:341|495:303,1,77.0000023498536,8|2,0:0|0:0,0:0:0:0:
480,220,51539,2,0,P|482:181|487:143,1,77.0000023498536,0|2,0:0|0:0,0:0:0:0:
448,68,51905,1,8,0:0:0:0:
448,68,52088,1,0,0:0:0:0:
360,128,52271,22,0,P|304:136|224:72,1,154.000004699707,2|8,0:0|0:0,0:0:0:0:
152,44,52819,2,0,P|156:76|160:136,1,77.0000023498536,2|0,0:0|0:0,0:0:0:0:
132,200,53185,1,2,0:0:0:0:
52,172,53368,1,8,0:0:0:0:
12,272,53551,6,0,P|16:304|20:364,1,77.0000023498536,0|2,0:0|0:0,0:0:0:0:
100,372,53917,1,0,0:0:0:0:
100,372,54100,2,0,P|176:364|272:360,1,154.000004699707,8|2,0:0|0:0,0:0:0:0:
324,312,54649,1,2,0:0:0:0:
256,260,54832,2,0,P|224:264|152:268,1,77.0000023498536,10|2,0:0|0:0,0:0:0:0:
108,188,55197,6,0,P|76:132|112:36,1,154.000004699707,6|8,0:0|0:0,0:0:0:0:
180,24,55746,2,0,P|240:28|340:40,1,154.000004699707,2|2,0:0|0:0,0:0:0:0:
388,104,56295,2,0,P|384:128|380:192,1,77.0000023498536,8|0,0:0|0:0,0:0:0:0:
272,184,56661,5,2,0:0:0:0:
196,144,56844,1,0,0:0:0:0:
132,200,57027,2,0,P|136:236|140:304,1,77.0000023498536,8|2,0:0|0:0,0:0:0:0:
108,356,57393,1,2,0:0:0:0:
24,356,57575,1,2,0:0:0:0:
0,276,57758,2,0,P|2:237|6:199,1,77.0000023498536,10|2,0:0|0:0,0:0:0:0:
20,92,58124,22,0,P|72:44|160:56,1,154.000004699707,4|8,0:0|0:0,0:0:0:0:
232,80,58673,2,0,B|285:74|285:74|323:90|323:90|382:83,1,154.000004699707,2|2,0:0|0:0,0:0:0:0:
456,128,59222,1,8,0:0:0:0:
456,128,59405,1,0,0:0:0:0:
368,192,59588,6,0,P|340:196|280:204,1,77.0000023498536,2|0,0:0|0:0,0:0:0:0:
208,184,59954,2,0,B|200:228|200:228|224:340,1,154.000004699707,8|0,0:0|0:0,0:0:0:0:
304,360,60502,1,2,0:0:0:0:
372,312,60685,2,0,P|404:308|452:304,1,77.0000023498536,8|0,0:0|0:0,0:0:0:0:
480,200,61051,6,0,P|444:152|344:144,1,154.000004699707,6|8,0:0|0:0,0:0:0:0:
276,164,61600,1,2,0:0:0:0:
200,196,61783,2,0,P|161:197|123:193,1,77.0000023498536,0|2,0:0|0:0,0:0:0:0:
56,244,62148,1,8,0:0:0:0:
0,152,62331,6,0,P|2:113|7:75,1,77.0000023498536,0|2,0:0|0:0,0:0:0:0:
76,24,62697,1,0,0:0:0:0:
76,24,62880,2,0,P|116:20|156:20,1,77.0000023498536,8|2,0:0|0:0,0:0:0:0:
232,56,63246,2,0,P|270:59|308:60,1,77.0000023498536,0|2,0:0|0:0,0:0:0:0:
388,32,63612,1,8,0:0:0:0:
388,32,63795,1,0,0:0:0:0:
432,128,63978,22,0,P|428:156|424:216,1,77.0000023498536,2|0,0:0|0:0,0:0:0:0:
372,272,64344,1,8,0:0:0:0:
372,272,64527,2,0,P|376:304|380:364,1,77.0000023498536,2|0,0:0|0:0,0:0:0:0:
296,372,64893,2,0,P|293:333|288:295,1,77.0000023498536,2|8,0:0|0:0,0:0:0:0:
224,208,65258,6,0,P|226:169|231:131,1,77.0000023498536,0|2,0:0|0:0,0:0:0:0:
184,60,65624,1,0,0:0:0:0:
184,60,65807,2,0,P|152:56|104:56,1,77.0000023498536,8|2,0:0|0:0,0:0:0:0:
28,28,66173,1,2,0:0:0:0:
28,28,66356,1,2,0:0:0:0:
0,108,66539,2,0,P|4:140|8:200,1,77.0000023498536,10|2,0:0|0:0,0:0:0:0:
44,284,66905,6,0,P|108:240|192:248,1,154.000004699707,4|8,0:0|0:0,0:0:0:0:
260,276,67454,1,2,0:0:0:0:
316,212,67636,2,0,P|312:172|308:116,1,77.0000023498536,0|2,0:0|0:0,0:0:0:0:
392,112,68002,2,0,P|394:150|398:188,1,77.0000023498536,8|0,0:0|0:0,0:0:0:0:
464,276,68368,6,0,P|461:314|457:352,1,77.0000023498536,2|0,0:0|0:0,0:0:0:0:
376,376,68734,1,8,0:0:0:0:
376,376,68917,1,2,0:0:0:0:
296,344,69100,2,0,P|256:340|208:340,1,77.0000023498536,2|2,0:0|0:0,0:0:0:0:
140,308,69466,1,10,0:0:0:0:
64,344,69649,1,2,0:0:0:0:
20,248,69831,22,0,P|4:176|40:100,1,154.000004699707,4|8,0:0|0:0,0:0:0:0:
100,52,70380,2,0,B|144:44|144:44|256:48,1,154.000004699707,2|2,0:0|0:0,0:0:0:0:
332,16,70929,1,8,0:0:0:0:
332,16,71112,1,0,0:0:0:0:
364,120,71295,6,0,P|356:176|348:280,1,154.000004699707,2|8,0:0|0:0,0:0:0:0:
432,272,71844,2,0,P|437:195|447:118,1,154.000004699707,2|2,0:0|0:0,0:0:0:0:
436,36,72393,2,0,P|404:28|348:24,1,77.0000023498536,8|0,0:0|0:0,0:0:0:0:
276,40,72758,1,2,0:0:0:0:
276,40,74222,6,0,P|280:80|288:192,1,140,2|2,0:0|0:0,0:0:0:0:
172,280,74954,2,0,P|167:210|160:140,1,140,4|8,3:0|0:0,0:0:0:0:
304,80,75685,1,8,0:0:0:0:
264,228,76051,1,8,0:0:0:0:
184,32,76417,1,12,0:0:0:0:
184,32,77149,6,0,P|148:36|88:40,1,70,2|0,0:0|0:0,0:0:0:0:
36,36,77514,2,0,P|40:64|44:128,1,70,8|2,0:0|0:0,0:0:0:0:
84,172,77881,2,0,P|76:228|72:328,1,140,0|8,0:0|0:0,0:0:0:0:
152,368,78429,22,0,P|184:364|244:360,1,70,0|2,0:0|0:0,0:0:0:0:
296,336,78795,1,0,0:0:0:0:
368,312,78978,2,0,P|400:308|460:304,1,70,8|2,0:0|0:0,0:0:0:0:
496,252,79344,1,0,0:0:0:0:
492,176,79527,1,2,0:0:0:0:
432,128,79710,2,0,P|397:130|362:135,1,70,8|0,0:0|0:0,0:0:0:0:
268,104,80076,6,0,P|272:128|276:196,2,70,2|0|8,0:0|0:0|0:0,0:0:0:0:
216,48,80624,1,2,0:0:0:0:
164,104,80807,2,0,P|132:108|88:108,1,70,0|2,0:0|0:0,0:0:0:0:
24,72,81173,1,8,0:0:0:0:
4,168,81356,6,0,P|8:188|16:260,1,70,0|2,0:0|0:0,0:0:0:0:
60,300,81722,1,0,0:0:0:0:
126,254,81905,2,0,P|156:248|222:246,1,70,8|2,0:0|0:0,0:0:0:0:
264,280,82271,1,0,0:0:0:0:
324,236,82454,1,2,0:0:0:0:
384,284,82637,2,0,P|408:280|453:273,1,70,8|0,0:0|0:0,0:0:0:0:
492,184,83002,6,0,P|500:120|464:52,1,140,2|8,0:0|0:0,0:0:0:0:
392,28,83551,2,0,B|340:24|340:24|299:37|299:37|251:34,1,140,2|2,0:0|0:0,0:0:0:0:
176,20,84100,2,0,P|180:48|184:100,1,70,8|0,0:0|0:0,0:0:0:0:
252,160,84466,22,0,P|244:212|240:320,1,140,2|8,0:0|0:0,0:0:0:0:
276,368,85014,2,0,P|240:332|152:324,1,140,2|2,0:0|0:0,0:0:0:0:
80,308,85563,1,8,0:0:0:0:
12,348,85746,1,2,0:0:0:0:
0,252,85929,6,0,P|4:220|8:180,1,70,2|0,0:0|0:0,0:0:0:0:
80,156,86294,1,8,0:0:0:0:
80,156,86477,1,2,0:0:0:0:
144,200,86661,2,0,P|180:204|232:204,1,70,0|2,0:0|0:0,0:0:0:0:
272,256,87027,2,0,P|308:252|360:252,1,70,8|2,0:0|0:0,0:0:0:0:
432,288,87392,6,0,L|428:240,3,35,2|0|2|0,0:0|0:0|0:0|0:0,0:0:0:0:
440,216,87758,2,0,L|436:168,3,35,8|0|2|2,0:0|0:0|0:0|0:0,0:0:0:0:
452,144,88125,2,0,L|448:96,3,35,2|0|2|2,0:0|0:0|0:0|0:0,0:0:0:0:
460,72,88491,2,0,L|456:24,3,35,10|0|2|0,0:0|0:0|0:0|0:0,0:0:0:0:
472,4,88855,5,4,0:0:0:0:
340,88,89221,1,2,0:0:0:0:
196,36,89587,1,8,0:0:0:0:
196,36,90319,21,2,0:0:0:0:
124,172,90685,1,2,0:0:0:0:
276,160,91051,1,8,0:0:0:0:
276,160,91782,5,2,0:0:0:0:
140,92,92148,1,2,0:0:0:0:
60,224,92514,2,0,P|64:272|68:372,1,140,8|0,0:0|0:0,0:0:0:0:
156,316,93063,6,0,P|200:312|248:320,1,70,0|2,0:0|0:0,0:0:0:0:
296,284,93429,2,0,P|330:286|365:282,1,70,0|2,0:0|0:0,0:0:0:0:
432,244,93794,1,0,0:0:0:0:
504,272,93977,1,8,0:0:0:0:
504,272,94161,2,0,P|508:316|512:352,2,70
476,176,94710,6,0,P|479:141|482:106,1,70,2|0,0:0|0:0,0:0:0:0:
424,60,95075,2,0,P|388:56|336:60,1,70,2|0,0:0|0:0,0:0:0:0:
280,36,95441,1,8,0:0:0:0:
280,36,95624,2,0,P|284:68|292:184,1,140,0|0,0:0|0:0,0:0:0:0:
216,240,96173,22,0,P|184:236|132:232,1,70,2|0,0:0|0:0,0:0:0:0:
68,220,96539,2,0,P|72:244|76:300,1,70,2|0,0:0|0:0,0:0:0:0:
108,360,96905,2,0,P|168:328|248:348,1,140,8|0,0:0|0:0,0:0:0:0:
384,380,97636,5,2,0:0:0:0:
384,380,97819,2,0,P|380:344|376:288,1,70,0|2,0:0|0:0,0:0:0:0:
404,236,98185,1,0,0:0:0:0:
432,164,98368,2,0,P|428:128|424:72,1,70,8|2,0:0|0:0,0:0:0:0:
360,52,98734,2,0,P|332:44|280:40,1,70,0|0,0:0|0:0,0:0:0:0:
216,52,99099,1,2,0:0:0:0:
216,52,100563,6,0,L|204:220,1,154.000004699707,6|8,0:0|0:0,0:0:0:0:
252,276,101112,1,2,0:0:0:0:
312,216,101295,1,0,0:0:0:0:
312,216,101478,2,0,P|352:216|396:228,1,77.0000023498536,2|8,0:0|0:0,0:0:0:0:
492,284,101844,6,0,P|472:224|488:128,1,154.000004699707,0|0,0:0|0:0,0:0:0:0:
468,52,102393,2,0,L|368:52,1,77.0000023498536,8|2,0:0|0:0,0:0:0:0:
320,100,102758,2,0,L|220:100,1,77.0000023498536,0|2,0:0|0:0,0:0:0:0:
176,152,103124,1,8,0:0:0:0:
108,204,103307,1,0,0:0:0:0:
144,312,103490,22,0,P|176:296|212:244,1,77.0000023498536,2|0,0:0|0:0,0:0:0:0:
256,200,103856,1,8,0:0:0:0:
309,265,104039,2,0,P|333:294|368:312,1,77.0000023498536,2|0,0:0|0:0,0:0:0:0:
452,296,104405,2,0,P|466:260|467:222,1,77.0000023498536,2|8,0:0|0:0,0:0:0:0:
404,164,104771,2,0,P|365:166|331:182,1,77.0000023498536,0|2,0:0|0:0,0:0:0:0:
256,224,105136,1,0,0:0:0:0:
184,272,105319,6,0,L|76:268,1,77.0000023498536,8|2,0:0|0:0,0:0:0:0:
35,186,105685,2,0,L|111:183,1,77.0000023498536,2|2,0:0|0:0,0:0:0:0:
183,135,106051,1,10,0:0:0:0:
248,80,106234,1,2,0:0:0:0:
336,136,106417,6,0,P|332:212|312:288,1,154.000004699707,4|8,0:0|0:0,0:0:0:0:
207,287,106966,2,0,P|187:212|183:135,1,154.000004699707,2|2,0:0|0:0,0:0:0:0:
232,68,107514,2,0,L|316:60,1,77.0000023498536,8|0,0:0|0:0,0:0:0:0:
412,72,107880,6,0,P|416:124|404:160,1,77.0000023498536,2|0,0:0|0:0,0:0:0:0:
340,200,108246,2,0,P|334:237|342:275,1,77.0000023498536,8|2,0:0|0:0,0:0:0:0:
412,324,108612,2,0,L|252:308,1,154.000004699707,2|10,0:0|0:0,0:0:0:0:
204,244,109161,1,2,0:0:0:0:
144,160,109344,22,0,B|136:124|156:100|156:100|200:76|212:28,1,154.000004699707,4|8,0:0|0:0,0:0:0:0:
300,31,109893,2,0,B|312:76|356:100|356:100|376:124|368:160,1,154.000004699707,2|2,0:0|0:0,0:0:0:0:
308,220,110441,2,0,P|262:225|223:247,1,77.0000023498536,8|0,0:0|0:0,0:0:0:0:
127,308,110807,6,0,L|151:156,1,154.000004699707,2|8,0:0|0:0,0:0:0:0:
216,100,111356,1,2,0:0:0:0:
296,68,111539,2,0,P|340:60|376:72,1,77.0000023498536,0|2,0:0|0:0,0:0:0:0:
408,148,111905,2,0,P|372:156|332:145,1,77.0000023498536,8|0,0:0|0:0,0:0:0:0:
456,76,112271,6,0,P|492:148|456:220,1,154.000004699707,6|8,0:0|0:0,0:0:0:0:
396,260,112819,1,2,0:0:0:0:
324,304,113002,1,0,0:0:0:0:
324,304,113185,2,0,L|232:304,1,77.0000023498536,2|8,0:0|0:0,0:0:0:0:
172,236,113551,6,0,B|140:168|140:168|176:80,1,154.000004699707,0|0,0:0|0:0,0:0:0:0:
244,52,114100,2,0,L|336:44,1,77.0000023498536,8|2,0:0|0:0,0:0:0:0:
360,120,114466,2,0,L|452:132,1,77.0000023498536,0|2,0:0|0:0,0:0:0:0:
488,196,114832,1,8,0:0:0:0:
452,272,115014,1,0,0:0:0:0:
356,328,115197,22,0,L|300:256,1,77.0000023498536,2|0,0:0|0:0,0:0:0:0:
256,336,115563,1,8,0:0:0:0:
203,267,115746,2,0,L|156:328,1,77.0000023498536,2|0,0:0|0:0,0:0:0:0:
104,260,116112,2,0,L|56:320,1,77.0000023498536,2|8,0:0|0:0,0:0:0:0:
40,204,116478,6,0,B|88:144|88:144|40:76,1,154.000004699707,0|0,0:0|0:0,0:0:0:0:
108,24,117027,2,0,P|148:32|192:56,1,77.0000023498536,8|2,0:0|0:0,0:0:0:0:
256,8,117393,2,0,P|280:40|300:88,1,77.0000023498536,2|0,0:0|0:0,0:0:0:0:
316,156,117758,1,10,0:0:0:0:
252,212,117941,1,2,0:0:0:0:
150,168,118124,6,0,B|116:120|132:76|132:76|192:40,1,154.000004699707,4|8,0:0|0:0,0:0:0:0:
264,28,118673,1,2,0:0:0:0:
348,44,118856,2,0,L|416:84,1,77.0000023498536,0|2,0:0|0:0,0:0:0:0:
388,164,119222,2,0,L|456:204,1,77.0000023498536,8|0,0:0|0:0,0:0:0:0:
420,304,119588,6,0,P|380:312|344:304,1,77.0000023498536,2|0,0:0|0:0,0:0:0:0:
293,236,119954,2,0,P|255:228|218:236,1,77.0000023498536,8|2,0:0|0:0,0:0:0:0:
168,305,120319,2,0,P|130:312|93:304,1,77.0000023498536,2|2,0:0|0:0,0:0:0:0:
24,256,120685,2,0,L|8:296,2,38.5000011749268,10|2|2,0:0|0:0|0:0,0:0:0:0:
76,148,121051,22,0,P|116:136|236:148,1,154.000004699707,4|8,0:0|0:0,0:0:0:0:
284,208,121600,2,0,L|272:296,1,77.0000023498536,2|0,0:0|0:0,0:0:0:0:
352,316,121966,1,2,0:0:0:0:
352,316,122149,2,0,L|362:239,1,77.0000023498536,8|0,0:0|0:0,0:0:0:0:
436,176,122514,6,0,B|436:124|436:124|420:88|420:88|432:16,1,154.000004699707,2|8,0:0|0:0,0:0:0:0:
344,20,123063,1,2,0:0:0:0:
260,12,123246,2,0,L|164:24,1,77.0000023498536,0|2,0:0|0:0,0:0:0:0:
120,100,123612,2,0,L|204:112,1,77.0000023498536,8|0,0:0|0:0,0:0:0:0:
256,180,123978,1,2,0:0:0:0:
224,56,131295,6,0,L|154:63,1,70,0|0,0:0|0:0,0:0:0:0:
288,152,132027,2,0,L|357:159,1,70,0|0,0:0|0:0,0:0:0:0:
404,224,132575,1,0,0:0:0:0:
352,304,132758,6,0,P|300:308|276:312,1,70
220,256,133307,2,0,P|185:260|150:262,1,70
56,128,134039,1,0,0:0:0:0:
116,72,134222,22,0,P|140:70|192:80,1,70
252,116,134771,1,0,0:0:0:0:
276,276,135136,1,0,0:0:0:0:
124,324,135502,1,0,0:0:0:0:
56,284,135685,2,0,L|48:200,1,70,0|0,0:0|0:0,0:0:0:0:
168,108,136417,2,0,L|161:177,1,70,0|0,0:0|0:0,0:0:0:0:
216,236,136966,6,0,P|316:220|272:196,1,280,0|0,0:0|0:0,0:0:0:0:
161,177,138612,5,2,0:0:0:0:
161,177,138978,1,2,0:0:0:0:
280,80,139344,2,0,P|372:72|428:88,1,140,10|2,0:0|0:0,0:0:0:0:
456,232,140075,5,2,0:0:0:0:
404,288,140258,2,0,P|356:308|316:308,1,70,0|2,0:0|0:0,0:0:0:0:
300,376,140624,1,0,0:0:0:0:
300,376,140807,2,0,P|248:344|224:260,1,140,8|0,0:0|0:0,0:0:0:0:
351,177,141539,21,2,0:0:0:0:
351,177,141905,1,2,0:0:0:0:
232,80,142271,2,0,P|140:72|84:88,1,140,10|2,0:0|0:0,0:0:0:0:
56,232,143002,5,2,0:0:0:0:
108,288,143185,2,0,P|156:308|196:308,1,70,0|2,0:0|0:0,0:0:0:0:
212,376,143551,1,0,0:0:0:0:
212,376,143734,2,0,P|264:344|288:260,1,140,8|0,0:0|0:0,0:0:0:0:
224,131,144466,6,0,L|388:119,1,140,2|2,0:0|0:0,0:0:0:0:
246,20,145197,2,0,L|106:9,1,140,10|2,0:0|0:0,0:0:0:0:
34,145,145929,1,2,0:0:0:0:
68,213,146112,2,0,L|164:221,1,70,2|2,0:0|0:0,0:0:0:0:
197,169,146478,1,2,0:0:0:0:
197,169,146661,2,0,L|266:163,1,70,10|2,0:0|0:0,0:0:0:0:
352,208,147027,6,0,P|364:240|356:296,1,70,2|2,0:0|0:0,0:0:0:0:
324,344,147393,2,0,L|276:360,3,35,2|2|2|2,0:0|0:0|0:0|0:0,0:0:0:0:
256,340,147758,2,0,L|200:360,3,35,10|2|2|2,0:0|0:0|0:0|0:0,0:0:0:0:
184,340,148124,2,0,L|100:372,1,70,10|2,0:0|0:0,0:0:0:0:
48,308,148490,2,0,L|128:276,1,70,10|2,0:0|0:0,0:0:0:0:
152,208,148856,1,2,0:0:0:0:
152,208,150319,22,0,P|192:144|168:60,1,167.999994873047,6|8,0:0|0:0,0:0:0:0:
84,48,150868,1,2,0:0:0:0:
28,112,151051,1,0,0:0:0:0:
28,112,151234,2,0,L|32:208,1,83.9999974365235,2|8,0:0|0:0,0:0:0:0:
96,276,151600,6,0,B|136:292|176:280|176:280|220:264|264:284,1,167.999994873047,0|0,0:0|0:0,0:0:0:0:
344,292,152149,2,0,L|336:200,1,83.9999974365235,8|2,0:0|0:0,0:0:0:0:
420,188,152514,2,0,L|420:104,1,83.9999974365235,0|2,0:0|0:0,0:0:0:0:
344,64,152880,1,8,0:0:0:0:
264,36,153063,1,0,0:0:0:0:
176,100,153246,6,0,L|180:276,1,167.999994873047,2|8,0:0|0:0,0:0:0:0:
248,316,153795,2,0,P|292:316|336:284,1,83.9999974365235,2|0,0:0|0:0,0:0:0:0:
408,272,154161,2,0,P|387:235|344:212,1,83.9999974365235,2|8,0:0|0:0,0:0:0:0:
368,132,154527,2,0,P|291:160|275:240,1,167.999994873047,0|0,0:0|0:0,0:0:0:0:
209,290,155075,6,0,L|121:286,1,83.9999974365235,8|2,0:0|0:0,0:0:0:0:
86,211,155441,2,0,L|22:207,3,41.9999987182618,2|2|2|2,0:0|0:0|0:0|0:0,0:0:0:0:
26,169,155807,2,0,P|34:117|54:77,1,83.9999974365235,10|2,0:0|0:0,0:0:0:0:
148,40,156173,22,0,B|196:52|196:52|260:40|260:40|336:60,1,167.999994873047,4|8,0:0|0:0,0:0:0:0:
308,136,156722,2,0,B|256:122|256:122|192:134|192:134|144:122,1,167.999994873047,2|2,0:0|0:0,0:0:0:0:
99,193,157271,2,0,P|97:236|111:289,1,83.9999974365235,8|0,0:0|0:0,0:0:0:0:
188,340,157636,6,0,L|271:347,1,83.9999974365235,2|0,0:0|0:0,0:0:0:0:
320,277,158002,2,0,L|403:269,1,83.9999974365235,8|2,0:0|0:0,0:0:0:0:
431,189,158368,2,0,P|399:153|347:125,1,83.9999974365235,2|2,0:0|0:0,0:0:0:0:
289,106,158734,1,10,0:0:0:0:
208,131,158917,1,2,0:0:0:0:
128,212,159100,6,0,B|144:244|176:268|176:268|172:320|216:368,1,167.999994873047,4|8,0:0|0:0,0:0:0:0:
291,354,159649,2,0,B|324:320|320:268|320:268|352:244|368:212,1,167.999994873047,2|2,0:0|0:0,0:0:0:0:
331,136,160197,2,0,P|295:128|231:140,1,83.9999974365235,8|0,0:0|0:0,0:0:0:0:
211,213,160563,2,0,P|169:217|128:212,1,83.9999974365235,2|0,0:0|0:0,0:0:0:0:
85,139,160929,6,0,P|101:91|129:51,1,83.9999974365235,8|2,0:0|0:0,0:0:0:0:
202,72,161295,1,0,0:0:0:0:
202,72,161478,2,0,P|250:56|306:60,1,83.9999974365235,2|8,0:0|0:0,0:0:0:0:
365,75,161844,1,0,0:0:0:0:
400,180,162027,22,0,B|388:232|388:232|424:284|424:284|416:336,1,167.999994873047,6|8,0:0|0:0,0:0:0:0:
339,368,162575,1,2,0:0:0:0:
261,335,162758,1,0,0:0:0:0:
261,335,162941,2,0,P|217:323|169:327,1,83.9999974365235,2|8,0:0|0:0,0:0:0:0:
79,343,163307,6,0,B|85:262|85:262|47:184,1,167.999994873047,0|0,0:0|0:0,0:0:0:0:
116,135,163856,2,0,L|159:224,1,83.9999974365235,8|2,0:0|0:0,0:0:0:0:
230,177,164222,2,0,L|273:266,1,83.9999974365235,0|2,0:0|0:0,0:0:0:0:
350,265,164588,1,8,0:0:0:0:
427,233,164771,1,0,0:0:0:0:
416,124,164954,6,0,P|344:108|348:180,1,167.999994873047,2|8,0:0|0:0,0:0:0:0:
427,203,165502,2,0,P|490:152|471:63,1,167.999994873047,2|2,0:0|0:0,0:0:0:0:
417,15,166051,1,8,0:0:0:0:
338,45,166234,1,0,0:0:0:0:
338,45,166417,6,0,P|298:53|230:41,1,83.9999974365235,2|0,0:0|0:0,0:0:0:0:
171,35,166783,2,0,L|183:119,1,83.9999974365235,8|2,0:0|0:0,0:0:0:0:
112,164,167149,2,0,L|100:248,1,83.9999974365235,2|2,0:0|0:0,0:0:0:0:
174,285,167514,1,10,0:0:0:0:
252,315,167697,1,2,0:0:0:0:
358,280,167880,22,0,B|387:242|368:192|368:192|314:138,1,167.999994873047,4|8,0:0|0:0,0:0:0:0:
256,77,168429,1,2,0:0:0:0:
201,141,168612,2,0,P|160:151|108:139,1,83.9999974365235,0|2,0:0|0:0,0:0:0:0:
78,70,168978,2,0,P|118:60|159:66,1,83.9999974365235,8|0,0:0|0:0,0:0:0:0:
210,157,169344,6,0,B|190:265|190:265|210:337,1,167.999994873047,2|8,0:0|0:0,0:0:0:0:
283,353,169893,1,2,0:0:0:0:
365,338,170075,2,0,P|382:301|384:259,1,83.9999974365235,2|2,0:0|0:0,0:0:0:0:
325,197,170441,2,0,P|326:155|344:117,1,83.9999974365235,10|2,0:0|0:0,0:0:0:0:
422,42,170807,6,0,P|338:26|242:26,1,167.999994873047,4|8,0:0|0:0,0:0:0:0:
177,135,171356,2,0,P|259:119|343:117,1,167.999994873047,2|2,0:0|0:0,0:0:0:0:
403,176,171905,2,0,L|411:268,1,83.9999974365235,8|0,0:0|0:0,0:0:0:0:
341,336,172271,6,0,P|301:340|229:324,1,83.9999974365235,2|0,0:0|0:0,0:0:0:0:
209,265,172636,2,0,P|167:259|125:263,1,83.9999974365235,8|2,0:0|0:0,0:0:0:0:
65,203,173002,2,0,L|77:115,1,83.9999974365235,0|2,0:0|0:0,0:0:0:0:
156,65,173368,2,0,L|167:148,1,83.9999974365235,8|0,0:0|0:0,0:0:0:0:
240,235,173734,22,0,P|300:227|388:135,1,167.999994873047,6|8,0:0|0:0,0:0:0:0:
403,77,174283,2,0,P|419:169|463:237,1,167.999994873047,2|2,0:0|0:0,0:0:0:0:
468,315,174832,2,0,P|420:343|388:351,1,83.9999974365235,8|0,0:0|0:0,0:0:0:0:
291,321,175197,6,0,L|259:145,1,167.999994873047,2|8,0:0|0:0,0:0:0:0:
177,143,175746,2,0,L|191:225,1,83.9999974365235,2|0,0:0|0:0,0:0:0:0:
115,264,176112,1,2,0:0:0:0:
115,264,176295,2,0,L|100:181,1,83.9999974365235,8|0,0:0|0:0,0:0:0:0:
109,81,176661,6,0,B|185:61|185:61|265:101,1,167.999994873047,2|8,0:0|0:0,0:0:0:0:
304,175,177210,1,2,0:0:0:0:
269,251,177393,2,0,L|181:263,1,83.9999974365235,0|2,0:0|0:0,0:0:0:0:
120,209,177758,2,0,L|32:221,1,83.9999974365235,8|0,0:0|0:0,0:0:0:0:
97,109,178124,6,0,B|140:83|172:99|180:103|188:107|224:123|260:103,1,167.999994873047,2|8,0:0|0:0,0:0:0:0:
222,27,178673,1,2,0:0:0:0:
104,24,178856,2,0,L|88:204,1,167.999994873047,0|8,0:0|0:0,0:0:0:0:
160,237,179405,1,0,0:0:0:0:
263,206,179588,22,0,P|311:126|299:34,1,167.999994873047,6|8,0:0|0:0,0:0:0:0:
396,54,180136,2,0,P|394:136|440:206,1,167.999994873047,2|2,0:0|0:0,0:0:0:0:
397,279,180685,2,0,P|345:271|305:283,1,83.9999974365235,8|0,0:0|0:0,0:0:0:0:
237,350,181051,6,0,L|205:174,1,167.999994873047,2|8,0:0|0:0,0:0:0:0:
122,185,181600,2,0,L|110:289,1,83.9999974365235,2|0,0:0|0:0,0:0:0:0:
27,268,181966,1,2,0:0:0:0:
27,268,182149,2,0,L|39:168,1,83.9999974365235,8|0,0:0|0:0,0:0:0:0:
84,86,182514,6,0,B|168:66|168:118|272:78,1,167.999994873047,2|8,0:0|0:0,0:0:0:0:
332,99,183063,2,0,B|356:159|356:159|336:267,1,167.999994873047,2|2,0:0|0:0,0:0:0:0:
267,301,183612,2,0,P|224:303|164:296,1,83.9999974365235,8|0,0:0|0:0,0:0:0:0:
130,233,183978,5,2,0:0:0:0:
240,106,184344,2,0,P|287:106|330:139,1,83.9999974365235,8|2,0:0|0:0,0:0:0:0:
346,203,184710,2,0,P|330:244|282:277,2,83.9999974365235,0|2|8,0:0|0:0|0:0,0:0:0:0:
262,191,185258,1,0,0:0:0:0:
262,191,185441,6,0,B|222:199|194:231|194:231|166:199|106:187,1,167.999994873047,2|0,0:0|0:0,0:0:0:0:
