osu file format v14

[General]
AudioFilename: audio.mp3
AudioLeadIn: 0
PreviewTime: 48246
Countdown: 0
SampleSet: Soft
StackLeniency: 0.7
Mode: 0
LetterboxInBreaks: 0
WidescreenStoryboard: 0

[Editor]
Bookmarks: 14222,37637,77149,88856,138612
DistanceSpacing: 1
BeatDivisor: 2
GridSize: 4
TimelineZoom: 1.200003

[Metadata]
Title:Heart Shaker
TitleUnicode:Heart Shaker
Artist:TWICE
ArtistUnicode:트와이스
Creator:iYiyo
Version:Easy Shaker~
Source:
Tags:hazu- cosmolade pkhg kpop k-pop jyp entertainment japan korea once christmas xmas Merry & Happy sana jihyo dahyun nayeon jeongyeon chaeyoung momo mina tzuyu 나연 정연 모모 사나 지효 미나 다현 채영 쯔위
BeatmapID:1492990
BeatmapSetID:705597

[Difficulty]
HPDrainRate:2
CircleSize:2
OverallDifficulty:2
ApproachRate:3
SliderMultiplier:0.899999999999999
SliderTickRate:1

[Events]
//Background and Video events
0,0,"twice_xmas.png",0,0
Video,0,"TWICE 'Heart Shaker' MV.avi"
//Break Periods
2,74222,75709
2,125441,129855
//Storyboard Layer 0 (Background)
//Storyboard Layer 1 (Fail)
//Storyboard Layer 2 (Pass)
//Storyboard Layer 3 (Foreground)
//Storyboard Sound Samples

[TimingPoints]
1646,480,4,2,0,60,1,0
2515,365.853658536585,4,2,1,60,1,0
14222,-100,4,2,1,50,0,0
49344,-100,4,2,1,70,0,1
74222,-100,4,2,1,50,0,0
100563,-100,4,2,1,70,0,1
125441,-100,4,2,1,40,0,0
137057,-100,4,2,1,5,0,0
138612,-100,4,2,1,60,0,0
148856,-100,4,1,1,60,0,0
150228,-100,4,1,0,5,0,0
150319,-100,4,2,1,70,0,1
173734,-100,4,2,1,70,0,0

[Colours]
Combo1 : 248,199,52
Combo2 : 0,221,111
Combo3 : 255,51,51
Combo4 : 72,164,255
Combo5 : 232,232,232

[HitObjects]
176,136,2515,6,0,P|104:116|31:131,2,135,6|2|2,0:0|0:0|0:0,0:0:0:0:
176,232,3978,2,0,P|103:247|31:227,2,135,2|2|4,0:0|0:0|3:0,0:0:0:0:
255,187,5441,6,0,P|291:74|399:125,1,270,2|2,0:0|0:0,0:0:0:0:
420,212,6905,2,0,L|323:237,1,89.9999999999999,2|0,0:0|0:0,0:0:0:0:
300,320,7636,1,0,0:0:0:0:
212,297,8002,1,2,0:0:0:0:
168,220,8368,6,0,B|144:166|144:166|166:77,2,135,10|10|10,0:0|0:0|0:0,0:0:0:0:
258,220,9832,2,0,B|282:166|282:166|259:77,2,135,10|10|10,0:0|0:0|0:0,0:0:0:0:
256,192,11295,12,2,12758,0:0:0:0:
152,284,14222,6,0,P|243:283|344:288,1,180,2|0,0:0|0:0,0:0:0:0:
394,222,15319,1,8,0:0:0:0:
372,136,15685,2,0,P|280:135|180:140,1,180,2|0,0:0|0:0,0:0:0:0:
116,188,16783,1,8,0:0:0:0:
128,276,17149,22,0,P|231:346|306:253,1,270,2|8,0:0|0:0,0:0:0:0:
271,167,18612,2,0,P|306:88|391:77,1,180,2|0,0:0|0:0,0:0:0:0:
454,144,19710,1,8,0:0:0:0:
432,231,20075,6,0,P|402:290|432:348,2,135,2|2|8,0:0|0:0|0:0,0:0:0:0:
454,144,21539,2,0,P|483:85|453:27,2,135,2|2|8,0:0|0:0|0:0,0:0:0:0:
364,128,23002,6,0,P|300:68|214:82,1,180,2|0,0:0|0:0,0:0:0:0:
188,168,24100,2,0,P|251:227|337:213,1,180,8|0,0:0|0:0,0:0:0:0:
424,192,25197,1,0,0:0:0:0:
456,276,25563,1,8,0:0:0:0:
384,328,25929,6,0,P|294:328|204:324,1,180,6|0,0:0|0:0,0:0:0:0:
116,316,27027,1,8,0:0:0:0:
68,240,27393,2,0,P|145:190|248:180,1,180,2|0,0:0|0:0,0:0:0:0:
320,176,28490,1,8,0:0:0:0:
352,92,28856,22,0,P|275:42|172:32,1,180,2|0,0:0|0:0,0:0:0:0:
120,90,29954,1,8,0:0:0:0:
140,179,30319,2,0,P|229:179|319:175,1,180,2|0,0:0|0:0,0:0:0:0:
408,160,31417,1,8,0:0:0:0:
412,248,31783,6,0,B|372:288|372:288|294:274,2,135,2|2|8,0:0|0:0|0:0,0:0:0:0:
408,160,33246,2,0,B|368:120|368:120|290:133,2,135,2|2|8,0:0|0:0|0:0,0:0:0:0:
412,247,34710,6,0,P|322:252|232:248,1,180,2|2,0:0|0:0,0:0:0:0:
144,264,35807,2,0,P|148:175|132:84,1,180,10|10,0:0|0:0,0:0:0:0:
204,32,36905,1,2,0:0:0:0:
264,100,37271,1,10,0:0:0:0:
320,28,37636,6,0,P|363:40|407:32,1,89.9999999999999,6|2,0:0|0:0,0:0:0:0:
488,72,38368,1,8,0:0:0:0:
424,240,39100,2,0,P|382:251|338:243,1,89.9999999999999,2|2,0:0|0:0,0:0:0:0:
248,252,39832,1,8,0:0:0:0:
368,116,40563,22,0,P|325:127|281:119,1,89.9999999999999,2|2,0:0|0:0,0:0:0:0:
191,128,41295,1,8,0:0:0:0:
256,296,42027,2,0,P|299:307|343:299,2,89.9999999999999,2|2|8,0:0|0:0|0:0,0:0:0:0:
168,272,43124,1,0,0:0:0:0:
135,188,43490,6,0,P|259:145|371:213,1,270,2|0,0:0|0:0,0:0:0:0:
460,204,44954,2,0,P|461:153|456:104,2,89.9999999999999,2|2|8,0:0|0:0|0:0,0:0:0:0:
312,304,46417,6,0,L|208:308,2,89.9999999999999,2|2|8,0:0|0:0|0:0,0:0:0:0:
360,228,47514,2,0,L|356:124,1,89.9999999999999,0|2,0:0|0:0,0:0:0:0:
356,138,49344,6,0,P|277:177|195:147,1,180,6|0,0:0|0:0,0:0:0:0:
132,84,50441,1,8,0:0:0:0:
64,144,50807,2,0,L|72:332,1,180,2|0,0:0|0:0,0:0:0:0:
156,352,51905,1,8,0:0:0:0:
223,296,52271,22,0,P|287:276|351:295,2,135,2|2|8,0:0|0:0|0:0,0:0:0:0:
160,232,53734,2,0,L|170:52,1,180,2|2,0:0|0:0,0:0:0:0:
260,32,54832,1,10,0:0:0:0:
343,59,55197,6,0,P|403:172|318:266,1,270,6|8,0:0|0:0,0:0:0:0:
228,276,56661,2,0,L|136:280,1,89.9999999999999,2|8,0:0|0:0,0:0:0:0:
132,188,57393,1,2,0:0:0:0:
221,183,57758,1,10,0:0:0:0:
296,132,58124,6,0,P|201:47|89:106,1,270,4|8,0:0|0:0,0:0:0:0:
44,184,59588,2,0,L|47:273,1,89.9999999999999,2|8,0:0|0:0,0:0:0:0:
136,276,60319,1,0,0:0:0:0:
132,186,60684,1,8,0:0:0:0:
204,136,61051,6,0,P|293:144|383:141,1,180,6|0,0:0|0:0,0:0:0:0:
404,56,62149,1,8,0:0:0:0:
320,32,62514,2,0,P|230:29|140:37,1,180,2|0,0:0|0:0,0:0:0:0:
76,100,63612,1,8,0:0:0:0:
32,180,63978,22,0,P|19:245|46:306,2,135,2|2|8,0:0|0:0|0:0,0:0:0:0:
120,184,65441,2,0,L|299:180,1,180,2|2,0:0|0:0,0:0:0:0:
364,116,66539,1,10,0:0:0:0:
452,144,66905,6,0,L|472:240,1,89.9999999999999,4|8,0:0|0:0,0:0:0:0:
456,320,67636,1,0,0:0:0:0:
367,338,68001,1,8,0:0:0:0:
276,332,68368,2,0,L|187:313,1,89.9999999999999,2|8,0:0|0:0,0:0:0:0:
164,228,69100,2,0,L|182:139,1,89.9999999999999,2|10,0:0|0:0,0:0:0:0:
256,192,69832,12,2,72758,0:0:0:0:
422,278,77149,6,0,P|348:275|234:274,1,180,2|0,0:0|0:0,0:0:0:0:
168,324,78246,1,8,0:0:0:0:
96,272,78612,2,0,P|93:198|92:84,1,180,2|0,0:0|0:0,0:0:0:0:
180,64,79710,1,8,0:0:0:0:
183,151,80075,6,0,P|290:222|398:154,1,270,2|8,0:0|0:0,0:0:0:0:
384,64,81539,2,0,P|296:72|200:60,1,180,2|0,0:0|0:0,0:0:0:0:
115,60,82636,1,8,0:0:0:0:
68,140,83002,22,0,B|50:235|50:235|72:284,2,135,2|2|8,0:0|0:0|0:0,0:0:0:0:
158,140,84466,2,0,B|176:235|176:235|154:284,2,135,2|2|8,0:0|0:0|0:0,0:0:0:0:
196,60,85929,6,0,P|281:40|360:81,1,180,2|0,0:0|0:0,0:0:0:0:
320,164,87027,2,0,P|282:243|303:329,1,180,8|8,0:0|0:0,0:0:0:0:
392,344,88124,1,2,0:0:0:0:
472,308,88490,1,10,0:0:0:0:
480,220,88856,6,0,P|480:175|461:134,1,89.9999999999999,4|2,0:0|0:0,0:0:0:0:
388,84,89588,1,8,0:0:0:0:
224,152,90319,2,0,P|223:196|242:237,1,89.9999999999999,2|2,0:0|0:0,0:0:0:0:
316,288,91051,1,8,0:0:0:0:
148,352,91783,6,0,P|103:352|62:333,1,89.9999999999999,2|2,0:0|0:0,0:0:0:0:
12,260,92515,1,8,0:0:0:0:
144,140,93246,2,0,P|188:139|229:158,2,89.9999999999999,2|2|8,0:0|0:0|0:0,0:0:0:0:
84,72,94344,1,0,0:0:0:0:
167,43,94710,22,0,P|256:58|346:56,1,180,2|8,0:0|0:0,0:0:0:0:
436,64,95807,1,0,0:0:0:0:
432,152,96173,2,0,P|428:196|429:241,2,89.9999999999999,2|2|8,0:0|0:0|0:0,0:0:0:0:
252,148,97636,6,0,P|248:192|249:237,2,89.9999999999999,2|2|8,0:0|0:0|0:0,0:0:0:0:
196,76,98734,2,0,P|162:104|130:136,1,89.9999999999999,0|2,0:0|0:0,0:0:0:0:
130,137,100563,6,0,P|165:216|246:246,1,180,6|0,0:0|0:0,0:0:0:0:
324,196,101660,1,8,0:0:0:0:
328,107,102026,2,0,P|226:77|151:48,1,180,2|0,0:0|0:0,0:0:0:0:
80,96,103124,1,8,0:0:0:0:
32,172,103490,38,0,P|13:235|33:299,2,135,2|2|8,0:0|0:0|0:0,0:0:0:0:
112,212,104953,2,0,P|224:220|312:220,1,180,2|2,0:0|0:0,0:0:0:0:
376,188,106051,1,10,0:0:0:0:
428,116,106416,6,0,P|318:50|219:130,1,270,4|8,0:0|0:0,0:0:0:0:
192,216,107880,2,0,L|102:212,1,89.9999999999999,2|8,0:0|0:0,0:0:0:0:
100,304,108612,1,2,0:0:0:0:
189,308,108977,1,10,0:0:0:0:
280,316,109343,6,0,P|389:250|365:125,1,270,4|8,0:0|0:0,0:0:0:0:
272,136,110807,2,0,L|275:47,1,89.9999999999999,2|8,0:0|0:0,0:0:0:0:
184,40,111538,1,0,0:0:0:0:
180,129,111905,1,8,0:0:0:0:
92,156,112270,6,0,P|110:243|140:328,1,180,6|0,0:0|0:0,0:0:0:0:
228,352,113368,1,8,0:0:0:0:
268,272,113734,2,0,P|358:269|448:277,1,180,2|0,0:0|0:0,0:0:0:0:
472,192,114832,1,8,0:0:0:0:
404,132,115197,22,0,P|338:119|278:145,2,135,2|2|8,0:0|0:0|0:0,0:0:0:0:
384,220,116661,2,0,B|336:272|336:272|226:272,1,180,2|2,0:0|0:0,0:0:0:0:
136,272,117758,1,10,0:0:0:0:
72,208,118124,6,0,L|90:119,1,89.9999999999999,4|8,0:0|0:0,0:0:0:0:
164,68,118856,1,0,0:0:0:0:
252,86,119222,1,8,0:0:0:0:
268,176,119588,2,0,L|357:157,1,89.9999999999999,2|8,0:0|0:0,0:0:0:0:
440,124,120319,2,0,L|458:213,1,89.9999999999999,2|10,0:0|0:0,0:0:0:0:
256,192,121051,12,2,123977,0:0:0:0:
392,272,131295,6,0,P|316:276|204:276,1,180,0|0,0:0|0:0,0:0:0:0:
132,232,132393,1,0,0:0:0:0:
164,148,132758,2,0,P|239:143|352:144,1,180,0|0,0:0|0:0,0:0:0:0:
420,96,133856,1,0,0:0:0:0:
435,183,134222,6,0,P|380:298|253:291,1,270,0|0,0:0|0:0,0:0:0:0:
208,212,135685,2,0,P|263:97|390:104,1,270,0|0,0:0|0:0,0:0:0:0:
346,162,138612,22,0,P|350:216|358:278,2,89.9999999999999,2|2|10,0:0|0:0|0:0,0:0:0:0:
165,162,140075,2,0,P|160:216|153:278,2,89.9999999999999,2|2|8,0:0|0:0|0:0,0:0:0:0:
292,36,141539,6,0,P|334:24|378:32,2,89.9999999999999,2|2|10,0:0|0:0|0:0,0:0:0:0:
260,212,143002,2,0,P|217:224|173:216,2,89.9999999999999,2|2|8,0:0|0:0|0:0,0:0:0:0:
440,224,144466,6,0,P|433:180|440:136,1,89.9999999999999,2|2,0:0|0:0,0:0:0:0:
385,64,145197,2,0,P|340:72|296:65,1,89.9999999999999,10|2,0:0|0:0,0:0:0:0:
217,112,145929,2,0,P|224:157|217:201,1,89.9999999999999,2|2,0:0|0:0,0:0:0:0:
272,272,146661,2,0,P|316:265|360:272,1,89.9999999999999,10|2,0:0|0:0,0:0:0:0:
256,192,147393,12,2,148856,0:0:0:0:
457,274,150319,6,0,P|378:312|295:281,1,180,6|0,0:0|0:0,0:0:0:0:
208,268,151416,1,8,0:0:0:0:
228,180,151782,2,0,P|334:185|414:184,1,180,2|0,0:0|0:0,0:0:0:0:
420,96,152880,1,8,0:0:0:0:
344,48,153246,22,0,P|280:27|216:46,2,135,2|2|8,0:0|0:0|0:0,0:0:0:0:
328,136,154709,2,0,P|238:138|148:131,1,180,2|2,0:0|0:0,0:0:0:0:
72,180,155807,1,10,0:0:0:0:
80,268,156173,6,0,B|200:320|200:320|333:282,1,270,4|8,0:0|0:0,0:0:0:0:
344,192,157636,2,0,L|443:219,1,89.9999999999999,2|8,0:0|0:0,0:0:0:0:
460,132,158368,1,2,0:0:0:0:
373,108,158733,1,10,0:0:0:0:
286,84,159100,6,0,B|223:199|223:199|249:334,1,270,4|8,0:0|0:0,0:0:0:0:
332,304,160563,2,0,L|316:214,1,89.9999999999999,2|8,0:0|0:0,0:0:0:0:
408,220,161295,1,0,0:0:0:0:
394,132,161660,1,8,0:0:0:0:
308,104,162026,6,0,P|219:87|129:91,1,180,6|0,0:0|0:0,0:0:0:0:
112,180,163124,1,8,0:0:0:0:
196,208,163490,2,0,P|286:212|374:196,1,180,2|0,0:0|0:0,0:0:0:0:
436,132,164587,1,8,0:0:0:0:
392,52,164953,22,0,P|332:23|272:48,2,135,2|2|8,0:0|0:0|0:0,0:0:0:0:
436,132,166417,2,0,P|352:153|250:154,1,180,2|2,0:0|0:0,0:0:0:0:
172,128,167514,1,10,0:0:0:0:
96,180,167880,6,0,L|114:269,1,89.9999999999999,4|8,0:0|0:0,0:0:0:0:
180,328,168612,1,0,0:0:0:0:
267,309,168978,1,8,0:0:0:0:
300,224,169344,2,0,L|211:205,1,89.9999999999999,2|8,0:0|0:0,0:0:0:0:
168,124,170075,2,0,L|186:35,1,89.9999999999999,2|10,0:0|0:0,0:0:0:0:
256,192,170807,12,6,173733,0:0:0:0:
316,252,176661,6,0,B|307:301|307:301|315:340,2,89.9999999999999,2|8|0,0:0|0:0|0:0,0:0:0:0:
255,185,177758,1,8,0:0:0:0:
191,249,178124,2,0,B|200:298|200:298|191:337,2,89.9999999999999,2|8|0,0:0|0:0|0:0,0:0:0:0:
255,185,179222,1,8,0:0:0:0:
304,108,179588,6,0,P|261:35|180:58,1,180,6|0,0:0|0:0,0:0:0:0:
124,128,180685,1,8,0:0:0:0:
148,216,181051,2,0,P|237:206|327:200,1,180,2|0,0:0|0:0,0:0:0:0:
412,232,182149,1,8,0:0:0:0:
368,312,182514,22,0,L|212:300,2,135,2|2|8,0:0|0:0|0:0,0:0:0:0:
412,231,183978,2,0,P|420:188|409:144,1,89.9999999999999,2|8,0:0|0:0,0:0:0:0:
336,92,184710,54,0,L|156:107,1,180,0|2,0:0|0:0,0:0:0:0:
