osu file format v14

[General]
AudioFilename: audio.mp3
AudioLeadIn: 0
PreviewTime: 48246
Countdown: 0
SampleSet: Soft
StackLeniency: 0.2
Mode: 0
LetterboxInBreaks: 0
WidescreenStoryboard: 0

[Editor]
Bookmarks: 2515,14222,21539,37637,49344,77149,88856,100563,125441,131295,138612,173734,182972
DistanceSpacing: 1.3
BeatDivisor: 4
GridSize: 32
TimelineZoom: 1.300003

[Metadata]
Title:Heart Shaker
TitleUnicode:Heart Shaker
Artist:TWICE
ArtistUnicode:트와이스
Creator:iYiyo
Version:iYikhg's Insane Shaker~
Source:
Tags:hazu- cosmolade pkhg kpop k-pop jyp entertainment japan korea once christmas xmas Merry & Happy sana jihyo dahyun nayeon jeongyeon chaeyoung momo mina tzuyu 나연 정연 모모 사나 지효 미나 다현 채영 쯔위
BeatmapID:1498981
BeatmapSetID:705597

[Difficulty]
HPDrainRate:6
CircleSize:3.5
OverallDifficulty:7
ApproachRate:8.6
SliderMultiplier:1
SliderTickRate:1

[Events]
//Background and Video events
0,0,"twice_xmas.png",0,0
Video,0,"TWICE 'Heart Shaker' MV.avi"
//Break Periods
2,125641,130636
//Storyboard Layer 0 (Background)
//Storyboard Layer 1 (Fail)
//Storyboard Layer 2 (Pass)
//Storyboard Layer 3 (Foreground)
//Storyboard Sound Samples

[TimingPoints]
1646,480,4,2,0,60,1,0
1646,-62.5,4,2,0,60,0,0
2515,365.853658536585,4,2,1,60,1,0
2515,-71.4285714285714,4,2,1,60,0,0
12758,-200,4,2,1,60,0,0
14222,-66.6666666666667,4,2,1,50,0,0
20075,-55.5555555555556,4,2,1,50,0,0
20624,-90.9090909090909,4,2,1,50,0,0
21173,-66.6666666666667,4,2,1,50,0,0
21539,-55.5555555555556,4,2,1,50,0,0
22088,-90.9090909090909,4,2,1,50,0,0
23002,-62.5,4,2,1,50,0,0
23551,-66.6666666666667,4,2,1,50,0,0
24100,-71.4285714285714,4,2,1,50,0,0
24649,-76.9230769230769,4,2,1,50,0,0
25929,-66.6666666666667,4,2,1,50,0,0
31783,-55.5555555555556,4,2,1,50,0,0
32332,-90.9090909090909,4,2,1,50,0,0
33246,-55.5555555555556,4,2,1,50,0,0
33795,-90.9090909090909,4,2,1,50,0,0
34710,-62.5,4,2,1,50,0,0
35259,-66.6666666666667,4,2,1,50,0,0
35808,-71.4285714285714,4,2,1,50,0,0
36357,-76.9230769230769,4,2,1,50,0,0
36905,-83.3333333333333,4,2,1,50,0,0
38368,-83.3333333333333,4,2,0,50,0,0
38460,-83.3333333333333,4,2,0,5,0,0
38551,-83.3333333333333,4,2,1,50,0,0
39832,-83.3333333333333,4,2,0,50,0,0
39924,-83.3333333333333,4,2,0,5,0,0
40015,-83.3333333333333,4,2,1,50,0,0
41295,-83.3333333333333,4,2,0,50,0,0
41387,-83.3333333333333,4,2,0,5,0,0
41478,-83.3333333333333,4,2,1,50,0,0
42758,-83.3333333333333,4,2,0,50,0,0
42850,-83.3333333333333,4,2,0,5,0,0
42941,-83.3333333333333,4,2,1,50,0,0
43490,-71.4285714285714,4,2,1,50,0,0
44222,-83.3333333333333,4,2,0,50,0,0
44405,-83.3333333333333,4,2,1,50,0,0
45685,-83.3333333333333,4,2,0,50,0,0
45868,-71.4285714285714,4,2,1,50,0,0
47149,-71.4285714285714,4,2,0,50,0,0
47332,-71.4285714285714,4,2,1,50,0,0
49344,-62.5,4,2,1,70,0,1
72941,-62.5,4,2,0,70,0,1
74222,-100,4,2,1,50,0,0
76417,-83.3333333333333,4,2,0,50,0,0
76600,-83.3333333333333,4,2,1,50,0,0
77149,-66.6666666666667,4,2,1,50,0,0
85929,-62.5,4,2,1,50,0,0
86478,-66.6666666666667,4,2,1,50,0,0
87027,-71.4285714285714,4,2,1,50,0,0
87576,-76.9230769230769,4,2,1,50,0,0
88124,-83.3333333333333,4,2,1,50,0,0
89588,-83.3333333333333,4,2,0,50,0,0
89680,-83.3333333333333,4,2,0,5,0,0
89771,-83.3333333333333,4,2,1,50,0,0
91051,-83.3333333333333,4,2,0,50,0,0
91143,-83.3333333333333,4,2,0,5,0,0
91234,-83.3333333333333,4,2,1,50,0,0
92514,-83.3333333333333,4,2,0,50,0,0
92606,-83.3333333333333,4,2,0,5,0,0
92697,-83.3333333333333,4,2,1,50,0,0
93978,-83.3333333333333,4,2,0,50,0,0
94070,-83.3333333333333,4,2,0,5,0,0
94161,-83.3333333333333,4,2,1,50,0,0
94709,-71.4285714285714,4,2,1,50,0,0
95441,-83.3333333333333,4,2,0,50,0,0
95533,-83.3333333333333,4,2,0,5,0,0
95624,-83.3333333333333,4,2,1,50,0,0
96905,-83.3333333333333,4,2,0,50,0,0
96997,-83.3333333333333,4,2,0,5,0,0
97088,-71.4285714285714,4,2,1,50,0,0
98368,-71.4285714285714,4,2,0,50,0,0
98551,-71.4285714285714,4,2,1,50,0,0
100563,-62.5,4,2,1,70,0,1
124161,-62.5,4,2,0,50,0,1
125441,-100,4,2,1,40,0,0
131295,-200,4,2,0,40,0,0
138612,-100,4,2,1,60,0,0
139344,-50,4,2,0,60,0,0
139527,-50,4,2,0,5,0,0
140075,-100,4,2,1,60,0,0
140807,-50,4,2,0,60,0,0
140990,-50,4,2,0,5,0,0
141539,-100,4,2,1,60,0,0
142271,-50,4,2,0,60,0,0
142454,-50,4,2,0,5,0,0
143002,-100,4,2,1,60,0,0
143734,-50,4,2,0,60,0,0
143917,-50,4,2,0,5,0,0
144466,-50,4,2,0,50,0,0
145197,-50,4,2,0,60,0,0
145380,-50,4,2,0,50,0,0
146661,-50,4,2,0,60,0,0
146844,-50,4,2,0,50,0,0
147393,-100,4,2,0,50,0,0
148856,-100,4,1,1,60,0,0
150319,-62.5,4,2,1,70,0,1
173734,-62.5,4,2,1,70,0,0
177027,-55.5555555555556,4,2,1,70,0,0
177758,-62.5,4,2,1,70,0,0
178490,-55.5555555555556,4,2,1,70,0,0
179222,-62.5,4,2,1,70,0,0
185258,-62.5,4,2,0,70,0,0

[Colours]
Combo1 : 248,199,52
Combo2 : 0,221,111
Combo3 : 255,51,51
Combo4 : 72,164,255
Combo5 : 232,232,232

[HitObjects]
60,281,1646,70,0,L|65:235,4,40,2|0|2|0|2,0:0|0:0|0:0|0:0|0:0,0:0:0:0:
431,170,2515,6,0,L|415:30,1,139.999995727539,6|0,0:0|0:0,0:0:0:0:
493,248,3063,2,0,L|508:108,1,139.999995727539,2|0,0:0|0:0,0:0:0:0:
440,330,3612,1,2,0:0:0:0:
81,170,3978,6,0,L|96:30,1,139.999995727539,2|0,0:0|0:0,0:0:0:0:
19,248,4527,2,0,L|3:108,1,139.999995727539,2|0,0:0|0:0,0:0:0:0:
72,330,5075,1,4,3:0:0:0:
440,330,5441,5,2,0:0:0:0:
357,304,5624,1,0,0:0:0:0:
356,216,5807,1,0,0:0:0:0:
439,188,5990,1,2,0:0:0:0:
490,259,6173,1,0,0:0:0:0:
72,330,6539,5,2,0:0:0:0:
155,304,6722,1,0,0:0:0:0:
156,216,6905,1,2,0:0:0:0:
73,188,7088,1,0,0:0:0:0:
22,259,7271,1,0,0:0:0:0:
440,330,7636,21,0,0:0:0:0:
72,330,8002,1,2,0:0:0:0:
332,69,8368,6,0,P|338:34|347:0,1,69.9999978637696,10|0,0:0|0:0,0:0:0:0:
347,0,8734,1,0,0:0:0:0:
254,136,8917,2,0,P|241:103|226:71,1,69.9999978637696,10|0,0:0|0:0,0:0:0:0:
226,71,9283,1,0,0:0:0:0:
351,170,9466,2,0,P|381:152|412:137,1,69.9999978637696,10|0,0:0|0:0,0:0:0:0:
184,247,9832,6,0,P|177:212|168:178,1,69.9999978637696,10|0,0:0|0:0,0:0:0:0:
168,178,10198,1,0,0:0:0:0:
262,314,10381,2,0,P|274:281|289:249,1,69.9999978637696,10|0,0:0|0:0,0:0:0:0:
288,249,10747,1,0,0:0:0:0:
165,348,10930,2,0,P|134:330|103:315,1,69.9999978637696,10|0,0:0|0:0,0:0:0:0:
338,382,11295,6,0,L|372:376,1,34.9999989318848,2|2,0:0|0:0,0:0:0:0:
452,333,11478,2,0,L|486:338,3,34.9999989318848,2|2|10|2,0:0|0:0|0:0|0:0,0:0:0:0:
399,255,11844,22,0,L|364:260,1,34.9999989318848,2|2,0:0|0:0,0:0:0:0:
285,304,12027,2,0,L|250:298,3,34.9999989318848,2|2|2|2,0:0|0:0|0:0|0:0,0:0:0:0:
160,285,12393,1,10,0:0:0:0:
125,279,12484,1,2,0:0:0:0:
90,274,12575,1,2,0:0:0:0:
56,268,12667,1,2,0:0:0:0:
21,263,12758,1,2,0:0:0:0:
21,263,14222,5,2,0:0:0:0:
111,243,14405,1,0,0:0:0:0:
220,291,14588,1,8,0:0:0:0:
130,271,14771,1,2,0:0:0:0:
239,319,14954,2,0,B|310:295|310:295|384:306,1,150.000005722046,0|8,0:0|0:0,0:0:0:0:
512,220,15502,2,0,L|437:228,1,75.0000028610231,0|2,0:0|0:0,0:0:0:0:
264,158,15868,5,0,0:0:0:0:
416,109,16051,1,8,0:0:0:0:
354,177,16234,1,2,0:0:0:0:
300,15,16417,1,0,0:0:0:0:
327,96,16600,1,2,0:0:0:0:
175,145,16783,1,8,0:0:0:0:
175,145,17149,5,2,0:0:0:0:
86,119,17332,1,0,0:0:0:0:
21,241,17514,1,8,0:0:0:0:
110,215,17697,1,2,0:0:0:0:
175,337,17880,2,0,P|243:307|316:315,1,150.000005722046,0|8,0:0|0:0,0:0:0:0:
471,278,18429,2,0,P|433:277|399:263,1,75.0000028610231,0|2,0:0|0:0,0:0:0:0:
354,175,18795,21,0,0:0:0:0:
316,315,18978,1,8,0:0:0:0:
271,227,19161,1,2,0:0:0:0:
233,367,19344,1,0,0:0:0:0:
131,265,19527,1,2,0:0:0:0:
271,227,19710,1,8,0:0:0:0:
271,227,20075,6,0,B|352:182|352:182|422:233,1,179.999994506836,2|8,0:0|0:0,0:0:0:0:
271,227,20624,2,0,P|344:258|426:232,1,165.000005035401,2|8,0:0|0:0,0:0:0:0:
223,117,21539,6,0,B|142:72|142:72|72:123,1,179.999994506836,2|8,0:0|0:0,0:0:0:0:
222,117,22088,2,0,P|149:149|71:122,1,165.000005035401,2|8,0:0|0:0,0:0:0:0:
320,336,23002,6,0,P|255:295|191:336,1,160,2|8,0:0|0:0,0:0:0:0:
320,336,23551,2,0,P|256:303|191:336,1,150.000005722046,2|0,0:0|0:0,0:0:0:0:
320,336,24100,2,0,P|256:312|191:336,1,139.999995727539,8|2,0:0|0:0,0:0:0:0:
320,336,24649,2,0,P|256:329|191:336,1,129.999994049073,0|2,0:0|0:0,0:0:0:0:
144,162,25380,21,8,0:0:0:0:
256,78,25563,1,8,0:0:0:0:
368,162,25746,1,8,0:0:0:0:
256,322,25929,1,6,0:0:0:0:
256,322,26295,1,8,0:0:0:0:
206,227,26478,2,0,P|138:197|64:205,1,150.000005722046,2|2,0:0|0:0,0:0:0:0:
199,122,27027,5,8,0:0:0:0:
108,107,27210,1,0,0:0:0:0:
257,50,27393,1,2,0:0:0:0:
166,35,27575,1,0,0:0:0:0:
232,209,27758,1,8,0:0:0:0:
291,137,27941,2,0,P|326:125|363:126,1,75.0000028610231,2|0,0:0|0:0,0:0:0:0:
441,179,28307,1,2,0:0:0:0:
355,327,28490,5,8,0:0:0:0:
340,223,28673,1,0,0:0:0:0:
186,298,28856,1,2,0:0:0:0:
258,374,29039,1,0,0:0:0:0:
236,205,29222,1,8,0:0:0:0:
191,113,29405,1,2,0:0:0:0:
191,113,29771,5,2,0:0:0:0:
22,142,29954,1,8,0:0:0:0:
94,66,30137,1,2,0:0:0:0:
176,217,30320,1,2,0:0:0:0:
72,235,30503,1,0,0:0:0:0:
206,319,30686,1,8,0:0:0:0:
280,243,30868,2,0,P|315:231|352:232,1,75.0000028610231,2|0,0:0|0:0,0:0:0:0:
447,283,31234,1,2,0:0:0:0:
498,123,31417,2,0,P|510:158|509:196,1,75.0000028610231,8|0,0:0|0:0,0:0:0:0:
356,338,31783,22,0,B|271:375|271:375|206:318,1,179.999994506836,2|8,0:0|0:0,0:0:0:0:
356,338,32332,2,0,P|281:300|201:319,1,165.000005035401,2|8,0:0|0:0,0:0:0:0:
156,46,33246,6,0,B|240:8|240:8|305:65,1,179.999994506836,2|8,0:0|0:0,0:0:0:0:
156,46,33795,2,0,P|226:84|305:66,1,165.000005035401,2|8,0:0|0:0,0:0:0:0:
461,279,34710,5,2,0:0:0:0:
444,242,34801,1,2,0:0:0:0:
415,217,34892,1,2,0:0:0:0:
377,207,34984,1,2,0:0:0:0:
338,218,35075,1,10,0:0:0:0:
310,247,35166,1,2,0:0:0:0:
297,284,35258,6,0,P|298:303|302:322,5,40,2|2|2|2|2|2,0:0|0:0|0:0|0:0|0:0|0:0,0:0:0:0:
288,360,35807,1,10,0:0:0:0:
272,329,35898,1,2,0:0:0:0:
247,305,35989,1,2,0:0:0:0:
214,292,36081,1,2,0:0:0:0:
180,290,36172,1,2,0:0:0:0:
146,301,36264,1,2,0:0:0:0:
119,322,36356,22,0,P|102:317|84:314,5,34.9999989318848,2|2|10|2|2|2,0:0|0:0|0:0|0:0|0:0|0:0,0:0:0:0:
38,242,36905,2,0,P|42:225|45:207,7,29.9999990844727,2|2|2|2|10|2|2|2,0:0|0:0|0:0|0:0|0:0|0:0|0:0|0:0,0:0:0:0:
0,140,37636,5,6,0:0:0:0:
0,140,38002,1,2,0:0:0:0:
157,183,38368,2,0,P|142:185|128:188,1,29.9999990844727,12|0,0:0|0:0,0:0:0:0:
512,140,39100,5,2,0:0:0:0:
512,140,39466,1,2,0:0:0:0:
354,183,39832,2,0,P|369:185|384:188,1,29.9999990844727,12|0,0:0|0:0,0:0:0:0:
172,346,40563,5,2,0:0:0:0:
172,346,40929,1,2,0:0:0:0:
128,188,41295,2,0,P|125:202|123:217,1,29.9999990844727,12|0,0:0|0:0,0:0:0:0:
340,346,42027,21,2,0:0:0:0:
340,346,42393,1,2,0:0:0:0:
384,188,42759,2,0,P|386:202|388:217,1,29.9999990844727,12|0,0:0|0:0,0:0:0:0:
256,96,43490,5,2,0:0:0:0:
159,65,43673,1,0,0:0:0:0:
128,162,43856,1,2,0:0:0:0:
225,193,44039,1,0,0:0:0:0:
52,230,44222,1,12,0:0:0:0:
149,261,44405,1,0,0:0:0:0:
149,261,44771,1,0,0:0:0:0:
256,96,44954,5,2,0:0:0:0:
353,65,45137,1,0,0:0:0:0:
384,162,45320,1,2,0:0:0:0:
287,192,45503,1,0,0:0:0:0:
460,230,45686,1,12,0:0:0:0:
363,261,45869,1,0,0:0:0:0:
363,261,46417,5,2,0:0:0:0:
266,292,46600,2,0,P|202:264|134:275,1,139.999995727539
32,141,47149,1,12,0:0:0:0:
131,172,47332,1,2,0:0:0:0:
35,244,47514,1,0,0:0:0:0:
134,275,47697,1,0,0:0:0:0:
131,175,49344,22,0,P|183:147|241:154,1,120,6|0,0:0|0:0,0:0:0:0:
253,165,49710,1,8,0:0:0:0:
480,205,49893,1,2,0:0:0:0:
391,240,50075,1,0,0:0:0:0:
345,155,50258,2,0,P|346:115|357:76,1,80,2|8,0:0|0:0,0:0:0:0:
267,249,50624,2,0,P|244:172|202:104,1,160,0|0,0:0|0:0,0:0:0:0:
227,340,51173,1,8,0:0:0:0:
80,247,51356,5,2,0:0:0:0:
117,156,51539,1,0,0:0:0:0:
202,104,51722,1,2,0:0:0:0:
300,111,51905,1,8,0:0:0:0:
375,173,52088,1,0,0:0:0:0:
253,316,52271,6,0,L|216:163,1,120,6|0,0:0|0:0,0:0:0:0:
222,188,52636,1,8,0:0:0:0:
347,335,52819,2,0,P|355:296|374:262,1,80,2|0,0:0|0:0,0:0:0:0:
178,375,53185,2,0,P|153:343|119:321,1,80,2|8,0:0|0:0,0:0:0:0:
306,164,53551,2,0,P|213:143|137:204,1,200,0|0,0:0|0:0,0:0:0:0:
133,216,54100,6,0,P|137:176|129:137,1,80,8|2,0:0|0:0,0:0:0:0:
312,170,54466,2,0,P|290:136|279:98,1,80,2|2,0:0|0:0,0:0:0:0:
237,253,54832,1,10,0:0:0:0:
216,165,55014,1,2,0:0:0:0:
258,341,55197,22,0,L|383:326,1,120,6|0,0:0|0:0,0:0:0:0:
389,325,55563,1,8,0:0:0:0:
157,243,55746,2,0,L|236:252,1,80,2|0,0:0|0:0,0:0:0:0:
20,340,56112,2,0,L|99:330,1,80,2|8,0:0|0:0,0:0:0:0:
338,233,56478,5,0,0:0:0:0:
397,155,56661,1,2,0:0:0:0:
491,183,56844,1,0,0:0:0:0:
300,143,57027,2,0,P|275:111|261:74,1,80,8|2,0:0|0:0,0:0:0:0:
466,86,57393,2,0,P|466:46|455:7,1,80,2|2,0:0|0:0,0:0:0:0:
397,155,57758,1,10,0:0:0:0:
432,261,57941,1,2,0:0:0:0:
228,365,58124,6,0,L|103:350,1,120,4|0,0:0|0:0,0:0:0:0:
97,349,58490,1,8,0:0:0:0:
329,267,58673,2,0,L|249:276,1,80,2|0,0:0|0:0,0:0:0:0:
249,276,59039,1,2,0:0:0:0:
465,363,59222,6,0,P|427:355|387:353,1,80,8|0,0:0|0:0,0:0:0:0:
199,212,59588,2,0,P|227:241|249:275,1,80,2|0,0:0|0:0,0:0:0:0:
433,107,59954,22,0,L|394:177,1,80,8|2,0:0|0:0,0:0:0:0:
343,266,60319,1,0,0:0:0:0:
394,176,60502,1,2,0:0:0:0:
244,256,60685,1,8,0:0:0:0:
271,74,60868,1,0,0:0:0:0:
264,63,60960,1,0,0:0:0:0:
255,54,61051,6,0,P|203:26|145:33,1,120,6|0,0:0|0:0,0:0:0:0:
133,44,61417,1,8,0:0:0:0:
290,170,61600,1,2,0:0:0:0:
290,170,61691,1,0,0:0:0:0:
290,170,61783,1,0,0:0:0:0:
357,89,61966,2,0,P|356:49|345:10,1,80,2|8,0:0|0:0,0:0:0:0:
435,183,62332,2,0,P|458:106|500:38,1,160,0|0,0:0|0:0,0:0:0:0:
475,274,62881,1,8,0:0:0:0:
335,166,63063,5,2,0:0:0:0:
260,104,63246,1,0,0:0:0:0:
162,97,63429,1,2,0:0:0:0:
77,149,63612,1,8,0:0:0:0:
32,224,63795,1,0,0:0:0:0:
288,265,63978,5,6,0:0:0:0:
232,186,64161,1,0,0:0:0:0:
139,207,64344,1,8,0:0:0:0:
115,302,64527,2,0,P|87:272|51:253,1,80,2|0,0:0|0:0,0:0:0:0:
288,265,64893,2,0,P|303:227|331:197,1,80,2|8,0:0|0:0,0:0:0:0:
91,162,65258,2,0,B|147:145|168:104|168:104|202:135|263:133,1,200,0|0,0:0|0:0,0:0:0:0:
269,138,65807,22,0,P|288:104|317:77,1,80,8|2,0:0|0:0,0:0:0:0:
86,175,66173,2,0,P|55:151|18:136,1,80,2|2,0:0|0:0,0:0:0:0:
188,205,66539,1,10,0:0:0:0:
169,105,66722,1,2,0:0:0:0:
128,287,66905,6,0,B|197:248|197:248|277:258,1,160,4|8,0:0|0:0,0:0:0:0:
277,258,67636,1,0,0:0:0:0:
217,348,67819,1,2,0:0:0:0:
385,265,68002,1,8,0:0:0:0:
325,355,68185,1,0,0:0:0:0:
178,257,68368,2,0,P|143:237|115:208,1,80,2|0,0:0|0:0,0:0:0:0:
335,180,68734,2,0,P|340:140|333:101,1,80,8|2,0:0|0:0,0:0:0:0:
176,53,69100,6,0,L|228:160,1,120,2|2,0:0|0:0,0:0:0:0:
233,172,69466,1,10,0:0:0:0:
277,258,69649,1,2,0:0:0:0:
88,279,69832,6,0,P|147:279|198:311,1,120,4|0,0:0|0:0,0:0:0:0:
201,325,70197,1,8,0:0:0:0:
377,351,70380,2,0,L|297:360,1,80,2|0,0:0|0:0,0:0:0:0:
297,359,70746,1,2,0:0:0:0:
116,382,70929,1,8,0:0:0:0:
193,270,71112,1,4,0:0:0:0:
256,192,71204,12,2,72758,0:0:0:0:
271,211,72941,21,2,0:0:0:0:
250,216,73124,1,2,0:0:0:0:
233,203,73307,1,2,0:0:0:0:
233,181,73490,1,2,0:0:0:0:
250,167,73673,1,2,0:0:0:0:
271,172,73856,1,2,0:0:0:0:
281,192,74039,1,2,0:0:0:0:
270,211,74222,6,0,P|258:214|245:217,3,25,2|2|2|2,0:0|0:0|0:0|0:0,0:0:0:0:
171,181,74588,2,0,P|159:177|146:174,3,25,2|2|2|2,0:0|0:0|0:0|0:0,0:0:0:0:
62,196,74954,1,4,3:0:0:0:
62,196,75045,1,4,3:0:0:0:
62,196,75136,1,4,3:0:0:0:
62,196,75228,1,4,3:0:0:0:
62,196,75319,1,8,0:0:0:0:
256,96,75685,5,8,0:0:0:0:
256,96,76051,1,8,0:0:0:0:
256,288,76417,1,12,0:0:0:0:
256,288,77149,5,2,0:0:0:0:
346,268,77332,1,0,0:0:0:0:
236,198,77515,1,8,0:0:0:0:
146,178,77698,1,2,0:0:0:0:
256,108,77880,2,0,P|323:78|397:86,1,150.000005722046,0|8,0:0|0:0,0:0:0:0:
174,103,78429,2,0,P|208:117|245:117,1,75.0000028610231,0|2,0:0|0:0,0:0:0:0:
320,55,78795,21,0,0:0:0:0:
425,168,78978,1,8,0:0:0:0:
350,230,79161,1,2,0:0:0:0:
440,257,79344,1,0,0:0:0:0:
335,141,79527,1,2,0:0:0:0:
276,286,79710,1,8,0:0:0:0:
276,286,80259,5,0,0:0:0:0:
211,164,80441,1,8,0:0:0:0:
187,260,80624,1,2,0:0:0:0:
327,371,80807,1,0,0:0:0:0:
276,286,80989,1,2,0:0:0:0:
409,327,81172,1,8,0:0:0:0:
409,327,81722,5,0,0:0:0:0:
358,242,81904,1,8,0:0:0:0:
443,191,82088,1,2,0:0:0:0:
486,300,82271,1,0,0:0:0:0:
384,319,82453,1,2,0:0:0:0:
365,217,82637,1,8,0:0:0:0:
467,198,82819,1,0,0:0:0:0:
281,151,83002,6,0,P|233:125|179:132,1,112.500004291535,2|0,0:0|0:0,0:0:0:0:
168,143,83368,1,8,0:0:0:0:
42,54,83551,2,0,P|72:121|64:195,1,150.000005722046,2|2,0:0|0:0,0:0:0:0:
0,324,84100,1,8,0:0:0:0:
127,313,84283,21,0,0:0:0:0:
127,313,84374,1,0,0:0:0:0:
127,313,84466,1,2,0:0:0:0:
217,346,84649,1,0,0:0:0:0:
289,277,84832,1,8,0:0:0:0:
456,257,85014,1,2,0:0:0:0:
456,257,85105,1,0,0:0:0:0:
456,257,85197,1,0,0:0:0:0:
381,315,85380,1,2,0:0:0:0:
289,277,85563,1,8,0:0:0:0:
309,384,85746,1,2,0:0:0:0:
281,233,85929,5,2,0:0:0:0:
260,199,86020,1,0,0:0:0:0:
230,174,86111,1,0,0:0:0:0:
193,159,86203,1,0,0:0:0:0:
153,158,86294,1,8,0:0:0:0:
115,171,86386,1,0,0:0:0:0:
83,195,86478,6,0,P|72:212|65:230,5,37.5000014305115,2|0|0|0|2|0,0:0|0:0|0:0|0:0|0:0|0:0,0:0:0:0:
82,266,87027,1,8,0:0:0:0:
115,255,87119,1,0,0:0:0:0:
149,257,87210,1,2,0:0:0:0:
181,269,87302,1,2,0:0:0:0:
206,293,87393,1,2,0:0:0:0:
222,324,87484,1,0,0:0:0:0:
224,354,87575,6,0,P|241:365|259:372,5,34.9999989318848,2|0|8|0|2|2,0:0|0:0|0:0|0:0|0:0|0:0,0:0:0:0:
335,344,88124,2,0,P|352:333|370:326,7,29.9999990844727,2|0|2|2|10|0|2|0,0:0|0:0|0:0|0:0|0:0|0:0|0:0|0:0,0:0:0:0:
451,318,88856,21,4,0:0:0:0:
451,318,89222,1,2,0:0:0:0:
408,161,89588,2,0,P|406:176|403:190,1,29.9999990844727,12|0,0:0|0:0,0:0:0:0:
61,318,90319,5,2,0:0:0:0:
61,318,90685,1,2,0:0:0:0:
104,161,91051,2,0,P|106:176|109:190,1,29.9999990844727,12|0,0:0|0:0,0:0:0:0:
356,277,91783,5,2,0:0:0:0:
356,277,92149,1,2,0:0:0:0:
512,234,92515,2,0,P|497:232|483:229,1,29.9999990844727,12|0,0:0|0:0,0:0:0:0:
156,277,93246,5,2,0:0:0:0:
156,277,93612,1,2,0:0:0:0:
0,234,93978,2,0,P|15:232|29:229,1,29.9999990844727,12|0,0:0|0:0,0:0:0:0:
256,92,94710,21,2,0:0:0:0:
159,61,94893,1,0,0:0:0:0:
128,158,95076,1,2,0:0:0:0:
225,189,95259,1,0,0:0:0:0:
52,226,95442,1,12,0:0:0:0:
149,257,95625,1,0,0:0:0:0:
149,257,95991,1,0,0:0:0:0:
256,92,96174,5,2,0:0:0:0:
353,61,96357,1,0,0:0:0:0:
384,162,96540,1,2,0:0:0:0:
287,192,96723,1,0,0:0:0:0:
460,230,96906,1,12,0:0:0:0:
363,261,97089,1,0,0:0:0:0:
363,261,97636,5,2,0:0:0:0:
420,340,97819,2,0,P|356:312|288:323,1,139.999995727539,0|0,0:0|0:0,0:0:0:0:
128,272,98368,1,12,0:0:0:0:
190,354,98551,1,2,0:0:0:0:
225,239,98733,1,0,0:0:0:0:
128,166,98916,1,0,0:0:0:0:
128,166,100563,6,0,P|100:114|107:56,1,120,6|0,0:0|0:0,0:0:0:0:
118,44,100929,1,8,0:0:0:0:
221,189,101112,1,2,0:0:0:0:
196,96,101295,1,0,0:0:0:0:
289,124,101478,2,0,P|288:84|277:45,1,80,2|8,0:0|0:0,0:0:0:0:
367,218,101844,2,0,P|390:141|432:73,1,160,0|0,0:0|0:0,0:0:0:0:
416,313,102393,1,8,0:0:0:0:
212,284,102575,21,2,0:0:0:0:
196,188,102758,1,0,0:0:0:0:
242,100,102941,1,2,0:0:0:0:
330,54,103124,1,8,0:0:0:0:
431,73,103307,1,0,0:0:0:0:
397,253,103490,6,0,L|284:142,1,120,6|0,0:0|0:0,0:0:0:0:
303,161,103855,1,8,0:0:0:0:
365,344,104039,2,0,P|327:330|288:329,1,80,2|0,0:0|0:0,0:0:0:0:
487,220,104405,2,0,P|472:182|471:141,1,80,2|8,0:0|0:0,0:0:0:0:
239,220,104770,2,0,B|266:123|266:123|362:97,1,200,0|0,0:0|0:0,0:0:0:0:
374,99,105319,6,0,P|374:57|386:20,1,80,8|2,0:0|0:0,0:0:0:0:
242,229,105685,2,0,P|200:229|163:241,1,80,2|2,0:0|0:0,0:0:0:0:
420,275,106051,1,10,0:0:0:0:
352,207,106233,1,2,0:0:0:0:
199,345,106417,6,0,L|74:330,1,120,4|0,0:0|0:0,0:0:0:0:
68,329,106783,1,8,0:0:0:0:
300,247,106966,2,0,L|221:256,1,80,2|0,0:0|0:0,0:0:0:0:
437,344,107332,2,0,L|358:334,1,80,2|8,0:0|0:0,0:0:0:0:
220,256,107697,21,0,0:0:0:0:
161,178,107880,1,2,0:0:0:0:
67,206,108063,1,0,0:0:0:0:
258,166,108246,2,0,P|283:134|297:97,1,80,8|2,0:0|0:0,0:0:0:0:
92,109,108612,2,0,P|92:69|103:30,1,80,2|2,0:0|0:0,0:0:0:0:
161,178,108977,1,10,0:0:0:0:
126,284,109160,1,2,0:0:0:0:
319,215,109344,6,0,L|304:90,1,120,4|0,0:0|0:0,0:0:0:0:
303,84,109710,1,8,0:0:0:0:
512,134,109893,2,0,L|432:143,1,80,2|0,0:0|0:0,0:0:0:0:
432,142,110259,1,2,0:0:0:0:
319,215,110442,6,0,P|310:254|309:294,1,80,8|0,0:0|0:0,0:0:0:0:
132,294,110807,2,0,P|130:254|122:214,1,80,2|0,0:0|0:0,0:0:0:0:
223,72,111174,6,0,L|302:83,1,80,8|2,0:0|0:0,0:0:0:0:
349,189,111539,1,0,0:0:0:0:
400,99,111722,1,2,0:0:0:0:
250,179,111905,1,8,0:0:0:0:
138,39,112088,1,0,0:0:0:0:
127,46,112180,1,0,0:0:0:0:
118,54,112271,22,0,P|90:106|97:164,1,120,6|0,0:0|0:0,0:0:0:0:
106,174,112637,1,8,0:0:0:0:
173,279,112820,1,2,0:0:0:0:
173,279,112911,1,0,0:0:0:0:
173,279,113003,1,0,0:0:0:0:
328,167,113186,2,0,P|288:168|249:179,1,80,2|8,0:0|0:0,0:0:0:0:
452,280,113552,2,0,P|373:291|293:282,1,160,0|0,0:0|0:0,0:0:0:0:
440,172,114101,1,8,0:0:0:0:
265,8,114283,5,2,0:0:0:0:
215,91,114466,1,0,0:0:0:0:
223,189,114649,1,2,0:0:0:0:
288,265,114832,1,8,0:0:0:0:
369,298,115015,1,0,0:0:0:0:
403,142,115197,5,6,0:0:0:0:
306,136,115380,1,0,0:0:0:0:
223,189,115563,1,8,0:0:0:0:
185,281,115746,2,0,P|146:274|107:282,1,80,2|0,0:0|0:0,0:0:0:0:
403,142,116112,2,0,P|409:102|431:68,1,80,2|8,0:0|0:0,0:0:0:0:
280,227,116478,2,0,B|277:85|277:85|305:135,1,200,0|0,0:0|0:0,0:0:0:0:
313,143,117027,6,0,B|274:125|274:125|237:130,1,80,8|2,0:0|0:0,0:0:0:0:
40,141,117393,2,0,B|79:123|79:123|116:129,1,80,2|0,0:0|0:0,0:0:0:0:
256,229,117759,1,10,0:0:0:0:
237,129,117942,1,2,0:0:0:0:
191,297,118125,22,0,B|260:258|260:258|340:268,1,160,4|8,0:0|0:0,0:0:0:0:
340,268,118856,1,0,0:0:0:0:
400,358,119039,1,2,0:0:0:0:
448,261,119222,1,8,0:0:0:0:
508,351,119405,1,0,0:0:0:0:
291,363,119588,2,0,P|253:353|213:353,1,80,2|0,0:0|0:0,0:0:0:0:
297,168,119954,2,0,P|258:178|218:178,1,80,8|2,0:0|0:0,0:0:0:0:
340,268,120320,6,0,P|395:286|448:261,1,120,2|2,0:0|0:0,0:0:0:0:
463,251,120686,1,10,0:0:0:0:
390,199,120869,1,2,0:0:0:0:
196,193,121052,6,0,P|255:193|306:161,1,120,4|0,0:0|0:0,0:0:0:0:
317,147,121417,1,8,0:0:0:0:
220,18,121600,2,0,L|229:98,1,80,2|0,0:0|0:0,0:0:0:0:
228,97,121966,1,2,0:0:0:0:
409,120,122149,1,8,0:0:0:0:
332,8,122332,1,4,0:0:0:0:
256,192,122424,12,2,123978,0:0:0:0:
271,211,124161,5,2,0:0:0:0:
250,216,124344,1,2,0:0:0:0:
233,203,124527,1,2,0:0:0:0:
233,181,124710,1,2,0:0:0:0:
250,167,124893,1,2,0:0:0:0:
271,172,125076,1,2,0:0:0:0:
281,192,125259,1,2,0:0:0:0:
256,192,125441,21,4,0:0:0:0:
256,128,131295,6,0,L|256:96,7,25,8|0|8|0|8|0|8|0,0:0|0:0|0:0|0:0|0:0|0:0|0:0|0:0,0:0:0:0:
256,256,132758,6,0,L|256:288,7,25,8|0|8|0|8|0|8|0,0:0|0:0|0:0|0:0|0:0|0:0|0:0|0:0,0:0:0:0:
192,192,134222,6,0,L|160:192,7,25,8|0|8|0|8|0|8|0,0:0|0:0|0:0|0:0|0:0|0:0|0:0|0:0,0:0:0:0:
320,192,135685,22,0,L|352:192,7,25,8|0|8|0|8|0|8|2,0:0|0:0|0:0|0:0|0:0|0:0|0:0|0:0,0:0:0:0:
255,191,138612,6,0,P|212:168|163:174,1,100,4|4,1:3|1:3,0:0:0:0:
70,191,139344,6,0,P|119:197|163:174,1,100,12|0,0:0|0:0,0:0:0:0:
257,191,140075,6,0,P|280:148|274:99,1,100,4|4,1:3|1:3,0:0:0:0:
257,5,140807,22,0,P|251:55|274:99,1,100,12|0,0:0|0:0,0:0:0:0:
257,193,141539,6,0,P|300:216|349:210,1,100,4|4,1:3|1:3,0:0:0:0:
442,193,142271,6,0,P|393:187|349:210,1,100,12|0,0:0|0:0,0:0:0:0:
255,193,143002,6,0,P|232:236|238:285,1,100,4|4,1:3|1:3,0:0:0:0:
255,378,143734,22,0,P|261:329|238:285,1,100,12|0,0:0|0:0,0:0:0:0:
255,192,144466,5,2,0:0:0:0:
246,202,144648,1,2,0:0:0:0:
239,215,144831,1,2,0:0:0:0:
234,228,145014,1,2,0:0:0:0:
231,242,145197,1,12,0:0:0:0:
231,256,145380,1,2,0:0:0:0:
233,270,145563,1,2,0:0:0:0:
238,284,145746,1,2,0:0:0:0:
273,284,145929,5,2,0:0:0:0:
278,270,146112,1,2,0:0:0:0:
280,256,146295,1,2,0:0:0:0:
280,242,146478,1,2,0:0:0:0:
277,228,146661,1,12,0:0:0:0:
272,215,146844,1,2,0:0:0:0:
265,202,147027,1,2,0:0:0:0:
256,192,147209,1,2,0:0:0:0:
256,171,147393,6,0,L|256:128,16,25,2|2|2|2|10|2|2|2|12|2|2|2|10|2|2|2|2,0:0|0:0|0:0|0:0|0:0|0:0|0:0|0:0|0:0|0:0|0:0|0:0|0:0|0:0|0:0|0:0|0:0,0:0:0:0:
289,114,150319,22,0,P|346:125|402:104,1,120,6|0,0:0|0:0,0:0:0:0:
408,96,150685,1,8,0:0:0:0:
208,36,150868,1,2,0:0:0:0:
180,145,151051,1,0,0:0:0:0:
152,254,151234,2,0,L|231:255,1,80,2|8,0:0|0:0,0:0:0:0:
123,362,151600,6,0,P|60:316|42:240,1,160,0|0,0:0|0:0,0:0:0:0:
71,117,152149,1,8,0:0:0:0:
150,37,152332,1,2,0:0:0:0:
180,145,152514,1,0,0:0:0:0:
157,28,152697,1,2,0:0:0:0:
265,56,152880,1,8,0:0:0:0:
187,136,153062,1,0,0:0:0:0:
221,339,153246,6,0,P|278:351|330:323,1,120,6|0,0:0|0:0,0:0:0:0:
331,316,153612,1,8,0:0:0:0:
152,254,153795,2,0,L|75:276,1,80,2|0,0:0|0:0,0:0:0:0:
187,136,154161,2,0,L|263:158,1,80,2|8,0:0|0:0,0:0:0:0:
352,326,154527,6,0,B|337:189|337:189|356:226|377:234,1,200,0|0,0:0|0:0,0:0:0:0:
392,227,155075,2,0,P|428:213|466:221,1,80,8|2,0:0|0:0,0:0:0:0:
340,336,155441,2,0,P|303:350|265:342,1,80,2|2,0:0|0:0,0:0:0:0:
208,261,155807,1,10,0:0:0:0:
304,260,155990,1,2,0:0:0:0:
175,348,156173,22,0,B|112:364|112:364|56:344,1,120,4|0,0:0|0:0,0:0:0:0:
53,338,156539,1,8,0:0:0:0:
32,227,156722,2,0,L|107:254,1,80,2|0,0:0|0:0,0:0:0:0:
11,116,157088,2,0,L|86:143,1,80,2|8,0:0|0:0,0:0:0:0:
107,254,157454,1,0,0:0:0:0:
208,261,157636,1,2,0:0:0:0:
309,268,157819,1,0,0:0:0:0:
214,159,158002,6,0,P|203:121|205:82,1,80,8|2,0:0|0:0,0:0:0:0:
208,261,158368,2,0,P|210:300|198:338,1,80,2|2,0:0|0:0,0:0:0:0:
315,166,158734,1,10,0:0:0:0:
309,268,158917,1,2,0:0:0:0:
426,124,159100,6,0,P|371:146|311:142,1,120,4|0,0:0|0:0,0:0:0:0:
312,123,159466,1,8,0:0:0:0:
226,169,159649,2,0,P|213:131|217:91,1,80,2|0,0:0|0:0,0:0:0:0:
217,91,160014,1,2,0:0:0:0:
170,255,160197,2,0,P|142:226|129:188,1,80,8|0,0:0|0:0,0:0:0:0:
280,272,160563,6,0,P|266:309|239:338,1,80,2|0,0:0|0:0,0:0:0:0:
108,338,160929,2,0,P|80:309|67:271,1,80,8|2,0:0|0:0,0:0:0:0:
170,255,161295,1,0,0:0:0:0:
226,169,161478,1,2,0:0:0:0:
124,164,161661,1,8,0:0:0:0:
285,87,161844,1,0,0:0:0:0:
296,94,161936,1,0,0:0:0:0:
304,102,162027,22,0,P|329:155|319:212,1,120,6|0,0:0|0:0,0:0:0:0:
313,222,162393,1,8,0:0:0:0:
124,164,162576,1,2,0:0:0:0:
124,164,162667,1,0,0:0:0:0:
124,164,162759,1,0,0:0:0:0:
180,61,162942,2,0,P|218:70|256:59,1,80,2|8,0:0|0:0,0:0:0:0:
37,89,163308,2,0,B|-5:123|11:174|11:174|34:234,1,160,0|0,0:0|0:0,0:0:0:0:
226,169,163856,1,8,0:0:0:0:
170,255,164039,5,2,0:0:0:0:
380,255,164222,1,0,0:0:0:0:
324,169,164405,1,2,0:0:0:0:
275,253,164588,1,8,0:0:0:0:
275,85,164771,1,0,0:0:0:0:
226,169,164954,5,6,0:0:0:0:
324,169,165136,1,0,0:0:0:0:
170,255,165319,1,8,0:0:0:0:
380,255,165502,2,0,P|419:253|453:232,1,80,2|0,0:0|0:0,0:0:0:0:
170,255,165868,2,0,P|130:256|96:277,1,80,2|8,0:0|0:0,0:0:0:0:
278,351,166234,6,0,B|263:302|263:302|291:218|291:218|274:159,1,200,0|0,0:0|0:0,0:0:0:0:
255,160,166783,2,0,P|217:168|178:158,1,80,8|2,0:0|0:0,0:0:0:0:
178,53,167149,2,0,P|216:44|255:54,1,80,2|2,0:0|0:0,0:0:0:0:
359,54,167514,1,10,0:0:0:0:
485,167,167697,1,2,0:0:0:0:
485,167,167789,1,2,0:0:0:0:
485,167,167880,22,0,P|410:148|353:200,1,160,4|8,0:0|0:0,0:0:0:0:
353,200,168612,1,0,0:0:0:0:
368,304,168795,1,2,0:0:0:0:
249,188,168978,1,8,0:0:0:0:
264,292,169161,1,0,0:0:0:0:
145,176,169344,6,0,L|135:97,1,80,2|0,0:0|0:0,0:0:0:0:
353,200,169710,2,0,L|363:279,1,80,8|2,0:0|0:0,0:0:0:0:
316,103,170075,2,0,P|374:99|425:129,1,120,2|2,0:0|0:0,0:0:0:0:
426,142,170441,1,10,0:0:0:0:
353,200,170624,1,2,0:0:0:0:
133,199,170807,6,0,B|177:180|177:180|248:187,1,120,4|0,0:0|0:0,0:0:0:0:
248,200,171173,1,8,0:0:0:0:
152,306,171356,2,0,L|52:295,1,80,2|0,0:0|0:0,0:0:0:0:
72,297,171722,1,2,0:0:0:0:
1,129,171905,1,8,0:0:0:0:
129,172,172088,1,0,0:0:0:0:
103,40,172271,6,0,P|122:43|142:42,3,40,2|0|0|0,0:0|0:0|0:0|0:0,0:0:0:0:
157,38,172636,1,8,0:0:0:0:
129,172,172819,1,2,0:0:0:0:
254,130,173002,1,0,0:0:0:0:
157,38,173185,1,2,0:0:0:0:
129,172,173368,1,8,0:0:0:0:
254,130,173551,1,0,0:0:0:0:
422,240,173734,22,0,P|363:236|313:267,1,120,6|0,0:0|0:0,0:0:0:0:
307,282,174100,1,8,0:0:0:0:
511,180,174283,2,0,P|432:178|363:140,1,160,2|0,0:0|0:0,0:0:0:0:
217,95,174832,2,0,P|253:79|293:76,1,80,8|0,0:0|0:0,0:0:0:0:
236,280,175197,6,0,P|232:221|263:171,1,120,2|0,0:0|0:0,0:0:0:0:
278,165,175563,1,8,0:0:0:0:
269,366,175746,2,0,P|213:311|137:288,1,160,2|0,0:0|0:0,0:0:0:0:
297,242,176295,6,0,P|289:202|277:164,1,80,8|0,0:0|0:0,0:0:0:0:
379,301,176661,2,0,P|386:261|398:223,1,80,2|0,0:0|0:0,0:0:0:0:
93,107,177027,6,0,P|84:62|70:19,1,89.9999972534181,8|2,0:0|0:0,0:0:0:0:
233,194,177393,2,0,P|241:149|255:106,1,89.9999972534181,4|2,0:0|0:0,0:0:0:0:
252,271,177758,22,0,P|244:231|232:193,1,80,8|0,0:0|0:0,0:0:0:0:
334,330,178124,2,0,P|341:290|353:252,1,80,2|0,0:0|0:0,0:0:0:0:
48,136,178490,6,0,P|39:91|25:48,1,89.9999972534181,8|2,0:0|0:0,0:0:0:0:
188,222,178856,2,0,P|196:177|210:134,1,89.9999972534181,4|0,0:0|0:0,0:0:0:0:
210,135,179222,1,8,0:0:0:0:
210,135,179588,6,0,P|213:76|182:26,1,120,6|0,0:0|0:0,0:0:0:0:
167,20,179954,1,8,0:0:0:0:
157,214,180136,2,0,P|224:174|302:182,1,160,2|0,0:0|0:0,0:0:0:0:
444,261,180685,2,0,P|404:258|367:242,1,80,8|0,0:0|0:0,0:0:0:0:
473,55,181051,6,0,P|476:114|445:164,1,120,2|0,0:0|0:0,0:0:0:0:
430,170,181417,1,8,0:0:0:0:
375,87,181600,1,2,0:0:0:0:
343,228,181783,1,0,0:0:0:0:
244,243,181966,1,2,0:0:0:0:
145,258,182149,1,8,0:0:0:0:
70,106,182332,22,0,P|154:48|177:147,1,240,4|8,0:0|0:0,0:0:0:0:
228,368,183063,2,0,P|136:323|210:253,1,240,6|8,0:0|0:0,0:0:0:0:
376,100,183795,2,0,P|384:201|286:172,1,240,4|8,0:0|0:0,0:0:0:0:
497,93,184527,5,2,0:0:0:0:
501,190,184710,1,0,0:0:0:0:
446,273,184893,1,2,0:0:0:0:
354,308,185076,1,8,0:0:0:0:
260,284,185259,37,2,0:0:0:0:
