osu file format v14

[General]
AudioFilename: audio.mp3
AudioLeadIn: 0
PreviewTime: 48246
Countdown: 0
SampleSet: Soft
StackLeniency: 0.7
Mode: 0
LetterboxInBreaks: 0
WidescreenStoryboard: 0

[Editor]
Bookmarks: 14222,37637,77149,88856,138612
DistanceSpacing: 1
BeatDivisor: 2
GridSize: 4
TimelineZoom: 1.300003

[Metadata]
Title:Heart Shaker
TitleUnicode:Heart Shaker
Artist:TWICE
ArtistUnicode:트와이스
Creator:iYiyo
Version:Normal Shaker~
Source:
Tags:hazu- cosmolade pkhg kpop k-pop jyp entertainment japan korea once christmas xmas Merry & Happy sana jihyo dahyun nayeon jeongyeon chaeyoung momo mina tzuyu 나연 정연 모모 사나 지효 미나 다현 채영 쯔위
BeatmapID:1493420
BeatmapSetID:705597

[Difficulty]
HPDrainRate:4
CircleSize:3
OverallDifficulty:4
ApproachRate:5
SliderMultiplier:1.1
SliderTickRate:1

[Events]
//Background and Video events
0,0,"twice_xmas.png",0,0
Video,0,"TWICE 'Heart Shaker' MV.avi"
//Break Periods
2,125441,129975
//Storyboard Layer 0 (Background)
//Storyboard Layer 1 (Fail)
//Storyboard Layer 2 (Pass)
//Storyboard Layer 3 (Foreground)
//Storyboard Sound Samples

[TimingPoints]
1646,480,4,2,0,60,1,0
2515,365.853658536585,4,2,1,60,1,0
14222,-100,4,2,1,50,0,0
49344,-100,4,2,1,70,0,1
74222,-100,4,2,1,50,0,0
100563,-100,4,2,1,70,0,1
125441,-100,4,2,1,40,0,0
137057,-100,4,2,1,5,0,0
138612,-100,4,2,1,60,0,0
148856,-100,4,1,1,60,0,0
150319,-100,4,2,1,70,0,1
173734,-100,4,2,1,70,0,0

[Colours]
Combo1 : 248,199,52
Combo2 : 0,221,111
Combo3 : 255,51,51
Combo4 : 72,164,255
Combo5 : 232,232,232

[HitObjects]
200,88,1646,70,0,P|194:61|196:33,2,55,2|2|2,0:0|0:0|0:0,0:0:0:0:
304,144,2515,6,0,P|316:197|305:250,1,110,6|0,0:0|0:0,0:0:0:0:
268,292,3063,2,0,P|233:295|196:296,1,55,2|0,0:0|0:0,0:0:0:0:
124,232,3612,1,2,0:0:0:0:
103,124,3978,2,0,P|156:63|236:65,2,165,2|2|4,0:0|0:0|3:0,0:0:0:0:
124,231,5441,6,0,P|127:286|128:341,1,110,2|0,0:0|0:0,0:0:0:0:
232,308,6173,1,0,0:0:0:0:
268,204,6539,2,0,L|328:196,1,55,2|0,0:0|0:0,0:0:0:0:
364,232,6905,2,0,P|365:183|372:108,2,110,2|0|0,0:0|0:0|0:0,0:0:0:0:
336,340,8002,1,2,0:0:0:0:
236,292,8368,6,0,P|224:238|236:185,1,110,10|0,0:0|0:0,0:0:0:0:
256,136,8917,2,0,P|221:139|184:140,1,55,10|0,0:0|0:0,0:0:0:0:
96,104,9465,1,10,0:0:0:0:
187,44,9832,2,0,P|269:52|352:47,2,165,10|10|10,0:0|0:0|0:0,0:0:0:0:
96,104,11295,6,0,P|86:158|100:213,1,110,2|10,0:0|0:0,0:0:0:0:
176,292,12026,1,2,0:0:0:0:
284,300,12392,2,0,L|344:292,1,55,10|2,0:0|0:0,0:0:0:0:
356,240,12758,2,0,P|315:213|255:167,2,110,2|0|0,0:0|0:0|0:0,0:0:0:0:
460,208,13855,1,0,0:0:0:0:
448,100,14222,22,0,P|402:102|320:92,1,110,2|8,0:0|0:0,0:0:0:0:
288,72,14771,1,2,0:0:0:0:
288,72,14954,1,0,0:0:0:0:
184,108,15319,1,8,0:0:0:0:
128,204,15685,2,0,B|112:248|112:248|128:328,1,110,2|8,0:0|0:0,0:0:0:0:
234,309,16417,2,0,B|250:265|250:265|234:185,1,110,0|8,0:0|0:0,0:0:0:0:
183,107,17149,6,0,P|210:113|239:111,1,55,2|0,0:0|0:0,0:0:0:0:
284,80,17514,2,0,P|306:96|332:105,1,55,8|2,0:0|0:0,0:0:0:0:
387,115,17880,2,0,P|398:170|401:224,1,110,0|8,0:0|0:0,0:0:0:0:
340,316,18612,2,0,P|285:312|230:316,1,110,2|8,0:0|0:0,0:0:0:0:
180,344,19161,1,2,0:0:0:0:
180,344,19344,1,0,0:0:0:0:
88,284,19710,1,8,0:0:0:0:
96,176,20075,6,0,B|217:204|217:204|255:190,2,165,2|2|8,0:0|0:0|0:0,0:0:0:0:
96,65,21539,2,0,B|217:37|217:37|255:51,2,165,2|2|8,0:0|0:0|0:0,0:0:0:0:
96,176,23002,6,0,B|136:194|136:194|177:213|197:193,1,110,2|8,0:0|0:0,0:0:0:0:
240,160,23551,2,0,B|280:141|280:141|321:122|341:142,1,110,2|0,0:0|0:0,0:0:0:0:
376,184,24100,2,0,B|395:224|395:224|414:265|394:285,1,110,8|2,0:0|0:0,0:0:0:0:
340,276,24649,2,0,B|320:255|279:275|279:275|239:294,1,110,0|2,0:0|0:0,0:0:0:0:
232,348,25197,1,0,0:0:0:0:
340,368,25563,2,0,L|396:360,1,55,8|8,0:0|0:0,0:0:0:0:
436,324,25929,22,0,P|445:267|444:214,1,110,6|8,0:0|0:0,0:0:0:0:
432,160,26478,2,0,P|384:133|329:139,1,110,2|2,0:0|0:0,0:0:0:0:
276,148,27027,1,8,0:0:0:0:
164,164,27393,2,0,P|165:191|169:218,2,55,2|0|8,0:0|0:0|0:0,0:0:0:0:
120,132,27941,2,0,P|67:119|16:139,1,110,2|2,0:0|0:0,0:0:0:0:
8,196,28490,1,8,0:0:0:0:
20,304,28856,6,0,P|74:302|129:304,1,110,2|8,0:0|0:0,0:0:0:0:
172,336,29405,2,0,P|210:296|245:253,1,110,2|2,0:0|0:0,0:0:0:0:
260,200,29954,1,8,0:0:0:0:
347,135,30319,2,0,P|374:143|401:144,2,55,2|0|8,0:0|0:0|0:0,0:0:0:0:
340,80,30868,2,0,P|284:76|230:76,1,110,2|2,0:0|0:0,0:0:0:0:
176,80,31417,1,8,0:0:0:0:
100,159,31783,6,0,P|76:237|107:312,2,165,2|2|8,0:0|0:0|0:0,0:0:0:0:
210,159,33246,2,0,P|233:236|202:311,2,165,2|2|8,0:0|0:0|0:0,0:0:0:0:
144,68,34710,6,0,B|184:49|184:49|225:30|245:50,1,110,2|10,0:0|0:0,0:0:0:0:
276,100,35259,2,0,B|316:118|316:118|357:137|377:117,1,110,2|2,0:0|0:0,0:0:0:0:
428,100,35807,2,0,B|446:140|446:140|465:181|445:201,1,110,10|2,0:0|0:0,0:0:0:0:
396,232,36356,2,0,B|377:272|377:272|358:313|378:333,1,110,2|2,0:0|0:0,0:0:0:0:
328,360,36905,1,2,0:0:0:0:
252,280,37271,1,10,0:0:0:0:
160,216,37636,22,0,P|106:203|53:213,1,110,6|2,0:0|0:0,0:0:0:0:
24,320,38368,1,8,0:0:0:0:
244,332,39100,2,0,P|298:345|351:335,1,110,2|2,0:0|0:0,0:0:0:0:
380,228,39832,1,8,0:0:0:0:
188,116,40563,6,0,P|175:170|185:223,1,110,2|2,0:0|0:0,0:0:0:0:
292,252,41295,1,8,0:0:0:0:
500,184,42027,2,0,P|513:130|503:77,1,110,2|2,0:0|0:0,0:0:0:0:
396,48,42759,1,8,0:0:0:0:
304,108,43124,1,0,0:0:0:0:
208,56,43490,6,0,P|154:43|102:57,2,110,2|2|8,0:0|0:0|0:0,0:0:0:0:
204,167,44588,2,0,P|202:195|205:222,1,55,0|0,0:0|0:0,0:0:0:0:
236,268,44954,2,0,P|289:255|341:269,2,110,2|2|8,0:0|0:0|0:0,0:0:0:0:
140,320,46051,1,0,0:0:0:0:
60,244,46417,6,0,L|75:135,1,110,2|2,0:0|0:0,0:0:0:0:
116,32,47149,1,8,0:0:0:0:
227,17,47514,1,0,0:0:0:0:
185,120,47880,1,2,0:0:0:0:
185,120,49344,22,0,P|184:179|191:229,1,110,6|8,0:0|0:0,0:0:0:0:
216,276,49893,1,2,0:0:0:0:
216,276,50075,1,0,0:0:0:0:
320,308,50441,1,8,0:0:0:0:
376,303,50624,2,0,P|441:257|448:177,1,165,0|8,0:0|0:0,0:0:0:0:
396,80,51539,2,0,P|369:86|341:88,1,55,0|2,0:0|0:0,0:0:0:0:
312,40,51905,2,0,P|290:56|265:69,1,55,8|0,0:0|0:0,0:0:0:0:
212,72,52271,6,0,P|201:153|225:231,2,165,2|2|8,0:0|0:0|0:0,0:0:0:0:
112,28,53734,2,0,P|75:69|48:116,1,110,2|8,0:0|0:0,0:0:0:0:
52,228,54466,1,2,0:0:0:0:
136,300,54832,2,0,L|204:280,1,55,10|2,0:0|0:0,0:0:0:0:
236,316,55197,6,0,P|232:233|224:144,2,165,6|2|8,0:0|0:0|0:0,0:0:0:0:
344,332,56661,2,0,P|393:351|442:329,2,110,2|8|2,0:0|0:0|0:0,0:0:0:0:
324,224,57758,2,0,L|356:152,1,55,10|2,0:0|0:0,0:0:0:0:
372,124,58124,6,0,P|289:116|207:112,2,165,4|2|8,0:0|0:0|0:0,0:0:0:0:
448,203,59588,2,0,P|442:258|462:308,1,110,2|8,0:0|0:0,0:0:0:0:
352,324,60319,2,0,P|357:269|337:219,1,110,0|8,0:0|0:0,0:0:0:0:
232,255,61051,22,0,P|177:263|122:261,1,110,6|8,0:0|0:0,0:0:0:0:
72,236,61600,1,2,0:0:0:0:
72,236,61783,1,0,0:0:0:0:
36,132,62149,1,8,0:0:0:0:
52,80,62332,2,0,P|130:90|179:28,1,165,0|8,0:0|0:0,0:0:0:0:
268,92,63246,2,0,P|263:120|268:147,1,55,0|2,0:0|0:0,0:0:0:0:
320,160,63612,2,0,P|304:182|297:209,1,55,8|0,0:0|0:0,0:0:0:0:
315,260,63978,6,0,P|397:263|473:232,2,165,2|2|8,0:0|0:0|0:0,0:0:0:0:
208,240,65441,2,0,L|84:256,1,110,2|8,0:0|0:0,0:0:0:0:
60,152,66173,2,0,L|96:88,1,55,2|2,0:0|0:0,0:0:0:0:
142,104,66539,2,0,L|168:151,1,55,10|2,0:0|0:0,0:0:0:0:
224,148,66905,6,0,P|278:156|332:151,1,110,4|8,0:0|0:0,0:0:0:0:
384,128,67454,1,2,0:0:0:0:
448,212,67819,1,2,0:0:0:0:
412,256,68003,2,0,P|415:282|422:310,1,55,8|0,0:0|0:0,0:0:0:0:
376,340,68368,2,0,P|321:333|266:331,1,110,2|8,0:0|0:0,0:0:0:0:
300,224,69100,1,2,0:0:0:0:
236,132,69466,2,0,P|202:144|172:160,1,55,10|2,0:0|0:0,0:0:0:0:
172,208,69832,6,0,L|156:76,1,110,4|8,0:0|0:0,0:0:0:0:
188,52,70380,2,0,L|297:38,1,110,2|2,0:0|0:0,0:0:0:0:
352,52,70929,1,8,0:0:0:0:
352,52,71112,1,0,0:0:0:0:
256,192,71295,12,2,72758,0:0:0:0:
88,248,74222,22,0,P|66:198|84:148,1,110,2|2,0:0|0:0,0:0:0:0:
195,148,74954,2,0,P|216:197|198:247,1,110,4|8,3:0|0:0,0:0:0:0:
88,248,75685,1,8,0:0:0:0:
143,342,76051,1,8,0:0:0:0:
198,247,76417,1,12,0:0:0:0:
197,247,77149,6,0,P|251:234|303:248,1,110,2|8,0:0|0:0,0:0:0:0:
356,228,77697,1,2,0:0:0:0:
356,228,77880,1,0,0:0:0:0:
352,120,78245,1,8,0:0:0:0:
260,60,78612,2,0,B|216:44|216:44|136:60,1,110,2|8,0:0|0:0,0:0:0:0:
154,166,79344,2,0,B|198:182|198:182|278:166,1,110,0|8,0:0|0:0,0:0:0:0:
352,120,80075,6,0,P|379:126|408:124,1,55,2|0,0:0|0:0,0:0:0:0:
456,104,80441,1,8,0:0:0:0:
416,208,80807,2,0,P|410:235|412:264,1,55,0|2,0:0|0:0,0:0:0:0:
356,260,81173,2,0,P|361:287|376:312,1,55,8|0,0:0|0:0,0:0:0:0:
336,352,81539,1,2,0:0:0:0:
232,312,81905,2,0,P|230:281|232:248,1,55,8|2,0:0|0:0,0:0:0:0:
224,203,82271,2,0,P|171:218|118:204,1,110,0|8,0:0|0:0,0:0:0:0:
118,94,83002,6,0,B|191:66|191:66|244:44|273:69,2,165,2|2|8,0:0|0:0|0:0,0:0:0:0:
118,204,84466,2,0,B|190:232|190:232|243:254|273:229,2,165,2|2|8,0:0|0:0|0:0,0:0:0:0:
118,94,85929,22,0,B|158:76|158:76|199:57|219:77,1,110,2|8,0:0|0:0,0:0:0:0:
268,108,86478,2,0,B|308:127|308:127|349:146|369:126,1,110,2|2,0:0|0:0,0:0:0:0:
424,136,87027,2,0,B|444:156|425:197|425:197|406:237,1,110,8|2,0:0|0:0,0:0:0:0:
356,216,87575,2,0,B|336:236|355:277|355:277|374:317,1,110,2|2,0:0|0:0,0:0:0:0:
328,344,88123,1,2,0:0:0:0:
232,292,88490,2,0,P|199:285|178:289,1,55,10|2,0:0|0:0,0:0:0:0:
127,315,88856,6,0,P|104:267|114:214,1,110,4|2,0:0|0:0,0:0:0:0:
168,116,89588,1,8,0:0:0:0:
332,260,90319,2,0,P|283:283|230:273,1,110,2|2,0:0|0:0,0:0:0:0:
132,219,91052,1,8,0:0:0:0:
272,48,91783,6,0,P|320:24|373:34,1,110,2|2,0:0|0:0,0:0:0:0:
472,89,92514,1,8,0:0:0:0:
392,296,93246,2,0,P|344:320|291:310,2,110,2|2|8,0:0|0:0|0:0,0:0:0:0:
456,204,94344,1,0,0:0:0:0:
380,123,94710,6,0,P|354:133|327:136,1,55,2|0,0:0|0:0,0:0:0:0:
288,100,95075,2,0,P|268:119|245:133,1,55,2|0,0:0|0:0,0:0:0:0:
196,104,95441,2,0,P|185:129|170:152,1,55,8|0,0:0|0:0,0:0:0:0:
68,192,95990,1,0,0:0:0:0:
92,240,96173,2,0,P|91:268|94:295,1,55,2|0,0:0|0:0,0:0:0:0:
136,332,96539,2,0,P|163:329|190:329,1,55,2|0,0:0|0:0,0:0:0:0:
244,344,96905,1,8,0:0:0:0:
348,308,97271,1,0,0:0:0:0:
428,232,97636,22,0,P|424:177|436:123,2,110,2|2|8,0:0|0:0|0:0,0:0:0:0:
348,308,98734,1,0,0:0:0:0:
323,201,99100,1,2,0:0:0:0:
322,201,100563,6,0,P|271:219|218:211,1,110,6|8,0:0|0:0,0:0:0:0:
172,180,101112,1,2,0:0:0:0:
172,180,101294,1,0,0:0:0:0:
84,112,101661,1,8,0:0:0:0:
90,56,101844,2,0,P|164:25|229:71,1,165,0|8,0:0|0:0,0:0:0:0:
316,136,102758,2,0,P|343:133|370:127,1,55,0|2,0:0|0:0,0:0:0:0:
400,80,103124,2,0,P|426:85|452:95,1,55,8|0,0:0|0:0,0:0:0:0:
480,144,103490,6,0,P|509:220|478:294,2,165,2|2|8,0:0|0:0|0:0,0:0:0:0:
399,219,104954,2,0,P|346:224|283:223,1,110,2|8,0:0|0:0,0:0:0:0:
212,304,105685,1,2,0:0:0:0:
104,288,106051,2,0,P|104:251|108:212,1,55,10|2,0:0|0:0,0:0:0:0:
124,180,106416,6,0,P|205:189|285:172,2,165,4|2|8,0:0|0:0|0:0,0:0:0:0:
99,72,107880,2,0,P|148:49|198:68,2,110,2|8|2,0:0|0:0|0:0,0:0:0:0:
60,176,108978,2,0,L|82:226,1,55,10|2,0:0|0:0,0:0:0:0:
84,284,109344,22,0,P|165:274|245:291,2,165,4|2|8,0:0|0:0|0:0,0:0:0:0:
60,176,110807,2,0,P|79:125|73:71,1,110,2|8,0:0|0:0,0:0:0:0:
184,84,111539,2,0,P|163:134|169:188,1,110,0|8,0:0|0:0,0:0:0:0:
268,236,112270,6,0,P|323:244|378:242,1,110,6|8,0:0|0:0,0:0:0:0:
420,212,112819,1,2,0:0:0:0:
420,212,113002,1,0,0:0:0:0:
388,108,113368,1,8,0:0:0:0:
360,59,113551,2,0,P|287:91|218:51,1,165,0|8,0:0|0:0,0:0:0:0:
112,76,114466,2,0,P|107:104|112:131,1,55,0|2,0:0|0:0,0:0:0:0:
152,168,114831,2,0,P|145:194|129:216,1,55,8|0,0:0|0:0,0:0:0:0:
104,268,115197,6,0,P|179:298|261:295,2,165,2|2|8,0:0|0:0|0:0,0:0:0:0:
152,168,116661,2,0,L|276:184,1,110,2|8,0:0|0:0,0:0:0:0:
356,240,117392,2,0,L|392:176,1,55,2|2,0:0|0:0,0:0:0:0:
438,192,117758,2,0,L|464:239,1,55,10|2,0:0|0:0,0:0:0:0:
476,296,118124,6,0,P|425:317|371:326,1,110,4|8,0:0|0:0,0:0:0:0:
316,336,118673,1,2,0:0:0:0:
212,300,119038,1,2,0:0:0:0:
176,256,119222,2,0,P|179:230|186:202,1,55,8|0,0:0|0:0,0:0:0:0:
208,152,119588,2,0,P|153:145|98:143,1,110,2|8,0:0|0:0,0:0:0:0:
80,36,120319,1,2,0:0:0:0:
188,52,120685,2,0,P|212:40|238:31,1,55,10|2,0:0|0:0,0:0:0:0:
284,64,121051,22,0,L|297:173,1,110,4|8,0:0|0:0,0:0:0:0:
320,224,121600,2,0,L|211:238,1,110,2|2,0:0|0:0,0:0:0:0:
156,224,122148,1,8,0:0:0:0:
156,224,122331,1,0,0:0:0:0:
256,192,122514,12,2,123977,0:0:0:0:
108,280,131295,6,0,P|155:303|204:283,1,110,0|0,0:0|0:0,0:0:0:0:
315,283,132027,2,0,P|364:303|411:279,1,110,0|0,0:0|0:0,0:0:0:0:
411,169,132758,2,0,P|363:145|314:165,1,110,0|0,0:0|0:0,0:0:0:0:
204,166,133490,2,0,P|154:145|107:169,1,110,0|0,0:0|0:0,0:0:0:0:
108,280,134222,6,0,L|236:280,1,110,0|0,0:0|0:0,0:0:0:0:
256,240,134771,2,0,P|290:249|324:252,1,55,0|0,0:0|0:0,0:0:0:0:
316,196,135136,2,0,P|350:205|384:208,1,55,0|0,0:0|0:0,0:0:0:0:
403,251,135502,2,0,P|379:123|496:40,1,275,0|0,0:0|0:0,0:0:0:0:
504,91,136600,2,0,P|496:120|494:144,1,55,0|0,0:0|0:0,0:0:0:0:
504,200,136966,1,0,0:0:0:0:
280,320,138612,6,0,B|225:309|225:309|172:319,1,110,2|2,0:0|0:0,0:0:0:0:
172,209,139344,2,0,B|224:198|224:198|279:209,1,110,10|2,0:0|0:0,0:0:0:0:
376,264,140075,1,2,0:0:0:0:
428,248,140258,2,0,P|417:222|411:195,1,55,0|2,0:0|0:0,0:0:0:0:
400,88,140807,1,8,0:0:0:0:
188,148,141539,22,0,P|169:198|193:246,1,110,2|2,0:0|0:0,0:0:0:0:
301,246,142271,2,0,P|319:195|296:148,1,110,10|2,0:0|0:0,0:0:0:0:
248,48,143002,1,2,0:0:0:0:
192,56,143185,2,0,P|165:50|137:50,1,55,0|2,0:0|0:0,0:0:0:0:
48,116,143734,1,8,0:0:0:0:
164,304,144466,6,0,P|207:272|261:279,1,110,2|2,0:0|0:0,0:0:0:0:
364,236,145197,2,0,P|371:182|412:148,1,110,10|2,0:0|0:0,0:0:0:0:
392,40,145929,1,2,0:0:0:0:
336,32,146112,2,0,P|310:42|284:50,1,55,2|2,0:0|0:0,0:0:0:0:
180,84,146661,2,0,P|186:114|192:148,1,55,10|2,0:0|0:0,0:0:0:0:
148,172,147027,2,0,P|141:202|136:236,1,55,2|2,0:0|0:0,0:0:0:0:
256,192,147393,12,2,148856,0:0:0:0:
259,326,150319,6,0,P|315:306|371:284,1,110,6|8,0:0|0:0,0:0:0:0:
380,236,150868,1,2,0:0:0:0:
380,236,151050,1,0,0:0:0:0:
376,128,151417,1,8,0:0:0:0:
340,84,151600,2,0,B|260:116|260:116|187:85,1,165,0|8,0:0|0:0,0:0:0:0:
96,144,152514,2,0,P|110:167|126:189,1,55,0|2,0:0|0:0,0:0:0:0:
92,232,152880,2,0,P|114:246|138:260,1,55,8|0,0:0|0:0,0:0:0:0:
180,288,153246,6,0,P|253:259|319:304,2,165,2|2|8,0:0|0:0|0:0,0:0:0:0:
80,332,154710,2,0,P|70:277|60:223,1,110,2|8,0:0|0:0,0:0:0:0:
76,116,155441,1,2,0:0:0:0:
184,104,155807,2,0,P|221:104|260:100,1,55,10|2,0:0|0:0,0:0:0:0:
280,140,156173,22,0,B|250:251|250:251|269:297,2,165,4|2|8,0:0|0:0|0:0,0:0:0:0:
388,120,157636,2,0,P|388:188|396:244,2,110,2|8|2,0:0|0:0|0:0,0:0:0:0:
336,24,158734,2,0,P|305:24|272:28,1,55,10|2,0:0|0:0,0:0:0:0:
248,72,159100,6,0,B|136:101|136:101|90:82,2,165,4|2|8,0:0|0:0|0:0,0:0:0:0:
304,164,160563,2,0,P|310:218|291:269,1,110,2|8,0:0|0:0,0:0:0:0:
401,281,161295,2,0,P|394:226|415:176,1,110,0|8,0:0|0:0,0:0:0:0:
456,72,162027,6,0,P|401:80|346:78,1,110,6|8,0:0|0:0,0:0:0:0:
292,68,162575,1,2,0:0:0:0:
292,68,162758,1,0,0:0:0:0:
184,84,163124,1,8,0:0:0:0:
136,108,163307,2,0,P|78:162|85:242,1,165,0|8,0:0|0:0,0:0:0:0:
160,324,164222,2,0,P|188:329|215:324,1,55,0|2,0:0|0:0,0:0:0:0:
260,292,164588,2,0,P|286:299|308:315,1,55,8|0,0:0|0:0,0:0:0:0:
360,340,164953,6,0,P|390:265|387:183,2,165,2|2|8,0:0|0:0|0:0,0:0:0:0:
260,292,166417,2,0,L|244:168,1,110,2|8,0:0|0:0,0:0:0:0:
136,172,167149,2,0,L|72:136,1,55,2|2,0:0|0:0,0:0:0:0:
88,89,167514,2,0,L|135:63,1,55,10|2,0:0|0:0,0:0:0:0:
192,56,167880,22,0,P|246:57|308:56,1,110,4|8,0:0|0:0,0:0:0:0:
356,76,168429,1,2,0:0:0:0:
412,168,168794,1,2,0:0:0:0:
368,200,168978,2,0,P|371:226|378:254,1,55,8|0,0:0|0:0,0:0:0:0:
408,300,169344,2,0,P|353:302|298:309,1,110,2|8,0:0|0:0,0:0:0:0:
188,300,170075,1,2,0:0:0:0:
116,216,170441,2,0,P|140:204|166:195,1,55,10|2,0:0|0:0,0:0:0:0:
188,144,170807,6,0,L|297:157,1,110,4|8,0:0|0:0,0:0:0:0:
312,104,171356,2,0,L|421:118,1,110,2|2,0:0|0:0,0:0:0:0:
464,152,171904,1,8,0:0:0:0:
472,208,172088,2,0,P|477:282|403:287,1,165,0|8,0:0|0:0,0:0:0:0:
304,244,173002,2,0,L|220:252,1,55,0|2,0:0|0:0,0:0:0:0:
236,304,173368,2,0,L|181:298,1,55,8|0,0:0|0:0,0:0:0:0:
128,284,173734,6,0,P|119:211|120:116,2,165,6|2|8,0:0|0:0|0:0,0:0:0:0:
236,304,175197,2,0,P|308:295|404:296,2,165,2|2|8,0:0|0:0|0:0,0:0:0:0:
216,196,176661,6,0,P|215:141|226:87,1,110,2|8,0:0|0:0,0:0:0:0:
332,52,177393,1,0,0:0:0:0:
436,92,177758,2,0,P|438:122|444:156,1,55,8|0,0:0|0:0,0:0:0:0:
468,196,178124,2,0,P|415:197|336:204,1,110,2|8,0:0|0:0,0:0:0:0:
292,288,178856,1,0,0:0:0:0:
192,244,179222,1,8,0:0:0:0:
188,136,179588,22,0,P|251:84|334:53,2,165,6|2|8,0:0|0:0|0:0,0:0:0:0:
192,244,181051,2,0,P|255:295|338:326,2,165,2|2|8,0:0|0:0|0:0,0:0:0:0:
88,212,182514,6,0,B|65:160|65:160|77:108,1,110,2|8,0:0|0:0,0:0:0:0:
124,76,183063,2,0,B|176:99|176:99|227:86,1,110,2|2,0:0|0:0,0:0:0:0:
284,84,183612,1,8,0:0:0:0:
392,76,183978,2,0,L|395:185,1,110,2|8,0:0|0:0,0:0:0:0:
396,296,184710,38,0,P|292:279|225:360,1,220,0|2,0:0|0:0,0:0:0:0:
