osu file format v14

[General]
AudioFilename: audio.mp3
AudioLeadIn: 0
PreviewTime: 47126
Countdown: 0
SampleSet: Soft
StackLeniency: 0.7
Mode: 0
LetterboxInBreaks: 0
WidescreenStoryboard: 1

[Editor]
Bookmarks: 14222,37637,77149,88856,138612,185441
DistanceSpacing: 1.3
BeatDivisor: 6
GridSize: 32
TimelineZoom: 3.200003

[Metadata]
Title:Heart Shaker
TitleUnicode:Heart Shaker
Artist:TWICE
ArtistUnicode:트와이스
Creator:ailv
Version:Would You Be My Love?
Source:
Tags:alvi kpop k-pop jyp entertainment japan korea once christmas xmas Merry & Happy sana jihyo dahyun nayeon jeongyeon chaeyoung momo mina shuwa tzuyu 나연 정연 모모 사나 지효 미나 다현 채영 쯔위 Tatan shiinoha kotone tomadoi
BeatmapID:1718699
BeatmapSetID:819769

[Difficulty]
HPDrainRate:5
CircleSize:4
OverallDifficulty:8
ApproachRate:9
SliderMultiplier:2
SliderTickRate:1

[Events]
//Background and Video events
Video,-1120,"TWICE 'Heart Shaker' MV.avi"
0,0,"DP2lQEGUIAAIfIc.jpg",0,0
//Break Periods
2,124521,129575
//Storyboard Layer 0 (Background)
//Storyboard Layer 1 (Fail)
//Storyboard Layer 2 (Pass)
//Storyboard Layer 3 (Foreground)
//Storyboard Layer 4 (Overlay)
//Storyboard Sound Samples

[TimingPoints]
526,480,4,2,0,30,1,0
526,-71.4285714285714,4,2,0,30,0,0
1395,365.853658536585,4,2,1,60,1,0
11638,-200,4,2,1,70,0,0
13102,-166.666666666667,4,2,1,60,0,0
48224,-83.3333333333333,4,2,1,80,0,1
73102,-125,4,2,1,60,0,0
87736,-166.666666666667,4,2,1,70,0,0
99443,-83.3333333333333,4,2,1,80,0,1
124321,-200,4,2,1,50,0,0
137492,-100,4,2,1,70,0,0
147736,-333.333333333333,4,1,1,70,0,0
149199,-71.4285714285714,4,2,1,80,0,1
172614,-83.3333333333333,4,2,1,80,0,0
176273,-83.3333333333333,4,2,1,80,0,0
176638,-83.3333333333333,4,2,1,80,0,0
177736,-83.3333333333333,4,2,1,80,0,0
178102,-83.3333333333333,4,2,1,80,0,0

[Colours]
Combo1 : 91,134,244
Combo2 : 88,237,197
Combo3 : 234,120,243
Combo4 : 138,120,241

[HitObjects]
256,192,8712,12,2,11638,1:2:0:0:
226,325,13102,5,2,1:2:0:0:
263,326,13285,1,0,1:2:0:0:
334,258,13468,1,8,1:2:0:0:
377,266,13651,1,2,1:2:0:0:
473,233,13834,2,0,P|465:183|459:159,1,59.9999981689454,0|2,1:2|0:0,1:2:0:0:
388,113,14199,2,0,P|396:63|402:39,2,59.9999981689454,8|0|2,1:2|0:0|0:0,1:2:0:0:
293,128,14748,5,0,1:2:0:0:
296,101,14931,1,8,1:2:0:0:
217,61,15114,1,2,1:2:0:0:
215,84,15297,1,0,1:2:0:0:
147,138,15480,1,2,1:2:0:0:
138,119,15663,2,0,P|134:91|127:61,1,59.9999981689454,8|0,1:2|0:0,1:2:0:0:
14,217,16029,5,2,1:2:0:0:
98,232,16212,1,0,1:2:0:0:
48,293,16394,1,8,1:2:0:0:
134,303,16577,1,2,1:2:0:0:
85,367,16760,2,0,P|137:378|159:379,1,59.9999981689454,0|2,1:2|0:0,1:2:0:0:
227,344,17126,2,0,P|257:348|286:356,2,59.9999981689454,8|0|2,1:2|0:0|0:0,1:2:0:0:
361,293,17675,5,0,1:2:0:0:
398,300,17858,1,8,1:2:0:0:
433,309,18041,1,2,1:2:0:0:
512,210,18224,5,0,1:2:0:0:
416,220,18407,1,2,1:2:0:0:
339,165,18590,2,0,P|343:117|350:81,1,59.9999981689454,8|0,1:2|0:0,1:2:0:0:
232,48,18955,6,0,P|167:54|153:53,1,59.9999981689454,2|0,1:2|0:0,1:2:0:0:
20,64,19321,1,8,1:2:0:0:
104,101,19504,2,0,P|110:166|109:180,1,59.9999981689454,2|0,1:2|0:0,1:2:0:0:
64,230,19870,2,0,P|11:225|2:222,2,59.9999981689454,2|8|0,1:2|0:0|0:0,1:2:0:0:
199,314,20419,6,0,P|250:307|278:307,1,59.9999981689454,2|0,1:2|0:0,1:2:0:0:
407,262,20785,1,8,1:2:0:0:
330,222,20968,2,0,P|324:262|326:283,1,59.9999981689454,2|0,1:2|0:0,1:2:0:0:
399,167,21334,2,0,L|458:171,2,59.9999981689454,2|8|0,1:2|0:0|0:0,1:2:0:0:
316,61,21882,6,0,P|337:110|336:132,1,59.9999981689454,2|0,1:2|0:0,1:2:0:0:
189,113,22248,1,8,1:2:0:0:
186,37,22431,2,0,L|254:33,1,59.9999981689454,2|0,1:2|0:0,1:2:0:0:
226,217,22797,1,2,1:0:0:0:
151,199,22980,2,0,L|83:203,2,59.9999981689454,8|0|2,1:2|0:0|0:0,1:2:0:0:
227,235,23529,1,0,1:2:0:0:
105,322,23712,6,0,P|57:318|33:316,2,59.9999981689454,0|2|0,1:2|0:0|0:0,1:2:0:0:
250,366,24260,5,8,1:2:0:0:
241,286,24443,1,8,1:2:0:0:
283,219,24626,1,8,1:2:0:0:
359,199,24809,6,0,P|419:202|430:203,1,59.9999981689454,6|0,1:2|0:0,1:2:0:0:
475,89,25175,1,8,1:2:0:0:
376,59,25358,2,0,P|386:105|389:125,2,59.9999981689454,2|0|2,1:2|0:0|0:0,1:2:0:0:
272,28,25907,1,8,1:2:0:0:
280,109,26090,1,0,1:2:0:0:
170,103,26273,5,2,1:2:0:0:
73,72,26455,1,0,1:2:0:0:
61,64,26638,1,8,1:2:0:0:
6,144,26821,2,0,P|2:191|-1:225,2,59.9999981689454,2|0|2,1:2|0:0|0:0,1:2:0:0:
111,201,27370,5,8,1:2:0:0:
92,279,27553,1,0,1:2:0:0:
124,365,27736,5,2,1:2:0:0:
216,319,27919,1,0,1:2:0:0:
305,317,28102,1,8,1:2:0:0:
380,371,28285,1,2,1:2:0:0:
281,203,28651,5,2,1:2:0:0:
271,126,28834,1,8,1:2:0:0:
311,57,29016,1,2,1:2:0:0:
467,120,29199,5,2,1:2:0:0:
400,178,29382,1,0,1:2:0:0:
312,181,29565,1,8,1:2:0:0:
246,128,29748,2,0,P|246:82|248:65,1,59.9999981689454,2|0,1:2|0:0,1:2:0:0:
186,191,30114,2,0,P|186:237|184:254,1,59.9999981689454,2|8,1:2|0:0,1:2:0:0:
443,268,30663,6,0,P|378:274|364:273,1,59.9999981689454,2|0,1:2|0:0,1:2:0:0:
298,371,31029,1,8,1:2:0:0:
227,321,31212,2,0,P|228:291|233:261,1,59.9999981689454,2|0,1:2|0:0,1:2:0:0:
210,160,31577,2,0,P|157:155|148:152,2,59.9999981689454,2|8|2,1:2|0:0|0:0,1:2:0:0:
320,180,32126,6,0,P|371:173|399:173,1,59.9999981689454,2|0,1:2|0:0,1:2:0:0:
459,125,32492,1,8,1:2:0:0:
399,29,32675,2,0,P|393:69|395:90,1,59.9999981689454,2|0,1:2|0:0,1:2:0:0:
247,96,33041,6,0,L|306:100,2,59.9999981689454,2|8|2,1:2|0:0|0:0,1:2:0:0:
160,136,33590,6,0,L|104:133,3,29.9999990844727,2|2|2|2,1:2|0:0|0:0|0:0,1:2:0:0:
280,186,33955,1,10,1:2:0:0:
283,202,34047,1,2,1:2:0:0:
286,215,34138,2,0,L|342:212,3,29.9999990844727,2|2|2|2,1:2|0:0|0:0|0:0,1:2:0:0:
185,269,34504,1,2,1:2:0:0:
182,285,34596,1,2,1:2:0:0:
179,298,34687,2,0,L|123:295,3,29.9999990844727,10|2|2|2,1:2|0:0|0:0|0:0,1:2:0:0:
249,364,35053,5,2,1:2:0:0:
271,331,35144,1,2,1:2:0:0:
278,292,35236,1,2,1:2:0:0:
268,253,35327,1,2,1:2:0:0:
243,223,35419,1,10,1:2:0:0:
215,150,35602,1,2,1:2:0:0:
288,96,35785,5,2,1:2:0:0:
394,105,35968,1,2,1:2:0:0:
471,178,36151,2,0,L|507:181,3,29.9999990844727,10|2|2|2,1:2|0:0|0:0|0:0,1:2:0:0:
455,323,36516,5,6,1:2:0:0:
455,323,36882,1,2,1:2:0:0:
381,217,37248,2,0,P|386:171|388:137,1,59.9999981689454,8|0,1:2|0:0,1:2:0:0:
206,355,37980,5,2,1:2:0:0:
206,355,38346,1,2,1:2:0:0:
312,281,38712,2,0,P|358:286|392:288,1,59.9999981689454,8|0,1:2|0:0,1:2:0:0:
180,251,39443,5,2,1:2:0:0:
180,251,39809,1,2,1:2:0:0:
74,177,40175,2,0,P|28:182|-6:184,1,59.9999981689454,8|2,1:2|0:0,1:2:0:0:
250,96,40907,5,2,1:2:0:0:
250,96,41273,1,2,1:2:0:0:
356,170,41638,2,0,P|402:165|436:163,1,59.9999981689454,8|0,1:2|0:0,1:2:0:0:
356,349,42370,6,0,P|343:297|339:266,1,59.9999981689454,2|0,1:2|0:0,1:2:0:0:
258,307,42736,2,0,P|263:336|272:365,1,59.9999981689454,2|0,1:2|0:0,1:2:0:0:
468,255,43102,6,0,L|408:246,1,59.9999981689454,8|0,1:2|0:0,1:2:0:0:
51,232,43651,5,0,1:2:0:0:
43,156,43834,2,0,P|53:95|56:84,1,59.9999981689454,2|0,1:2|0:0,1:2:0:0:
132,89,44199,2,0,P|128:118|122:148,1,59.9999981689454,2|0,1:2|0:0,1:2:0:0:
257,42,44565,6,0,P|227:38|197:32,1,59.9999981689454,8|0,1:2|0:0,1:2:0:0:
297,214,45297,6,0,P|343:209|363:208,1,59.9999981689454,2|0,1:2|0:0,1:2:0:0:
359,288,45663,2,0,P|329:291|299:293,1,59.9999981689454,2|0,1:2|0:0,1:2:0:0:
47,247,46029,5,10,1:2:0:0:
191,217,46212,1,2,1:2:0:0:
136,272,46394,1,2,1:2:0:0:
116,152,46577,1,2,1:2:0:0:
116,152,46760,1,2,1:2:0:0:
116,152,48224,6,0,B|247:134|216:230|347:203,1,239.999992675781,6|8,1:2|0:0,1:2:0:0:
370,74,48773,1,2,1:2:0:0:
301,113,48955,1,0,1:2:0:0:
383,334,49138,1,2,1:2:0:0:
305,306,49321,1,8,1:2:0:0:
157,351,49504,1,0,1:2:0:0:
48,258,49687,6,0,P|150:253|164:386,1,239.999992675781,2|8,1:2|0:0,1:2:0:0:
293,292,50236,1,2,1:2:0:0:
376,363,50419,1,0,1:2:0:0:
456,298,50602,2,0,P|451:231|449:159,1,119.999996337891,2|8,1:2|0:0,1:2:0:0:
251,30,50968,1,0,1:2:0:0:
199,139,51151,6,0,P|317:144|380:139,1,179.999994506836,2|0,1:2|0:0,1:2:0:0:
399,127,51516,1,8,1:2:0:0:
239,240,51699,2,0,P|157:228|56:225,1,179.999994506836,2|0,1:2|0:0,1:2:0:0:
35,220,52065,2,0,P|18:262|26:341,1,119.999996337891,2|8,1:2|0:0,1:2:0:0:
408,316,52431,6,0,B|303:280|277:369|163:319,1,239.999992675781,0|0,1:2|0:0,1:2:0:0:
212,165,52980,1,8,1:2:0:0:
222,249,53163,1,2,1:2:0:0:
389,182,53346,5,2,1:2:0:0:
320,142,53529,1,2,1:2:0:0:
310,160,53620,1,2,1:2:0:0:
308,180,53712,1,10,1:2:0:0:
336,255,53894,1,2,1:2:0:0:
329,40,54077,6,0,P|418:33|490:42,1,119.999996337891,6|0,1:2|0:0,1:2:0:0:
279,108,54443,1,8,1:2:0:0:
477,62,54626,2,0,P|417:55|358:58,1,119.999996337891,2|0,1:2|0:0,1:2:0:0:
128,146,54992,5,2,1:2:0:0:
190,87,55175,1,8,1:2:0:0:
217,168,55358,1,0,1:2:0:0:
139,344,55541,5,2,1:2:0:0:
79,240,55724,1,0,1:2:0:0:
171,262,55907,1,8,1:2:0:0:
31,313,56090,1,2,1:2:0:0:
64,223,56273,5,2,1:2:0:0:
98,250,56364,1,2,1:2:0:0:
119,290,56455,1,2,1:2:0:0:
122,335,56547,1,2,1:2:0:0:
106,376,56638,1,10,1:2:0:0:
10,310,56821,1,2,1:2:0:0:
246,266,57004,6,0,P|288:270|385:269,1,119.999996337891,4|0,1:2|0:0,1:2:0:0:
189,325,57370,1,8,1:2:0:0:
387,260,57553,2,0,P|327:253|267:255,1,119.999996337891,2|0,1:2|0:0,1:2:0:0:
426,358,57919,1,2,1:2:0:0:
460,142,58102,5,8,1:2:0:0:
485,257,58285,1,0,1:2:0:0:
319,142,58468,5,2,1:2:0:0:
344,27,58651,1,0,1:2:0:0:
132,63,58834,6,0,B|199:53|199:53|256:79,1,119.999996337891,8|2,1:2|0:0,1:2:0:0:
64,150,59199,1,2,1:2:0:0:
61,129,59291,1,2,1:2:0:0:
62,107,59382,1,2,1:2:0:0:
139,139,59565,1,8,1:2:0:0:
21,231,59748,1,2,1:2:0:0:
186,351,59931,6,0,B|314:306|299:404|443:344,1,239.999992675781,6|8,1:2|0:0,1:2:0:0:
257,191,60480,1,2,1:2:0:0:
297,261,60663,1,0,1:2:0:0:
490,204,60846,1,2,1:2:0:0:
428,264,61029,1,8,1:2:0:0:
398,140,61212,1,0,1:2:0:0:
494,38,61394,6,0,P|409:29|217:38,1,239.999992675781,2|8,1:2|0:0,1:2:0:0:
312,132,61943,1,2,1:2:0:0:
234,227,62126,1,0,1:2:0:0:
314,329,62309,1,2,1:2:0:0:
236,327,62492,1,8,1:2:0:0:
319,235,62675,1,0,1:2:0:0:
41,169,62858,5,2,1:2:0:0:
128,203,63041,1,0,1:2:0:0:
14,241,63224,1,8,1:2:0:0:
109,125,63407,2,0,P|111:91|109:-2,1,119.999996337891,2|0,1:2|0:0,1:2:0:0:
209,233,63773,2,0,P|206:292|209:352,1,119.999996337891,2|8,1:2|0:0,1:2:0:0:
278,150,64138,6,0,B|381:196|407:107|512:143,1,239.999992675781,0|0,1:2|0:0,1:2:0:0:
464,219,64687,2,0,P|406:203|346:202,1,119.999996337891,8|2,1:2|0:0,1:2:0:0:
177,192,65053,5,2,1:2:0:0:
109,153,65236,1,2,1:2:0:0:
99,171,65327,1,2,1:2:0:0:
97,191,65419,1,10,1:2:0:0:
176,116,65602,1,2,1:2:0:0:
8,338,65785,6,0,P|1:249|10:177,1,119.999996337891,4|0,1:2|0:0,1:2:0:0:
258,209,66151,2,0,P|265:298|256:370,1,119.999996337891,8|2,1:2|0:0,1:2:0:0:
84,37,66516,5,0,1:2:0:0:
160,146,66699,1,2,1:2:0:0:
183,69,66882,1,8,1:2:0:0:
59,140,67065,1,0,1:2:0:0:
331,103,67248,5,2,1:2:0:0:
465,39,67431,1,0,1:2:0:0:
388,15,67614,1,8,1:2:0:0:
447,119,67797,1,2,1:2:0:0:
396,27,67980,5,2,1:2:0:0:
360,54,68071,1,2,1:2:0:0:
340,94,68163,1,2,1:2:0:0:
339,139,68254,1,2,1:2:0:0:
357,180,68346,1,10,1:2:0:0:
466,122,68529,1,2,1:2:0:0:
399,280,68712,6,0,P|339:274|279:265,1,119.999996337891,4|0,1:2|0:0,1:2:0:0:
110,189,69077,1,8,1:2:0:0:
207,124,69260,2,0,P|200:184|202:244,1,119.999996337891,2|0,1:2|0:0,1:2:0:0:
286,363,69626,1,2,1:2:0:0:
397,279,69809,5,8,1:2:0:0:
485,257,69992,1,0,1:2:0:0:
238,206,70175,5,2,1:2:0:0:
150,184,70358,1,0,1:2:0:0:
374,108,70541,6,0,B|441:98|441:98|498:124,1,119.999996337891,8|0,1:2|0:0,1:2:0:0:
224,105,70907,1,2,1:2:0:0:
221,84,70998,1,2,1:2:0:0:
222,62,71090,1,2,1:2:0:0:
423,189,71273,1,8,1:2:0:0:
218,306,71455,1,0,1:2:0:0:
24,190,71638,1,2,1:2:0:0:
316,158,71821,5,0,1:2:0:0:
333,234,72004,1,0,1:2:0:0:
307,309,72187,1,0,1:2:0:0:
246,359,72370,1,0,1:2:0:0:
168,370,72553,1,0,1:2:0:0:
96,339,72736,1,0,1:2:0:0:
51,275,72919,1,0,1:2:0:0:
59,197,73102,5,2,1:2:0:0:
59,197,73468,1,2,1:2:0:0:
183,143,73834,1,4,1:2:0:0:
183,143,73925,1,4,1:2:0:0:
183,143,74016,1,4,1:2:0:0:
111,93,74199,2,0,L|12:84,1,80,8|0,1:2|0:0,1:2:0:0:
211,50,74565,5,8,1:2:0:0:
211,50,74931,1,8,1:2:0:0:
211,50,75297,1,12,1:2:0:0:
286,27,76029,5,2,1:2:0:0:
273,104,76212,1,0,1:2:0:0:
354,134,76394,1,8,1:2:0:0:
361,215,76577,1,2,1:2:0:0:
283,260,76760,2,0,P|250:258|203:253,2,80,0|2|8,1:2|0:0|0:0,1:2:0:0:
352,323,77309,1,0,1:2:0:0:
352,323,77492,1,2,1:2:0:0:
267,368,77675,5,0,1:2:0:0:
215,366,77858,1,8,1:2:0:0:
170,364,78041,1,2,1:2:0:0:
74,373,78224,5,0,1:2:0:0:
66,289,78407,1,2,1:2:0:0:
57,207,78590,2,0,L|49:128,2,80,8|0|2,1:2|0:0|0:0,1:2:0:0:
225,192,79138,5,0,1:2:0:0:
286,67,79321,1,8,1:2:0:0:
332,130,79504,1,2,1:2:0:0:
208,99,79687,2,0,P|170:101|127:96,1,80,0|2,1:2|0:0,1:2:0:0:
305,204,80053,2,0,P|343:206|386:201,2,80,8|0|2,1:2|0:0|0:0,1:2:0:0:
255,291,80602,5,0,1:2:0:0:
199,218,80785,1,8,1:2:0:0:
166,302,80968,1,2,1:2:0:0:
266,333,81151,5,0,1:2:0:0:
210,226,81334,1,2,1:2:0:0:
320,175,81516,1,8,1:2:0:0:
372,287,81699,1,0,1:2:0:0:
193,212,81882,6,0,P|199:160|197:127,1,80,2|0,1:2|0:0,1:2:0:0:
84,49,82248,1,8,1:2:0:0:
42,129,82431,2,0,P|118:122|149:118,1,80,2|0,1:2|0:0,1:2:0:0:
242,48,82797,1,2,1:2:0:0:
302,111,82980,2,0,P|378:118|409:122,1,80,8|0,1:2|0:0,1:2:0:0:
399,115,83254,1,0,1:2:0:0:
411,108,83346,5,2,1:2:0:0:
449,179,83529,1,0,1:2:0:0:
450,257,83712,1,8,1:2:0:0:
406,320,83894,1,2,1:2:0:0:
392,316,83986,1,0,1:2:0:0:
380,315,84077,5,0,1:2:0:0:
325,367,84260,1,2,1:2:0:0:
246,364,84443,1,8,1:2:0:0:
193,307,84626,1,2,1:2:0:0:
272,240,84809,6,0,L|328:243,3,40,2|0|0|0,1:2|0:0|0:0|0:0,1:2:0:0:
152,190,85175,1,8,1:2:0:0:
149,174,85266,1,0,1:2:0:0:
146,161,85358,2,0,L|90:164,3,40,2|0|0|0,1:2|0:0|0:0|0:0,1:2:0:0:
247,107,85724,1,2,1:2:0:0:
250,91,85815,1,0,1:2:0:0:
253,78,85907,2,0,L|309:81,3,40,8|0|2|2,1:2|0:0|0:0|0:0,1:2:0:0:
183,12,86273,5,2,1:2:0:0:
160,44,86364,1,2,1:2:0:0:
153,83,86455,1,2,1:2:0:0:
163,122,86547,1,2,1:2:0:0:
188,152,86638,1,10,1:2:0:0:
272,161,86821,1,2,1:2:0:0:
386,233,87004,5,2,1:2:0:0:
432,313,87187,1,2,1:2:0:0:
362,364,87370,2,0,L|290:357,3,40,10|0|2|0,1:2|0:0|0:0|0:0,1:2:0:0:
164,324,87736,5,4,1:2:0:0:
164,324,88102,1,2,1:2:0:0:
115,181,88468,2,0,P|110:227|108:261,1,59.9999981689454,8|0,1:2|0:0,1:2:0:0:
290,43,89199,5,2,1:2:0:0:
290,43,89565,1,2,1:2:0:0:
151,93,89931,2,0,P|180:95|210:98,1,59.9999981689454,8|0,1:2|0:0,1:2:0:0:
316,147,90663,5,2,1:2:0:0:
316,147,91029,1,2,1:2:0:0:
449,190,91394,2,0,P|419:192|389:195,1,59.9999981689454,8|2,1:2|0:0,1:2:0:0:
246,302,92126,5,2,1:2:0:0:
246,302,92492,1,2,1:2:0:0:
380,347,92858,2,0,P|350:350|320:352,1,59.9999981689454,8|0,1:2|0:0,1:2:0:0:
134,155,93590,6,0,P|147:207|151:238,1,59.9999981689454,2|0,1:2|0:0,1:2:0:0:
232,197,93955,2,0,P|226:167|217:138,1,59.9999981689454,2|0,1:2|0:0,1:2:0:0:
22,249,94321,6,0,L|82:258,1,59.9999981689454,8|0,1:2|0:0,1:2:0:0:
330,175,94870,5,0,1:2:0:0:
351,254,95053,2,0,P|341:315|338:326,1,59.9999981689454,2|0,1:2|0:0,1:2:0:0:
415,356,95419,2,0,P|418:326|424:296,1,59.9999981689454,2|0,1:2|0:0,1:2:0:0:
218,358,95785,6,0,P|247:361|277:367,1,59.9999981689454,8|0,1:2|0:0,1:2:0:0:
199,184,96516,6,0,P|153:189|133:190,1,59.9999981689454,2|0,1:2|0:0,1:2:0:0:
137,110,96882,2,0,P|166:106|196:104,1,59.9999981689454,2|0,1:2|0:0,1:2:0:0:
442,143,97248,5,8,1:2:0:0:
289,167,97431,1,2,1:2:0:0:
352,209,97614,1,0,1:2:0:0:
341,81,97797,1,0,1:2:0:0:
341,81,97980,1,2,1:2:0:0:
341,81,99443,6,0,P|432:128|366:237,1,239.999992675781,6|8,1:2|0:0,1:2:0:0:
252,140,99992,1,2,1:2:0:0:
262,217,100175,1,0,1:2:0:0:
68,135,100358,1,2,1:2:0:0:
78,58,100541,1,8,1:2:0:0:
151,210,100724,1,0,1:2:0:0:
83,347,100907,6,0,B|211:360|189:281|309:289,1,239.999992675781,2|8,1:2|0:0,1:2:0:0:
151,210,101455,1,2,1:2:0:0:
255,120,101638,1,0,1:2:0:0:
165,48,101821,2,0,P|98:53|26:55,1,119.999996337891,2|8,1:2|0:0,1:2:0:0:
255,120,102187,1,0,1:2:0:0:
117,367,102370,6,0,P|122:249|117:186,1,179.999994506836,2|0,1:2|0:0,1:2:0:0:
104,164,102736,1,8,1:2:0:0:
218,323,102919,2,0,P|300:335|401:338,1,179.999994506836,2|0,1:2|0:0,1:2:0:0:
416,336,103285,2,0,P|433:294|425:215,1,119.999996337891,2|8,1:2|0:0,1:2:0:0:
240,63,103651,6,0,B|345:99|371:10|485:60,1,239.999992675781,0|0,1:2|0:0,1:2:0:0:
427,220,104199,1,8,1:2:0:0:
417,129,104382,1,2,1:2:0:0:
130,120,104565,5,2,1:2:0:0:
199,160,104748,1,2,1:2:0:0:
209,142,104840,1,2,1:2:0:0:
211,122,104931,1,10,1:2:0:0:
131,204,105114,1,2,1:2:0:0:
366,349,105297,6,0,P|277:356|205:347,1,119.999996337891,4|0,1:2|0:0,1:2:0:0:
429,292,105663,1,8,1:2:0:0:
237,363,105846,2,0,P|297:370|356:367,1,119.999996337891,2|0,1:2|0:0,1:2:0:0:
78,350,106212,5,2,1:2:0:0:
119,360,106394,1,8,1:2:0:0:
156,347,106577,1,0,1:2:0:0:
76,73,106760,5,2,1:2:0:0:
139,209,106943,1,0,1:2:0:0:
174,136,107126,1,8,1:2:0:0:
16,211,107309,1,2,1:2:0:0:
133,231,107492,5,2,1:2:0:0:
99,204,107584,1,2,1:2:0:0:
78,164,107675,1,2,1:2:0:0:
75,119,107766,1,2,1:2:0:0:
91,78,107858,1,10,1:2:0:0:
198,131,108041,1,2,1:2:0:0:
441,91,108224,6,0,P|401:85|303:75,1,119.999996337891,4|0,1:2|0:0,1:2:0:0:
512,59,108590,1,8,1:2:0:0:
300,91,108773,2,0,P|360:98|420:96,1,119.999996337891,2|0,1:2|0:0,1:2:0:0:
224,39,109138,1,2,1:2:0:0:
146,103,109321,5,8,1:2:0:0:
113,0,109504,1,0,1:2:0:0:
60,186,109687,5,2,1:2:0:0:
27,289,109870,1,0,1:2:0:0:
249,360,110053,6,0,B|182:370|182:370|125:344,1,119.999996337891,8|2,1:2|0:0,1:2:0:0:
192,232,110419,1,2,1:2:0:0:
195,253,110510,1,2,1:2:0:0:
194,275,110602,1,2,1:2:0:0:
144,168,110785,1,8,1:2:0:0:
190,44,110968,1,0,1:2:0:0:
271,191,111151,6,0,P|430:192|512:197,1,239.999992675781,6|8,1:2|0:0,1:2:0:0:
392,357,111699,1,2,1:2:0:0:
404,277,111882,1,0,1:2:0:0:
192,164,112065,1,2,1:2:0:0:
204,244,112248,1,8,1:2:0:0:
146,340,112431,1,0,1:2:0:0:
14,379,112614,6,0,P|103:366|295:357,1,239.999992675781,2|8,1:2|0:0,1:2:0:0:
172,254,113163,1,2,1:2:0:0:
284,200,113346,1,0,1:2:0:0:
195,99,113529,1,2,1:2:0:0:
270,117,113712,1,8,1:2:0:0:
105,145,113894,1,0,1:2:0:0:
392,15,114077,5,2,1:2:0:0:
323,57,114260,1,0,1:2:0:0:
483,30,114443,1,8,1:2:0:0:
238,4,114626,2,0,P|236:38|238:131,1,119.999996337891,2|0,1:2|0:0,1:2:0:0:
512,270,114992,2,0,P|515:211|512:151,1,119.999996337891,2|8,1:2|0:0,1:2:0:0:
165,310,115358,6,0,B|268:345|294:256|397:302,1,239.999992675781,2|0,1:2|0:0,1:2:0:0:
226,236,115907,2,0,P|166:234|108:218,1,119.999996337891,8|2,1:2|0:0,1:2:0:0:
137,72,116273,5,2,1:2:0:0:
204,32,116455,1,2,1:2:0:0:
213,57,116547,1,2,1:2:0:0:
215,78,116638,1,10,1:2:0:0:
113,64,116821,1,2,1:2:0:0:
323,46,117004,6,0,P|330:135|321:207,1,119.999996337891,4|0,1:2|0:0,1:2:0:0:
13,160,117370,2,0,P|6:71|15:-1,1,119.999996337891,8|2,1:2|0:0,1:2:0:0:
121,280,117736,5,0,1:2:0:0:
237,197,117919,1,2,1:2:0:0:
158,197,118102,1,8,1:2:0:0:
174,353,118285,1,0,1:2:0:0:
485,314,118468,5,2,1:2:0:0:
340,280,118651,1,0,1:2:0:0:
365,355,118834,1,8,1:2:0:0:
404,220,119016,1,2,1:2:0:0:
382,374,119199,5,2,1:2:0:0:
418,347,119291,1,2,1:2:0:0:
438,307,119382,1,2,1:2:0:0:
439,262,119474,1,2,1:2:0:0:
421,221,119565,1,10,1:2:0:0:
317,274,119748,1,2,1:2:0:0:
122,349,119931,6,0,P|182:355|242:364,1,119.999996337891,4|0,1:2|0:0,1:2:0:0:
156,249,120297,1,8,1:2:0:0:
24,351,120480,2,0,P|31:291|29:231,1,119.999996337891,2|0,1:2|0:0,1:2:0:0:
199,51,120846,1,2,1:2:0:0:
108,197,121029,5,8,1:2:0:0:
27,127,121212,1,0,1:2:0:0:
292,119,121394,5,2,1:2:0:0:
313,14,121577,1,0,1:2:0:0:
195,262,121760,6,0,P|186:209|207:141,1,119.999996337891,8|0,1:2|0:0,1:2:0:0:
387,282,122126,1,2,1:2:0:0:
366,288,122218,1,2,1:2:0:0:
345,294,122309,1,2,1:2:0:0:
116,326,122492,1,8,1:2:0:0:
85,90,122675,1,0,1:2:0:0:
325,59,122858,1,2,1:2:0:0:
163,260,123041,5,0,1:2:0:0:
146,184,123224,1,0,1:2:0:0:
172,109,123407,1,0,1:2:0:0:
233,59,123590,1,0,1:2:0:0:
311,48,123773,1,0,1:2:0:0:
383,79,123955,1,0,1:2:0:0:
428,143,124138,1,0,1:2:0:0:
431,222,124321,5,4,1:2:0:0:
256,192,130175,12,0,133010,0:2:0:0:
256,192,133102,12,0,136029,1:0:0:0:
77,203,137492,6,0,P|75:256|73:320,1,100,2|0,1:2|0:0,1:2:0:0:
150,324,137858,2,0,P|151:274|153:224,1,100,2|0,1:2|0:0,1:2:0:0:
329,262,138224,6,0,P|331:209|333:145,1,100,10|0,1:2|0:0,1:2:0:0:
332,162,138590,1,2,1:2:0:0:
328,348,138955,6,0,P|403:335|443:328,1,100,2|0,1:2|0:0,1:2:0:0:
427,244,139321,2,0,P|352:257|312:264,1,100,2|0,1:2|0:0,1:2:0:0:
478,81,139687,6,0,P|486:130|495:179,1,100,8|0,1:2|0:0,1:2:0:0:
343,56,140053,1,0,1:2:0:0:
419,28,140236,1,0,1:2:0:0:
231,139,140419,6,0,P|163:135|93:127,1,100,2|0,1:2|0:0,1:2:0:0:
121,213,140785,2,0,P|189:217|259:225,1,100,2|0,1:2|0:0,1:2:0:0:
357,346,141151,6,0,P|289:342|219:334,1,100,10|0,1:2|0:0,1:2:0:0:
257,338,141516,1,2,1:2:0:0:
32,215,141882,6,0,P|45:284|54:331,1,100,2|0,1:2|0:0,1:2:0:0:
139,311,142248,2,0,P|126:242|117:195,1,100,2|0,1:2|0:0,1:2:0:0:
172,55,142614,6,0,P|103:68|56:77,1,100,8|0,1:2|0:0,1:2:0:0:
298,95,142980,1,0,1:2:0:0:
263,22,143163,1,0,1:2:0:0:
45,181,143346,5,2,1:2:0:0:
49,166,143529,1,2,1:2:0:0:
123,202,143712,5,2,1:2:0:0:
127,217,143894,1,2,1:2:0:0:
199,175,144077,5,10,1:2:0:0:
248,168,144260,1,2,1:2:0:0:
293,188,144443,1,2,1:2:0:0:
322,227,144626,1,2,1:2:0:0:
233,264,144809,6,0,P|175:261|106:253,1,100,2|2,1:2|0:0,1:2:0:0:
47,298,145175,5,2,1:2:0:0:
29,293,145358,1,2,1:2:0:0:
120,359,145541,5,10,1:2:0:0:
138,354,145724,1,2,1:2:0:0:
230,340,145907,5,2,1:2:0:0:
310,371,146090,1,2,1:2:0:0:
359,293,146273,6,0,P|352:256|348:236,3,50,2|2|2|2,1:2|0:0|0:0|0:0,1:2:0:0:
499,310,146638,1,10,1:2:0:0:
500,297,146730,1,2,1:2:0:0:
502,282,146821,2,0,L|450:276,1,50,2|2,1:2|0:0,1:2:0:0:
362,161,147004,6,0,L|313:167,3,50,10|2|2|2,1:2|0:0|0:0|0:0,1:2:0:0:
463,56,147370,2,0,L|512:61,3,50,10|2|2|2,1:2|0:0|0:0|0:0,1:2:0:0:
389,48,147736,5,2,1:2:0:0:
444,18,149199,6,0,P|446:135|461:319,1,279.999991455078,6|8,1:2|0:0,1:2:0:0:
283,267,149748,1,2,1:2:0:0:
317,342,149931,1,0,1:2:0:0:
168,214,150114,1,2,1:2:0:0:
134,289,150297,1,8,1:2:0:0:
254,187,150480,1,0,1:2:0:0:
22,147,150663,6,0,B|167:171|153:56|304:77,1,279.999991455078,2|8,1:2|0:0,1:2:0:0:
254,187,151212,1,2,1:2:0:0:
299,293,151394,1,0,1:2:0:0:
221,330,151577,1,2,1:2:0:0:
330,218,151760,1,8,1:2:0:0:
169,168,151943,1,0,1:2:0:0:
39,151,152126,6,0,L|44:291,1,139.999995727539,2|0,1:2|0:0,1:2:0:0:
189,143,152492,1,8,1:2:0:0:
35,44,152675,2,0,P|117:56|198:58,1,139.999995727539,2|0,1:2|0:0,1:2:0:0:
192,291,153041,2,0,P|110:279|29:277,1,139.999995727539,2|8,1:2|0:0,1:2:0:0:
222,135,153407,6,0,B|377:168|341:35|488:74,1,279.999991455078,0|0,1:2|0:0,1:2:0:0:
423,249,153955,1,8,1:2:0:0:
427,155,154138,1,2,1:2:0:0:
23,87,154321,5,2,1:2:0:0:
207,127,154504,1,2,1:2:0:0:
208,104,154596,1,2,1:2:0:0:
207,82,154687,1,10,1:2:0:0:
381,38,154870,1,2,1:2:0:0:
200,250,155053,6,0,P|81:246|9:237,1,139.999995727539,4|0,1:2|0:0,1:2:0:0:
325,219,155419,1,8,1:2:0:0:
42,270,155602,2,0,P|161:266|233:257,1,139.999995727539,2|0,1:2|0:0,1:2:0:0:
323,342,155968,5,2,1:2:0:0:
299,224,156151,1,8,1:2:0:0:
276,106,156334,1,0,1:2:0:0:
4,154,156516,5,2,1:2:0:0:
205,167,156699,1,0,1:2:0:0:
142,113,156882,1,8,1:2:0:0:
15,244,157065,1,2,1:2:0:0:
23,144,157248,5,2,1:2:0:0:
71,163,157340,1,2,1:2:0:0:
103,203,157431,1,2,1:2:0:0:
113,255,157523,1,2,1:2:0:0:
96,304,157614,1,10,1:2:0:0:
0,255,157797,1,2,1:2:0:0:
235,334,157980,6,0,P|304:341|374:342,1,139.999995727539,4|0,1:2|0:0,1:2:0:0:
154,374,158346,1,8,1:2:0:0:
390,317,158529,2,0,P|320:317|250:325,1,139.999995727539,2|0,1:2|0:0,1:2:0:0:
467,362,158894,1,2,1:2:0:0:
353,210,159077,5,8,1:2:0:0:
512,174,159260,1,0,1:2:0:0:
217,134,159443,5,2,1:2:0:0:
58,98,159626,1,0,1:2:0:0:
371,68,159809,6,0,B|391:133|391:133|367:215,1,139.999995727539,8|2,1:2|0:0,1:2:0:0:
125,233,160175,1,0,1:2:0:0:
150,226,160266,1,0,1:2:0:0:
176,221,160358,1,2,1:2:0:0:
338,312,160541,1,8,1:2:0:0:
506,259,160724,1,0,1:2:0:0:
356,129,160907,6,0,P|236:122|28:122,1,279.999991455078,6|8,1:2|0:0,1:2:0:0:
314,311,161455,1,2,1:2:0:0:
373,234,161638,1,0,1:2:0:0:
139,198,161821,1,2,1:2:0:0:
176,287,162004,1,8,1:2:0:0:
326,139,162187,1,0,1:2:0:0:
109,66,162370,6,0,B|249:112|252:11|390:44,1,279.999991455078,2|8,1:2|0:0,1:2:0:0:
452,151,162919,1,2,1:2:0:0:
388,262,163102,1,0,1:2:0:0:
462,249,163285,1,2,1:2:0:0:
348,146,163468,1,8,1:2:0:0:
491,76,163651,1,0,1:2:0:0:
207,138,163834,5,2,1:2:0:0:
136,19,164016,1,0,1:2:0:0:
103,86,164199,1,8,1:2:0:0:
219,44,164382,2,0,P|203:104|222:185,1,139.999995727539,2|0,1:2|0:0,1:2:0:0:
492,188,164748,2,0,P|508:128|489:47,1,139.999995727539,2|8,1:2|0:0,1:2:0:0:
350,312,165114,6,0,P|292:227|106:285,1,279.999991455078,0|0,1:2|0:0,1:2:0:0:
54,366,165663,1,8,1:2:0:0:
156,337,165846,1,2,1:2:0:0:
3,113,166029,5,2,1:2:0:0:
176,67,166212,1,2,1:2:0:0:
181,88,166303,1,2,1:2:0:0:
186,107,166394,1,10,1:2:0:0:
374,51,166577,1,2,1:2:0:0:
271,31,166760,6,0,P|288:117|269:192,1,139.999995727539,4|0,1:2|0:0,1:2:0:0:
15,186,167126,2,0,P|-2:100|17:25,1,139.999995727539,8|2,1:2|0:0,1:2:0:0:
215,254,167492,5,0,1:2:0:0:
57,286,167675,1,2,1:2:0:0:
105,222,167858,1,8,1:2:0:0:
210,342,168041,1,0,1:2:0:0:
496,328,168224,5,2,1:2:0:0:
295,315,168407,1,0,1:2:0:0:
358,369,168590,1,8,1:2:0:0:
485,238,168773,1,2,1:2:0:0:
477,338,168955,5,2,1:2:0:0:
428,318,169047,1,2,1:2:0:0:
396,278,169138,1,2,1:2:0:0:
386,226,169230,1,2,1:2:0:0:
403,177,169321,1,10,1:2:0:0:
500,227,169504,1,2,1:2:0:0:
196,353,169687,6,0,P|263:358|358:363,1,139.999995727539,4|0,1:2|0:0,1:2:0:0:
183,234,170053,1,8,1:2:0:0:
68,359,170236,2,0,P|75:299|74:209,1,139.999995727539,2|0,1:2|0:0,1:2:0:0:
261,278,170602,1,2,1:2:0:0:
194,150,170785,5,8,1:2:0:0:
27,127,170968,1,0,1:2:0:0:
133,27,171151,5,2,1:2:0:0:
111,109,171334,1,0,1:2:0:0:
317,123,171516,5,8,1:2:0:0:
231,82,171699,1,2,1:2:0:0:
228,57,171882,5,0,1:2:0:0:
89,119,172065,1,2,1:2:0:0:
81,95,172248,5,8,1:2:0:0:
52,302,172431,1,0,1:2:0:0:
159,211,172614,6,0,P|219:211|279:220,1,119.999996337891,6|0,1:2|0:0,1:2:0:0:
159,309,172980,1,8,1:2:0:0:
263,351,173163,2,0,P|322:342|382:342,1,119.999996337891,2|0,1:2|0:0,1:2:0:0:
512,321,173529,1,2,1:2:0:0:
430,278,173712,2,0,P|431:220|427:153,1,119.999996337891,8|0,1:2|0:0,1:2:0:0:
223,47,174077,6,0,P|222:105|226:172,1,119.999996337891,2|0,1:2|0:0,1:2:0:0:
354,205,174443,1,8,1:2:0:0:
316,137,174626,1,2,1:2:0:0:
255,326,174809,1,0,1:2:0:0:
324,293,174992,1,2,1:2:0:0:
141,225,175175,6,0,P|94:224|1:217,1,119.999996337891,8|0,1:2|0:0,1:2:0:0:
212,18,175541,2,0,P|276:81|234:156,1,179.999994506836,2|0,1:2|0:0,1:2:0:0:
216,170,175907,6,0,P|148:137|89:149,1,119.999996337891,8|2,1:2|0:0,1:2:0:0:
71,309,176273,2,0,P|139:342|198:330,1,119.999996337891,0|2,1:2|0:0,1:2:0:0:
282,213,176638,6,0,L|265:335,1,119.999996337891,8|0,1:2|0:0,1:2:0:0:
509,193,177004,2,0,P|429:167|384:249,1,179.999994506836,2|0,1:2|0:0,1:2:0:0:
390,262,177370,6,0,P|409:338|379:401,1,119.999996337891,8|2,1:2|0:0,1:2:0:0:
169,377,177736,2,0,P|150:301|180:238,1,119.999996337891,0|2,1:2|0:0,1:2:0:0:
300,169,178102,1,8,1:2:0:0:
262,237,178285,1,0,1:2:0:0:
20,174,178468,6,0,P|85:184|161:183,1,119.999996337891,6|0,1:2|0:0,1:2:0:0:
175,50,178834,1,8,1:2:0:0:
238,98,179016,2,0,P|310:111|363:109,1,119.999996337891,2|0,1:2|0:0,1:2:0:0:
502,72,179382,1,2,1:2:0:0:
398,26,179565,2,0,P|376:91|380:159,1,119.999996337891,8|0,1:2|0:0,1:2:0:0:
489,268,179931,6,0,P|419:260|345:265,1,119.999996337891,2|0,1:2|0:0,1:2:0:0:
237,368,180297,1,8,1:2:0:0:
319,341,180480,1,2,1:2:0:0:
181,218,180663,1,0,1:2:0:0:
175,300,180846,2,0,P|135:293|31:294,1,119.999996337891,2|8,1:2|0:0,1:2:0:0:
284,206,181212,5,0,1:2:0:0:
277,181,181303,1,0,1:2:0:0:
266,153,181394,2,0,P|171:146|57:138,1,179.999994506836,2|0,1:2|0:0,1:2:0:0:
55,151,181760,1,8,1:2:0:0:
170,38,181943,2,0,P|88:49|38:54,2,119.999996337891,2|0|2,1:2|0:0|0:0,1:2:0:0:
311,89,182492,1,8,1:2:0:0:
466,35,182675,1,0,1:2:0:0:
419,295,182858,6,0,P|404:175|385:57,1,239.999992675781,2|8,1:2|0:0,1:2:0:0:
174,303,183407,5,2,1:2:0:0:
334,254,183590,1,0,1:2:0:0:
313,334,183773,1,2,1:2:0:0:
190,201,183955,1,8,1:2:0:0:
21,244,184138,1,0,1:2:0:0:
166,343,184321,5,2,1:2:0:0:
