osu file format v14

[General]
AudioFilename: audio.mp3
AudioLeadIn: 0
PreviewTime: 47126
Countdown: 0
SampleSet: Soft
StackLeniency: 0.7
Mode: 0
LetterboxInBreaks: 0
WidescreenStoryboard: 1

[Editor]
Bookmarks: 14222,37637,77149,88856,138612,185441
DistanceSpacing: 1
BeatDivisor: 4
GridSize: 32
TimelineZoom: 1.400004

[Metadata]
Title:Heart Shaker
TitleUnicode:Heart Shaker
Artist:TWICE
ArtistUnicode:트와이스
Creator:ailv
Version:Normal
Source:
Tags:alvi kpop k-pop jyp entertainment japan korea once christmas xmas Merry & Happy sana jihyo dahyun nayeon jeongyeon chaeyoung momo mina shuwa tzuyu 나연 정연 모모 사나 지효 미나 다현 채영 쯔위 Tatan shiinoha kotone tomadoi
BeatmapID:1789611
BeatmapSetID:819769

[Difficulty]
HPDrainRate:3
CircleSize:3
OverallDifficulty:4
ApproachRate:6
SliderMultiplier:0.999999999999999
SliderTickRate:1

[Events]
//Background and Video events
Video,-1120,"TWICE 'Heart Shaker' MV.avi"
0,0,"DP2lQEGUIAAIfIc.jpg",0,0
//Break Periods
2,125441,129125
//Storyboard Layer 0 (Background)
//Storyboard Layer 1 (Fail)
//Storyboard Layer 2 (Pass)
//Storyboard Layer 3 (Foreground)
//Storyboard Layer 4 (Overlay)
//Storyboard Sound Samples

[TimingPoints]
526,480,4,2,0,30,1,0
526,-100,4,2,0,30,0,0
1395,365.853658536585,4,2,1,60,1,0
11638,-100,4,2,1,70,0,0
13102,-100,4,2,1,60,0,0
46806,-100,4,2,1,60,0,0
48224,-100,4,2,1,80,0,1
73102,-100,4,2,1,60,0,0
87736,-100,4,2,1,70,0,0
98026,-100,4,2,1,70,0,0
99443,-100,4,2,1,80,0,1
124321,-100,4,2,1,50,0,0
135937,-100,4,2,1,50,0,0
137492,-100,4,2,1,70,0,0
147736,-100,4,1,1,70,0,0
149108,-100,4,1,1,70,0,0
149199,-100,4,2,1,80,0,1
172614,-100,4,2,1,80,0,0
176273,-100,4,2,1,80,0,0
176638,-100,4,2,1,80,0,0
177736,-100,4,2,1,80,0,0
178102,-100,4,2,1,80,0,0

[Colours]
Combo1 : 91,134,244
Combo2 : 88,237,197
Combo3 : 234,120,243
Combo4 : 138,120,241

[HitObjects]
256,192,8712,12,2,11638,1:2:0:0:
496,234,13102,22,0,P|443:228|375:235,1,99.9999999999999,2|8,1:2|1:2,0:0:0:0:
349,248,13651,2,0,L|341:194,1,50,2|0,1:2|1:2,0:0:0:0:
324,99,14199,1,8,1:2:0:0:
232,57,14565,2,0,P|184:44|105:71,1,99.9999999999999,2|8,0:0|1:2,0:0:0:0:
82,137,15297,2,0,B|72:192|72:192|87:237,1,99.9999999999999,0|8,1:2|1:2,0:0:0:0:
135,320,16029,5,2,1:2:0:0:
228,285,16394,1,8,1:2:0:0:
321,319,16760,2,0,P|317:264|320:212,1,99.9999999999999,0|8,1:2|1:2,0:0:0:0:
379,138,17492,2,0,P|433:134|486:137,1,99.9999999999999,2|8,0:0|1:2,0:0:0:0:
510,175,18041,2,0,L|501:260,1,50,2|0,1:2|1:2,0:0:0:0:
498,324,18590,1,8,1:2:0:0:
403,292,18955,6,0,P|399:193|408:127,2,150,2|2|8,1:2|1:2|0:0,0:0:0:0:
304,312,20419,2,0,P|308:213|299:147,2,150,2|2|8,1:2|1:2|0:0,0:0:0:0:
207,338,21882,6,0,L|99:338,1,99.9999999999999,2|8,1:2|1:2,0:0:0:0:
57,332,22431,2,0,L|60:280,1,50,2|0,1:2|0:0,0:0:0:0:
127,207,22980,2,0,L|235:207,1,99.9999999999999,8|2,1:2|0:0,0:0:0:0:
275,195,23529,2,0,L|277:145,1,50,0|0,1:2|1:2,0:0:0:0:
217,65,24077,1,0,0:0:0:0:
302,12,24443,2,0,L|354:21,1,50,8|8,1:2|1:2,0:0:0:0:
395,44,24809,6,0,P|381:122|379:169,1,99.9999999999999,6|8,1:2|1:2,0:0:0:0:
400,188,25358,2,0,P|351:160|293:169,1,99.9999999999999,2|2,1:2|0:0,0:0:0:0:
269,193,25907,1,8,1:2:0:0:
178,235,26273,2,0,L|162:132,1,99.9999999999999,2|8,1:2|1:2,0:0:0:0:
130,98,26821,2,0,P|75:95|32:113,1,99.9999999999999,2|2,1:2|0:0,0:0:0:0:
0,148,27370,1,8,1:2:0:0:
12,247,27736,6,0,P|17:298|29:375,1,99.9999999999999,2|8,1:2|1:2,0:0:0:0:
63,376,28285,2,0,P|115:356|175:370,1,99.9999999999999,2|2,1:2|1:2,0:0:0:0:
205,378,28834,1,8,1:2:0:0:
295,336,29199,2,0,L|304:236,1,99.9999999999999,2|8,1:2|1:2,0:0:0:0:
285,189,29748,2,0,P|343:190|392:196,1,99.9999999999999,2|2,1:2|1:2,0:0:0:0:
434,204,30297,1,8,0:0:0:0:
451,105,30663,6,0,P|432:53|516:48,2,150,2|2|8,1:2|1:2|0:0,0:0:0:0:
353,126,32126,2,0,L|201:103,2,150,2|2|8,1:2|1:2|0:0,0:0:0:0:
392,218,33590,6,0,L|392:326,1,99.9999999999999,2|10,1:2|1:2,0:0:0:0:
381,367,34138,2,0,L|329:364,1,50,2|2,1:2|0:0,0:0:0:0:
237,327,34687,2,0,L|237:219,1,99.9999999999999,10|2,1:2|1:2,0:0:0:0:
225,179,35236,2,0,L|175:176,1,50,2|10,1:2|1:2,0:0:0:0:
98,240,35785,1,2,1:2:0:0:
27,168,36151,2,0,L|36:116,1,50,10|2,1:2|0:0,0:0:0:0:
46,69,36516,22,0,L|167:46,2,99.9999999999999,6|2|8,1:2|1:2|1:2,0:0:0:0:
244,92,37980,2,0,L|365:69,2,99.9999999999999,2|2|8,1:2|1:2|1:2,0:0:0:0:
376,242,39443,22,0,L|255:219,2,99.9999999999999,2|2|8,1:2|1:2|1:2,0:0:0:0:
189,314,40907,2,0,L|68:291,2,99.9999999999999,2|2|8,1:2|1:2|1:2,0:0:0:0:
285,341,42004,1,0,0:0:0:0:
297,241,42370,6,0,L|308:109,2,99.9999999999999,2|2|8,1:2|1:2|1:2,0:0:0:0:
375,303,43468,2,0,P|405:301|432:294,1,50,0|0,0:0|1:2,0:0:0:0:
460,262,43834,2,0,P|470:208|461:156,2,99.9999999999999,2|2|8,1:2|1:2|1:2,0:0:0:0:
367,300,44931,1,0,0:0:0:0:
296,228,45297,6,0,L|307:115,1,99.9999999999999,2|2,1:2|1:2,0:0:0:0:
271,34,46029,1,10,1:2:0:0:
171,44,46394,1,2,1:2:0:0:
122,131,46760,5,2,1:2:0:0:
123,131,48224,22,0,P|126:191|129:240,1,99.9999999999999,6|8,1:2|0:0,0:0:0:0:
113,278,48773,2,0,L|22:271,2,50,2|0|2,1:2|1:2|1:2,0:0:0:0:
194,336,49504,2,0,P|260:327|376:355,1,150,0|8,1:2|0:0,0:0:0:0:
419,276,50419,1,0,1:2:0:0:
380,183,50785,1,8,0:0:0:0:
419,90,51151,6,0,L|302:87,1,99.9999999999999,2|8,1:2|1:2,0:0:0:0:
269,88,51699,1,2,1:2:0:0:
178,44,52065,1,2,1:2:0:0:
93,96,52431,2,0,P|110:162|125:264,1,150,0|8,1:2|1:2,0:0:0:0:
81,334,53346,1,2,1:2:0:0:
174,384,53712,2,0,L|229:371,1,50,10|2,1:2|1:2,0:0:0:0:
267,349,54077,6,0,P|264:287|263:232,1,99.9999999999999,6|8,1:2|1:2,0:0:0:0:
266,198,54626,2,0,P|328:183|396:198,1,99.9999999999999,2|2,1:2|1:2,0:0:0:0:
410,97,55358,1,0,1:2:0:0:
410,97,55541,2,0,P|459:116|519:108,2,99.9999999999999,2|8|2,1:2|1:2|1:2,0:0:0:0:
329,36,56638,2,0,L|240:50,1,50,10|2,1:2|1:2,0:0:0:0:
237,70,57004,6,0,P|154:62|105:61,1,99.9999999999999,4|8,1:2|1:2,0:0:0:0:
91,81,57553,2,0,P|98:160|92:204,1,99.9999999999999,2|2,1:2|1:2,0:0:0:0:
76,278,58285,1,0,1:2:0:0:
76,278,58468,2,0,P|131:277|176:280,1,99.9999999999999,2|8,1:2|1:2,0:0:0:0:
258,336,59199,2,0,P|307:332|357:334,1,99.9999999999999,2|8,1:2|1:2,0:0:0:0:
448,290,59931,22,0,P|445:230|442:181,1,99.9999999999999,6|8,1:2|0:0,0:0:0:0:
460,143,60480,2,0,L|551:150,2,50,2|0|2,1:2|1:2|1:2,0:0:0:0:
389,71,61212,2,0,P|320:56|220:88,1,150,0|8,1:2|0:0,0:0:0:0:
163,133,62126,1,0,1:2:0:0:
73,88,62492,1,8,1:2:0:0:
2,159,62858,6,0,L|-1:276,1,99.9999999999999,2|8,1:2|1:2,0:0:0:0:
0,309,63407,1,2,1:2:0:0:
80,368,63773,1,2,1:2:0:0:
157,304,64138,2,0,P|223:287|312:318,1,150,0|8,1:2|1:2,0:0:0:0:
389,265,65053,1,2,1:2:0:0:
326,186,65419,2,0,L|334:126,1,50,10|2,1:2|1:2,0:0:0:0:
334,86,65785,6,0,P|272:89|217:90,1,99.9999999999999,4|8,1:2|1:2,0:0:0:0:
141,51,66516,2,0,P|144:113|145:168,1,99.9999999999999,0|8,1:2|1:2,0:0:0:0:
116,192,67065,1,0,1:2:0:0:
116,192,67248,2,0,P|67:173|7:181,2,99.9999999999999,2|8|2,1:2|1:2|1:2,0:0:0:0:
188,260,68346,2,0,L|277:246,1,50,10|2,1:2|1:2,0:0:0:0:
283,272,68712,6,0,P|366:280|415:281,1,99.9999999999999,4|8,1:2|1:2,0:0:0:0:
426,305,69260,2,0,P|419:226|425:182,1,99.9999999999999,2|2,1:2|1:2,0:0:0:0:
442,160,69809,1,8,1:2:0:0:
480,67,70175,2,0,P|428:69|368:63,1,99.9999999999999,2|8,1:2|1:2,0:0:0:0:
284,36,70907,2,0,P|234:40|184:37,1,99.9999999999999,2|8,1:2|1:2,0:0:0:0:
99,91,71638,5,2,1:2:0:0:
99,91,73102,22,0,L|110:190,1,99.9999999999999,2|2,1:2|1:2,0:0:0:0:
210,202,73834,2,0,L|198:301,1,99.9999999999999,4|8,1:2|1:2,0:0:0:0:
287,347,74565,1,8,1:2:0:0:
386,341,74931,1,8,1:2:0:0:
485,329,75297,1,12,1:2:0:0:
485,329,76029,6,0,L|470:220,1,99.9999999999999,2|8,1:2|1:2,0:0:0:0:
458,181,76577,2,0,L|398:190,1,50,2|0,1:2|1:2,0:0:0:0:
353,106,77126,1,8,0:0:0:0:
286,180,77492,2,0,L|278:302,1,99.9999999999999,2|8,1:2|1:2,0:0:0:0:
184,310,78224,2,0,L|177:210,1,99.9999999999999,0|8,1:2|1:2,0:0:0:0:
126,124,78955,6,0,P|76:124|27:113,1,99.9999999999999,2|8,0:0|1:2,0:0:0:0:
79,27,79687,1,0,1:2:0:0:
178,34,80053,2,0,L|306:31,1,99.9999999999999,8|2,1:2|0:0,0:0:0:0:
324,120,80785,2,0,P|323:147|322:169,1,50,8|2,1:2|1:2,0:0:0:0:
324,220,81151,2,0,P|376:233|424:221,1,99.9999999999999,0|8,1:2|1:2,0:0:0:0:
500,163,81882,6,0,L|513:3,2,150,2|2|8,1:2|1:2|1:2,0:0:0:0:
414,214,83346,2,0,L|426:363,2,150,2|2|8,1:2|1:2|1:2,0:0:0:0:
354,133,84809,6,0,L|241:130,1,99.9999999999999,2|8,1:2|1:2,0:0:0:0:
203,128,85358,2,0,L|197:189,1,50,2|0,1:2|0:0,0:0:0:0:
191,277,85907,2,0,L|78:280,1,99.9999999999999,8|2,1:2|1:2,0:0:0:0:
40,282,86455,2,0,L|34:221,1,50,2|10,1:2|1:2,0:0:0:0:
81,143,87004,1,2,1:2:0:0:
36,39,87370,2,0,P|63:36|101:31,1,50,10|2,1:2|0:0,0:0:0:0:
129,58,87736,6,0,L|112:186,2,99.9999999999999,4|2|8,1:2|1:2|1:2,0:0:0:0:
192,247,89199,2,0,L|209:375,2,99.9999999999999,2|2|8,1:2|1:2|1:2,0:0:0:0:
279,66,90663,6,0,L|262:194,2,99.9999999999999,2|2|8,1:2|1:2|1:2,0:0:0:0:
342,255,92126,2,0,L|359:383,2,99.9999999999999,2|2|8,1:2|1:2|1:2,0:0:0:0:
398,172,93224,1,0,0:0:0:0:
352,83,93590,6,0,L|484:94,2,99.9999999999999,2|2|8,1:2|1:2|1:2,0:0:0:0:
253,62,94687,2,0,P|254:92|262:119,1,50,0|0,0:0|1:2,0:0:0:0:
247,160,95053,2,0,P|194:151|141:158,2,99.9999999999999,2|2|8,1:2|1:2|1:2,0:0:0:0:
309,238,96151,1,0,0:0:0:0:
236,307,96516,6,0,L|123:296,1,99.9999999999999,2|2,1:2|1:2,0:0:0:0:
55,237,97248,1,8,1:2:0:0:
31,140,97614,1,0,1:2:0:0:
93,62,97980,5,2,1:2:0:0:
93,64,99443,22,0,P|153:61|202:58,1,99.9999999999999,6|8,1:2|0:0,0:0:0:0:
242,53,99992,2,0,L|249:-38,2,50,2|0|2,1:2|1:2|1:2,0:0:0:0:
313,122,100724,2,0,P|386:135|460:126,1,150,0|8,1:2|0:0,0:0:0:0:
446,225,101638,1,0,1:2:0:0:
478,319,102004,1,8,0:0:0:0:
395,375,102370,6,0,L|295:372,1,99.9999999999999,2|8,1:2|1:2,0:0:0:0:
245,373,102919,1,2,1:2:0:0:
145,376,103285,1,2,1:2:0:0:
49,346,103651,2,0,P|32:280|17:178,1,150,0|8,1:2|1:2,0:0:0:0:
98,138,104565,1,2,1:2:0:0:
44,53,104931,2,0,L|92:41,1,50,10|2,1:2|1:2,0:0:0:0:
142,49,105297,6,0,P|204:46|259:45,1,99.9999999999999,4|8,1:2|1:2,0:0:0:0:
271,85,105846,2,0,P|268:134|282:182,1,99.9999999999999,2|2,1:2|1:2,0:0:0:0:
259,280,106577,1,0,1:2:0:0:
259,280,106760,2,0,P|210:261|150:269,2,99.9999999999999,2|8|2,1:2|1:2|1:2,0:0:0:0:
307,367,107858,2,0,L|396:353,1,50,10|2,1:2|1:2,0:0:0:0:
404,345,108224,6,0,P|412:262|413:213,1,99.9999999999999,4|8,1:2|1:2,0:0:0:0:
432,199,108773,2,0,P|353:206|309:200,1,99.9999999999999,2|2,1:2|1:2,0:0:0:0:
256,139,109504,1,0,1:2:0:0:
256,139,109687,2,0,P|255:84|258:39,1,99.9999999999999,2|8,1:2|1:2,0:0:0:0:
159,24,110419,2,0,P|109:27|59:25,1,99.9999999999999,2|8,1:2|1:2,0:0:0:0:
59,126,111151,22,0,P|62:186|65:235,1,99.9999999999999,6|8,1:2|0:0,0:0:0:0:
54,275,111699,2,0,L|-37:268,2,50,2|0|2,1:2|1:2|1:2,0:0:0:0:
131,338,112431,2,0,P|200:353|300:321,1,150,0|8,1:2|0:0,0:0:0:0:
349,266,113346,1,0,1:2:0:0:
433,318,113712,1,8,1:2:0:0:
506,249,114077,6,0,L|509:132,1,99.9999999999999,2|8,1:2|1:2,0:0:0:0:
511,99,114626,1,2,1:2:0:0:
431,38,114992,1,2,1:2:0:0:
356,104,115358,2,0,P|290:121|201:90,1,150,2|8,1:2|1:2,0:0:0:0:
120,137,116273,1,2,1:2:0:0:
166,225,116638,2,0,L|158:285,1,50,10|2,1:2|1:2,0:0:0:0:
165,324,117004,6,0,P|115:325|65:327,1,99.9999999999999,4|8,1:2|1:2,0:0:0:0:
3,248,117736,2,0,P|0:186|-1:131,1,99.9999999999999,0|8,1:2|1:2,0:0:0:0:
47,133,118285,1,0,1:2:0:0:
47,133,118468,2,0,P|96:152|156:144,2,99.9999999999999,2|8|2,1:2|1:2|1:2,0:0:0:0:
1,43,119565,2,0,L|50:35,1,50,10|2,1:2|1:2,0:0:0:0:
100,39,119931,6,0,P|149:41|199:47,1,99.9999999999999,4|8,1:2|1:2,0:0:0:0:
226,90,120480,2,0,P|233:169|227:213,1,99.9999999999999,2|2,1:2|1:2,0:0:0:0:
209,234,121029,1,8,1:2:0:0:
159,321,121394,2,0,P|210:318|271:325,1,99.9999999999999,2|8,1:2|1:2,0:0:0:0:
351,360,122126,2,0,P|346:310|349:260,1,99.9999999999999,2|8,1:2|1:2,0:0:0:0:
372,162,122858,5,2,1:2:0:0:
256,192,130175,12,0,136029,1:2:0:0:
353,291,137492,6,0,L|339:183,1,99.9999999999999,2|2,1:2|1:2,0:0:0:0:
280,111,138224,2,0,L|388:97,1,99.9999999999999,10|2,1:2|1:2,0:0:0:0:
465,148,138955,1,2,1:2:0:0:
465,148,139138,2,0,L|464:197,1,50,0|2,0:0|1:2,0:0:0:0:
463,298,139687,1,8,1:2:0:0:
463,298,140419,6,0,P|419:313|346:284,1,99.9999999999999,2|2,1:2|1:2,0:0:0:0:
300,227,141151,2,0,P|252:215|205:230,1,99.9999999999999,10|2,1:2|1:2,0:0:0:0:
138,305,141882,1,2,1:2:0:0:
138,305,142065,2,0,L|118:259,1,50,0|2,0:0|1:2,0:0:0:0:
34,204,142614,1,8,1:2:0:0:
161,49,143346,6,0,L|264:46,1,99.9999999999999,2|2,1:2|1:2,0:0:0:0:
354,82,144077,2,0,P|365:129|366:196,1,99.9999999999999,10|2,1:2|1:2,0:0:0:0:
321,269,144809,1,2,1:2:0:0:
321,269,144992,2,0,P|291:266|260:268,1,50,2|2,0:0|1:2,0:0:0:0:
175,238,145541,2,0,L|164:183,1,50,10|2,1:2|1:2,0:0:0:0:
193,146,145907,2,0,L|203:91,1,50,2|2,1:2|1:2,0:0:0:0:
177,53,146273,5,2,1:2:0:0:
326,62,146821,1,2,1:2:0:0:
326,62,147004,2,0,L|446:44,1,99.9999999999999,10|10,1:2|1:2,0:0:0:0:
492,121,147736,1,2,1:2:0:0:
492,121,149199,22,0,P|489:170|486:220,1,99.9999999999999,6|8,1:2|0:0,0:0:0:0:
462,265,149748,2,0,L|553:272,2,50,2|0|2,1:2|1:2|1:2,0:0:0:0:
389,333,150480,2,0,P|315:346|241:337,1,150,0|8,1:2|0:0,0:0:0:0:
178,258,151394,1,0,1:2:0:0:
237,177,151760,1,8,1:2:0:0:
163,108,152126,6,0,L|46:111,1,99.9999999999999,2|8,1:2|1:2,0:0:0:0:
13,114,152675,1,2,1:2:0:0:
50,206,153041,1,2,1:2:0:0:
9,297,153407,2,0,P|75:314|162:305,1,150,0|8,1:2|1:2,0:0:0:0:
232,242,154321,1,2,1:2:0:0:
182,155,154687,2,0,L|195:100,1,50,10|2,1:2|1:2,0:0:0:0:
228,71,155053,6,0,P|290:74|345:75,1,99.9999999999999,4|8,1:2|1:2,0:0:0:0:
377,81,155602,2,0,P|392:143|377:211,1,99.9999999999999,2|2,1:2|1:2,0:0:0:0:
394,278,156334,1,0,1:2:0:0:
394,278,156516,2,0,P|443:259|503:267,2,99.9999999999999,2|8|2,1:2|1:2|1:2,0:0:0:0:
323,348,157614,2,0,L|234:334,1,50,10|2,1:2|1:2,0:0:0:0:
237,314,157980,6,0,P|154:322|105:323,1,99.9999999999999,4|8,1:2|1:2,0:0:0:0:
91,303,158529,2,0,P|98:224|92:180,1,99.9999999999999,2|2,1:2|1:2,0:0:0:0:
76,106,159260,1,0,1:2:0:0:
76,106,159443,2,0,P|131:107|176:104,1,99.9999999999999,2|8,1:2|1:2,0:0:0:0:
258,48,160175,2,0,P|307:52|357:50,1,99.9999999999999,0|8,1:2|1:2,0:0:0:0:
392,143,160907,22,0,P|389:203|386:252,1,99.9999999999999,6|8,1:2|0:0,0:0:0:0:
414,284,161455,2,0,L|505:277,2,50,2|0|2,1:2|1:2|1:2,0:0:0:0:
321,322,162187,2,0,P|252:337|152:305,1,150,0|8,1:2|0:0,0:0:0:0:
80,349,163102,1,0,1:2:0:0:
4,283,163468,1,8,1:2:0:0:
50,194,163834,6,0,L|47:77,1,99.9999999999999,2|8,1:2|1:2,0:0:0:0:
48,44,164382,1,2,1:2:0:0:
146,27,164748,1,2,1:2:0:0:
202,109,165114,2,0,P|284:126|357:95,1,150,0|8,1:2|1:2,0:0:0:0:
432,55,166029,1,2,1:2:0:0:
503,124,166394,2,0,L|511:184,1,50,10|2,1:2|1:2,0:0:0:0:
493,220,166760,6,0,P|431:217|376:216,1,99.9999999999999,4|8,1:2|1:2,0:0:0:0:
328,293,167492,2,0,P|278:294|228:296,1,99.9999999999999,0|8,1:2|1:2,0:0:0:0:
180,283,168041,1,0,1:2:0:0:
180,283,168224,2,0,P|161:329|164:378,2,99.9999999999999,2|8|2,1:2|1:2|1:2,0:0:0:0:
230,196,169321,2,0,L|180:188,1,50,10|2,1:2|1:2,0:0:0:0:
130,182,169687,6,0,P|122:99|121:50,1,99.9999999999999,4|8,1:2|1:2,0:0:0:0:
160,50,170236,2,0,P|243:42|292:41,1,99.9999999999999,2|2,1:2|1:2,0:0:0:0:
306,58,170785,1,8,1:2:0:0:
401,27,171151,2,0,P|399:79|405:139,1,99.9999999999999,2|8,1:2|1:2,0:0:0:0:
426,224,171882,2,0,P|376:220|326:223,1,99.9999999999999,0|8,1:2|1:2,0:0:0:0:
229,247,172614,6,0,P|220:174|221:95,2,150,6|2|8,1:2|1:2|1:2,0:0:0:0:
129,234,174077,2,0,P|120:307|121:386,2,150,2|2|8,1:2|1:2|1:2,0:0:0:0:
51,170,175541,6,0,L|59:58,1,99.9999999999999,2|8,1:2|1:2,0:0:0:0:
151,33,176273,1,0,1:2:0:0:
210,113,176638,1,8,1:2:0:0:
145,206,177004,2,0,P|200:202|255:201,1,99.9999999999999,2|8,1:2|1:2,0:0:0:0:
326,259,177736,1,0,1:2:0:0:
421,228,178102,1,8,1:2:0:0:
359,148,178468,22,0,P|364:60|357:-31,2,150,6|2|8,1:2|1:2|1:2,0:0:0:0:
273,199,179931,2,0,P|269:273|274:348,2,150,2|2|8,1:2|1:2|0:0,0:0:0:0:
214,118,181394,6,0,P|153:110|102:120,1,99.9999999999999,2|8,1:2|1:2,0:0:0:0:
69,136,181943,2,0,P|61:197|71:248,1,99.9999999999999,2|2,1:2|0:0,0:0:0:0:
89,279,182492,1,8,1:2:0:0:
180,320,182858,2,0,L|299:299,1,99.9999999999999,2|8,1:2|0:0,0:0:0:0:
336,220,183590,38,0,L|319:110,2,99.9999999999999,0|8|2,1:2|1:2|1:2,0:0:0:0:
