osu file format v14

[General]
AudioFilename: audio.mp3
AudioLeadIn: 0
PreviewTime: 149130
Countdown: 0
SampleSet: Soft
StackLeniency: 0.7
Mode: 0
LetterboxInBreaks: 0
WidescreenStoryboard: 0

[Editor]
Bookmarks: 110807
DistanceSpacing: 1.3
BeatDivisor: 4
GridSize: 4
TimelineZoom: 2.2

[Metadata]
Title:Heart Shaker
TitleUnicode:Heart Shaker
Artist:TWICE
ArtistUnicode:트와이스
Creator:Sotarks
Version:Shaker Shaker!
Source:
Tags:kpop k-pop jyp entertainment japan korea once christmas xmas Merry & Happy sana jihyo dahyun nayeon jeongyeon chaeyoung momo mina tzuyu 나연 정연 모모 사나 지효 미나 다현 채영 쯔위 yuii- irohas mugiwarasekai eiri- ayyri
BeatmapID:1806803
BeatmapSetID:863840

[Difficulty]
HPDrainRate:5.2
CircleSize:3.8
OverallDifficulty:8.7
ApproachRate:9
SliderMultiplier:1.72
SliderTickRate:1

[Events]
//Background and Video events
0,0,"bg.jpg",0,0
Video,0,"video.avi"
//Break Periods
2,125441,130695
//Storyboard Layer 0 (Background)
//Storyboard Layer 1 (Fail)
//Storyboard Layer 2 (Pass)
//Storyboard Layer 3 (Foreground)
//Storyboard Sound Samples

[TimingPoints]
1646,480,4,2,22,52,1,0
2515,365.853658536585,4,2,22,52,1,0
2515,-161.290322580645,4,2,22,52,0,0
11295,-108.695652173913,4,2,22,52,0,0
13124,-138.888888888889,4,2,22,42,0,0
14222,-108.695652173913,4,2,22,62,0,0
37636,-121.951219512195,4,2,22,62,0,0
48246,-192.307692307692,4,2,22,42,0,0
49344,-98.0392156862744,4,2,22,82,0,1
72758,-98.0392156862744,4,2,22,62,0,0
74222,-138.888888888889,4,2,22,62,0,0
77149,-108.695652173913,4,2,22,62,0,0
88856,-121.951219512195,4,2,22,62,0,0
99466,-192.307692307692,4,2,22,42,0,0
100563,-98.0392156862744,4,2,22,82,0,1
123978,-98.0392156862744,4,2,22,62,0,0
131295,-192.307692307692,4,2,22,52,0,0
138612,-121.951219512195,4,2,22,62,0,0
148856,-238.095238095238,4,2,22,62,0,0
150228,-238.095238095238,4,2,22,5,0,0
150319,-98.0392156862745,4,2,22,82,0,1
173734,-98.0392156862744,4,2,22,72,0,0

[Colours]
Combo1 : 252,132,255
Combo2 : 102,255,251
Combo3 : 44,105,197
Combo4 : 191,191,191

[HitObjects]
89,314,2515,5,6,0:3:0:0:
134,237,2697,1,0,0:0:0:0:
123,335,2880,1,0,0:0:0:0:
251,238,3063,5,6,0:3:0:0:
206,315,3246,1,0,0:0:0:0:
217,217,3429,1,0,0:0:0:0:
350,293,3612,5,6,0:3:0:0:
413,230,3795,1,0,0:0:0:0:
229,337,3978,5,6,0:3:0:0:
424,334,4161,1,0,0:0:0:0:
251,238,4344,1,0,0:0:0:0:
471,149,4527,5,6,0:3:0:0:
276,152,4710,1,0,0:0:0:0:
445,244,4893,1,0,0:0:0:0:
301,70,5075,2,0,L|235:58,1,53.3199978846436,4|0,0:3|0:0,0:0:0:0:
108,204,5441,5,6,0:3:0:0:
246,164,5624,1,2,0:3:0:0:
92,180,5807,1,2,0:3:0:0:
231,262,5990,1,6,0:3:0:0:
166,97,6173,2,0,L|144:31,1,53.3199978846436,2|0,0:3|0:0,0:0:0:0:
384,124,6539,5,6,0:3:0:0:
246,164,6722,1,2,0:3:0:0:
400,148,6905,1,6,0:3:0:0:
261,66,7088,1,2,0:3:0:0:
326,231,7271,2,0,L|348:297,1,53.3199978846436,2|4,0:3|0:3,0:0:0:0:
384,124,7636,2,0,L|367:73,1,53.3199978846436,2|0,0:3|0:0,0:0:0:0:
314,251,8002,2,0,L|336:317,1,53.3199978846436,6|0,0:3|0:0,0:0:0:0:
156,115,8368,5,6,3:0:0:0:
127,266,8551,1,0,3:0:0:0:
132,91,8734,1,0,3:0:0:0:
191,321,8917,5,6,3:0:0:0:
220,170,9100,1,0,3:0:0:0:
215,345,9283,1,0,3:0:0:0:
156,115,9466,5,6,3:0:0:0:
232,363,9649,1,0,3:0:0:0:
59,203,9832,5,6,3:0:0:0:
300,146,10014,1,0,3:0:0:0:
35,177,10197,1,0,3:0:0:0:
354,211,10380,5,6,3:0:0:0:
113,268,10563,1,0,3:0:0:0:
378,237,10746,1,0,3:0:0:0:
62,94,10929,5,4,3:0:0:0:
357,17,11112,1,0,3:0:0:0:
146,186,11295,5,6,3:0:0:0:
145,146,11386,1,0,3:0:0:0:
165,113,11478,1,2,3:0:0:0:
201,97,11569,1,0,3:0:0:0:
239,102,11661,2,0,P|252:157|251:175,1,39.5599986719971,2|0,3:0|3:0,0:0:0:0:
348,173,11844,2,0,P|318:221|304:233,1,39.5599986719971,6|0,3:0|3:0,0:0:0:0:
248,263,12027,1,6,3:0:0:0:
250,282,12118,1,0,3:0:0:0:
252,302,12210,1,4,3:0:0:0:
255,321,12301,1,0,3:0:0:0:
257,341,12393,5,2,3:0:0:0:
228,289,12484,1,0,3:0:0:0:
178,259,12575,1,6,3:0:0:0:
119,256,12667,1,0,3:0:0:0:
66,281,12758,6,0,P|24:276|-7:248,1,79.1199973439942,0|0,0:0|0:0,0:0:0:0:
137,153,13124,2,0,P|206:132|273:128,2,123.840003023438,2|2|2,0:0|0:0|0:0,0:0:0:0:
441,270,14222,5,6,1:2:0:0:
370,137,14405,1,2,0:2:0:0:
285,311,14588,1,8,0:2:0:0:
403,246,14771,1,2,1:2:0:0:
249,150,14954,2,0,P|230:101|224:63,1,79.1199973439942,2|0,0:2|1:2,0:0:0:0:
184,272,15319,1,8,0:2:0:0:
330,198,15502,2,0,P|349:149|355:111,1,79.1199973439942,0|0,0:2|1:2,0:0:0:0:
145,178,15868,5,2,0:2:0:0:
255,49,16051,1,10,0:2:0:0:
240,189,16234,1,0,1:2:0:0:
104,58,16417,1,2,0:2:0:0:
172,265,16600,1,2,1:2:0:0:
272,85,16783,2,0,P|301:34|324:10,1,79.1199973439942,10|0,0:2|0:2,0:0:0:0:
134,146,17149,5,2,1:2:0:0:
321,227,17332,1,2,0:2:0:0:
142,277,17514,1,10,0:2:0:0:
302,197,17697,1,2,1:2:0:0:
121,115,17880,2,0,P|66:93|32:92,1,79.1199973439942,2|0,0:2|1:2,0:0:0:0:
266,95,18246,1,8,0:2:0:0:
121,241,18429,2,0,P|66:263|32:264,1,79.1199973439942,0|0,1:2|0:2,0:0:0:0:
268,185,18795,5,2,0:2:0:0:
229,340,18978,1,10,0:2:0:0:
245,148,19161,1,2,1:2:0:0:
386,308,19344,1,2,0:2:0:0:
434,109,19527,1,2,1:2:0:0:
296,272,19710,2,0,P|239:262|208:248,1,79.1199973439942,10|0,0:2|0:2,0:0:0:0:
362,44,20075,6,0,P|314:12|223:56,1,158.239994687988,6|8,1:2|0:2,0:0:0:0:
123,238,20624,2,0,P|137:143|137:63,1,158.239994687988,2|0,1:2|1:2,0:0:0:0:
271,235,21173,1,8,0:2:0:0:
336,83,21356,1,0,0:2:0:0:
450,252,21539,6,0,B|352:258|394:200|290:206,1,158.239994687988,2|8,1:2|1:2,0:0:0:0:
115,280,22088,2,0,P|162:232|172:211,1,79.1199973439942,2|0,1:2|0:2,0:0:0:0:
170,38,22454,1,0,1:2:0:0:
270,230,22636,1,8,0:2:0:0:
135,31,22819,1,0,0:2:0:0:
337,118,23002,6,0,P|388:54|473:54,1,158.239994687988,2|8,1:2|0:2,0:0:0:0:
422,270,23551,2,0,P|316:239|250:226,1,158.239994687988,2|0,1:2|1:2,0:0:0:0:
46,250,24100,1,10,0:2:0:0:
193,173,24283,1,0,1:2:0:0:
75,131,24466,1,2,0:2:0:0:
208,280,24649,1,0,0:2:0:0:
79,230,24832,1,10,0:2:0:0:
270,129,25014,1,0,1:2:0:0:
160,81,25197,1,2,0:2:0:0:
300,322,25380,5,10,0:2:0:0:
257,37,25563,1,10,0:2:0:0:
188,359,25746,1,10,0:2:0:0:
384,117,25929,6,0,P|459:167|445:249,1,158.239994687988,6|10,1:2|0:2,0:0:0:0:
211,231,26478,2,0,P|146:195|53:171,1,158.239994687988,2|0,1:2|1:2,0:0:0:0:
251,76,27027,1,10,0:2:0:0:
311,257,27210,1,2,0:2:0:0:
148,148,27393,5,2,1:2:0:0:
332,104,27575,1,2,0:2:0:0:
228,302,27758,1,10,0:2:0:0:
222,91,27941,2,0,P|207:39|192:12,1,79.1199973439942,2|0,1:2|0:2,0:0:0:0:
318,220,28307,1,2,1:2:0:0:
98,155,28490,2,0,P|113:103|128:76,1,79.1199973439942,10|2,0:2|0:2,0:0:0:0:
203,268,28856,5,2,1:2:0:0:
311,123,29039,1,2,0:2:0:0:
126,181,29222,1,10,0:2:0:0:
332,272,29405,2,0,P|380:292|420:296,1,79.1199973439942,2|0,1:2|0:2,0:0:0:0:
233,176,29771,1,2,1:2:0:0:
384,70,29954,1,10,0:2:0:0:
328,230,30136,1,2,1:2:0:0:
200,40,30319,5,2,0:2:0:0:
423,148,30502,1,2,1:2:0:0:
172,62,30685,1,10,0:2:0:0:
423,53,30868,2,0,P|476:35|511:29,1,79.1199973439942,2|0,1:2|0:2,0:0:0:0:
230,200,31234,2,0,P|191:191|154:177,2,79.1199973439942,2|8|0,1:2|0:2|0:2,0:0:0:0:
480,272,31783,6,0,B|384:272|429:332|301:336,1,158.239994687988,6|8,1:2|0:2,0:0:0:0:
112,267,32332,2,0,P|54:213|80:123,1,158.239994687988,2|0,1:2|1:2,0:0:0:0:
265,44,32880,1,8,0:2:0:0:
223,210,33063,1,0,0:2:0:0:
350,91,33246,2,0,P|430:46|510:24,1,158.239994687988,2|8,1:2|0:2,0:0:0:0:
387,222,33795,2,0,P|312:191|284:186,1,79.1199973439942,2|0,1:2|0:2,0:0:0:0:
134,277,34161,1,2,1:2:0:0:
249,87,34344,1,10,0:2:0:0:
170,259,34527,1,2,1:2:0:0:
54,109,34710,5,0,1:0:0:0:
66,72,34801,1,0,1:0:0:0:
94,45,34893,1,0,1:0:0:0:
132,33,34984,1,0,1:0:0:0:
170,38,35075,1,8,1:2:0:0:
203,59,35167,1,0,1:0:0:0:
224,93,35258,1,0,1:0:0:0:
228,132,35350,1,0,1:0:0:0:
215,168,35441,6,0,P|201:217|203:240,1,39.5599986719971,0|0,1:0|1:0,0:0:0:0:
341,296,35624,2,0,P|336:276|328:258,1,39.5599986719971,0|0,1:0|1:0,0:0:0:0:
175,298,35807,2,0,P|161:347|163:370,1,39.5599986719971,8|0,1:2|1:0,0:0:0:0:
352,276,35990,2,0,P|347:256|339:238,1,39.5599986719971,0|0,1:0|1:0,0:0:0:0:
135,124,36173,5,4,3:3:0:0:
100,142,36264,1,4,3:3:0:0:
82,177,36356,1,4,3:3:0:0:
85,215,36447,1,4,3:3:0:0:
109,246,36539,2,0,P|176:238|183:235,1,39.5599986719971,8|0,0:0|3:0,0:0:0:0:
282,141,36722,1,4,3:0:0:0:
293,103,36813,1,4,3:0:0:0:
289,64,36905,6,0,P|263:9|258:4,1,39.5599986719971,4|0,3:3|3:0,0:0:0:0:
122,86,37088,2,0,P|126:105|134:123,1,39.5599986719971,4|0,3:0|3:0,0:0:0:0:
303,47,37271,2,0,P|276:-8|271:-13,1,39.5599986719971,12|0,3:2|3:0,0:0:0:0:
208,198,37454,1,8,3:0:0:0:
211,237,37545,1,8,3:0:0:0:
215,276,37636,6,0,L|221:357,1,70.5200010760498,6|0,1:2|0:2,0:0:0:0:
361,195,38002,2,0,L|356:265,1,70.5200010760498,2|0,1:2|0:2,0:0:0:0:
188,44,38368,1,8,0:2:0:0:
115,107,38551,2,0,L|128:261,1,141.0400021521,2|0,0:2|0:2,0:0:0:0:
323,96,39100,6,0,L|406:78,1,70.5200010760498,2|0,1:2|0:2,0:0:0:0:
240,202,39466,2,0,L|308:216,1,70.5200010760498,2|0,1:2|0:2,0:0:0:0:
77,75,39832,2,0,L|240:43,1,141.0400021521,8|0,0:2|0:2,0:0:0:0:
323,96,40380,1,0,0:2:0:0:
161,250,40563,6,0,L|142:169,1,70.5200010760498,2|0,1:2|0:2,0:0:0:0:
313,305,40929,2,0,L|332:224,1,70.5200010760498,2|0,1:2|0:2,0:0:0:0:
113,346,41295,1,8,0:2:0:0:
49,257,41478,2,0,L|77:103,1,141.0400021521,0|2,1:2|0:2,0:0:0:0:
289,50,42027,5,0,1:2:0:0:
186,180,42210,1,2,0:2:0:0:
123,23,42393,1,0,1:2:0:0:
228,169,42575,1,2,0:2:0:0:
388,21,42758,1,8,0:2:0:0:
196,78,42941,1,0,0:2:0:0:
364,108,43124,1,0,0:2:0:0:
268,160,43307,1,0,0:2:0:0:
377,257,43490,6,0,L|398:340,1,70.5200010760498,2|0,1:2|0:2,0:0:0:0:
233,194,43856,2,0,L|212:277,1,70.5200010760498,2|0,1:2|0:2,0:0:0:0:
82,104,44222,1,8,0:2:0:0:
33,192,44405,2,0,L|62:347,1,141.0400021521,2|0,0:2|0:2,0:0:0:0:
184,100,44954,6,0,L|82:80,1,70.5200010760498,2|0,1:2|0:2,0:0:0:0:
248,217,45319,2,0,L|178:230,1,70.5200010760498,2|0,1:2|0:2,0:0:0:0:
404,57,45685,2,0,L|236:11,1,141.0400021521,8|0,0:2|0:2,0:0:0:0:
432,277,46417,6,0,L|450:348,1,70.5200010760498,2|0,1:2|0:2,0:0:0:0:
302,209,46783,2,0,L|284:277,1,70.5200010760498,2|0,1:2|0:2,0:0:0:0:
148,120,47149,1,8,0:2:0:0:
193,252,47332,1,2,1:2:0:0:
300,117,47514,1,2,0:2:0:0:
182,216,47697,1,2,0:2:0:0:
316,302,47880,1,2,1:2:0:0:
316,302,48246,6,0,P|364:264|398:264,1,89.4399994541016,2|0,0:0|0:0,0:0:0:0:
491,200,48795,2,0,P|447:192|416:160,1,89.4399994541016,2|0,0:0|0:0,0:0:0:0:
265,100,49344,6,0,B|160:100|211:37|70:38,1,175.440001070801,6|8,0:2|0:2,0:0:0:0:
262,9,49893,1,2,1:2:0:0:
112,138,50075,1,2,0:2:0:0:
274,225,50258,1,2,1:2:0:0:
274,225,50350,1,0,1:2:0:0:
274,225,50441,1,8,0:2:0:0:
234,39,50624,6,0,P|214:110|209:143,1,87.7200005354004,2|0,0:2|1:2,0:0:0:0:
324,279,50990,2,0,P|314:236|301:194,1,87.7200005354004,0|8,1:2|0:2,0:0:0:0:
178,291,51356,1,2,1:2:0:0:
306,156,51539,1,2,0:2:0:0:
146,213,51722,1,2,1:2:0:0:
343,302,51905,1,8,0:2:0:0:
167,187,52088,1,2,1:2:0:0:
356,58,52271,6,0,P|422:37|444:37,1,87.7200005354004,2|0,1:2|0:2,0:0:0:0:
179,59,52636,1,10,0:2:0:0:
329,186,52819,2,0,P|369:202|412:207,1,87.7200005354004,2|0,1:2|0:2,0:0:0:0:
220,71,53185,1,2,1:2:0:0:
289,270,53368,1,8,0:2:0:0:
111,126,53551,6,0,P|87:68|87:30,1,87.7200005354004,2|0,0:2|1:2,0:0:0:0:
180,232,53917,1,0,1:2:0:0:
300,42,54100,1,8,0:2:0:0:
144,149,54283,1,0,1:2:0:0:
365,107,54466,1,0,3:0:0:0:
399,107,54557,1,0,3:0:0:0:
429,125,54649,1,2,3:2:0:0:
444,156,54740,1,0,3:0:0:0:
442,190,54832,1,10,3:2:0:0:
417,223,54923,1,0,3:0:0:0:
370,239,55014,1,2,3:2:0:0:
321,213,55106,1,0,3:0:0:0:
266,199,55197,6,0,B|176:179|188:258|96:250,1,175.440001070801,6|10,1:2|0:2,0:0:0:0:
333,308,55746,2,0,P|248:286|240:281,1,87.7200005354004,2|0,1:2|0:2,0:0:0:0:
414,184,56112,1,2,1:2:0:0:
231,97,56295,2,0,P|187:101|147:118,1,87.7200005354004,8|2,0:2|0:2,0:0:0:0:
316,214,56661,5,2,1:2:0:0:
251,59,56844,1,2,1:2:0:0:
171,229,57027,1,10,0:2:0:0:
338,127,57210,1,0,1:2:0:0:
198,251,57393,1,2,3:2:0:0:
201,272,57484,1,0,3:0:0:0:
204,294,57575,1,2,3:2:0:0:
208,315,57667,1,0,3:0:0:0:
211,337,57758,1,10,3:2:0:0:
222,286,57850,1,0,3:0:0:0:
263,256,57941,1,2,3:2:0:0:
315,261,58033,1,0,3:0:0:0:
350,298,58124,6,0,P|402:325|492:239,1,175.440001070801,6|10,1:2|0:2,0:0:0:0:
287,82,58673,2,0,P|270:165|262:262,1,175.440001070801,2|2,1:2|1:2,0:0:0:0:
447,142,59222,2,0,P|432:66|417:34,1,87.7200005354004,10|0,0:2|0:2,0:0:0:0:
111,81,59588,5,2,1:2:0:0:
91,119,59679,1,0,1:0:0:0:
100,161,59771,1,0,1:0:0:0:
132,190,59862,1,0,1:0:0:0:
175,192,59954,1,10,1:2:0:0:
218,194,60045,1,0,1:0:0:0:
250,223,60136,1,0,1:0:0:0:
259,265,60228,1,0,1:0:0:0:
239,303,60319,5,2,1:2:0:0:
196,301,60411,1,0,1:0:0:0:
172,266,60502,1,0,1:0:0:0:
190,227,60594,1,0,1:0:0:0:
236,229,60685,1,8,1:2:0:0:
259,265,60777,1,0,1:0:0:0:
298,281,60868,1,0,1:0:0:0:
341,277,60960,1,0,1:0:0:0:
372,246,61051,6,0,P|398:165|347:98,1,175.440001070801,4|8,1:2|0:2,0:0:0:0:
497,235,61600,1,2,1:2:0:0:
416,56,61783,1,2,0:2:0:0:
471,257,61966,1,2,1:2:0:0:
281,149,62149,1,10,0:2:0:0:
446,279,62332,6,0,P|465:337|468:371,1,87.7200005354004,2|0,0:2|1:2,0:0:0:0:
220,236,62697,2,0,P|226:192|241:151,1,87.7200005354004,0|8,1:2|0:2,0:0:0:0:
132,303,63063,1,2,1:2:0:0:
94,201,63246,1,2,0:2:0:0:
166,316,63429,1,2,1:2:0:0:
211,137,63612,1,10,0:2:0:0:
97,292,63795,1,2,1:2:0:0:
327,272,63978,5,2,1:2:0:0:
91,161,64161,1,2,1:2:0:0:
372,106,64344,1,10,0:2:0:0:
196,328,64527,2,0,P|184:274|182:227,1,87.7200005354004,2|0,1:2|0:2,0:0:0:0:
297,39,64893,1,2,1:2:0:0:
297,39,64984,1,0,1:2:0:0:
297,39,65075,1,8,0:2:0:0:
353,249,65258,5,2,0:2:0:0:
163,112,65441,1,0,1:2:0:0:
403,126,65624,1,0,1:2:0:0:
149,255,65807,2,0,P|89:271|49:269,1,87.7200005354004,8|0,0:2|0:2,0:0:0:0:
268,86,66173,1,2,3:2:0:0:
296,66,66264,1,0,3:2:0:0:
331,65,66356,1,2,3:2:0:0:
360,82,66447,1,0,3:2:0:0:
378,111,66539,1,10,3:2:0:0:
375,153,66630,1,0,3:2:0:0:
345,192,66722,1,2,3:2:0:0:
290,198,66813,1,0,3:2:0:0:
245,164,66905,6,0,P|177:142|130:136,1,87.7200005354004,6|0,1:2|0:2,0:0:0:0:
303,324,67271,2,0,P|345:314|386:299,1,87.7200005354004,10|0,0:2|0:2,0:0:0:0:
183,256,67636,1,2,1:2:0:0:
356,139,67819,1,2,0:2:0:0:
126,58,68002,1,10,0:2:0:0:
337,103,68185,1,2,1:2:0:0:
95,212,68368,6,0,P|27:225|-5:220,1,87.7200005354004,2|0,1:2|0:2,0:0:0:0:
231,59,68734,2,0,P|274:58|316:70,1,87.7200005354004,10|0,0:2|0:2,0:0:0:0:
470,285,69100,1,2,3:2:0:0:
444,249,69191,1,0,3:2:0:0:
406,229,69283,1,0,3:2:0:0:
362,230,69374,1,0,3:2:0:0:
324,250,69466,1,10,3:2:0:0:
299,286,69557,1,0,3:2:0:0:
260,305,69649,1,2,3:2:0:0:
217,305,69740,1,0,3:2:0:0:
179,285,69832,6,0,P|166:228|153:190,1,87.7200005354004,4|0,1:2|0:2,0:0:0:0:
254,40,70197,1,10,0:2:0:0:
65,145,70380,2,0,P|74:102|87:60,1,87.7200005354004,2|0,1:2|0:2,0:0:0:0:
256,193,70746,1,2,1:2:0:0:
124,34,70929,1,10,0:2:0:0:
82,244,71112,1,2,1:2:0:0:
266,63,71295,2,0,P|338:41|363:38,1,87.7200005354004,0|0,1:2|0:2,0:0:0:0:
242,293,71661,5,10,0:2:0:0:
139,63,71844,1,0,1:2:0:0:
395,155,72027,5,2,1:2:0:0:
119,230,72210,1,0,1:2:0:0:
386,318,72393,5,10,0:2:0:0:
283,88,72575,1,0,1:2:0:0:
220,315,72758,5,2,1:2:0:0:
220,315,74222,6,0,L|212:359,3,30.9600007558594,0|0|0|0,3:0|3:0|3:0|3:0,0:0:0:0:
127,276,74588,2,0,L|121:245,3,30.9600007558594,8|0|0|0,3:2|3:0|3:0|3:0,0:0:0:0:
189,187,74954,1,4,3:0:0:0:
211,165,75045,1,4,3:0:0:0:
240,157,75136,1,4,3:0:0:0:
270,163,75228,1,4,3:0:0:0:
294,183,75319,2,0,L|347:170,3,30.9600007558594,8|0|0|0,3:2|3:0|3:0|3:0,0:0:0:0:
404,229,75685,5,8,0:0:0:0:
108,130,76051,1,8,0:0:0:0:
280,369,76417,1,12,0:0:0:0:
12,144,77149,5,6,1:2:0:0:
115,254,77332,1,2,0:2:0:0:
152,64,77514,1,10,0:2:0:0:
54,157,77697,1,2,1:2:0:0:
228,210,77880,2,0,P|259:252|274:287,1,79.1199973439942,2|0,0:2|1:2,0:0:0:0:
259,75,78246,1,8,0:2:0:0:
137,184,78429,2,0,P|131:236|135:274,1,79.1199973439942,0|0,0:2|1:2,0:0:0:0:
321,156,78795,5,2,0:2:0:0:
248,309,78978,1,8,0:2:0:0:
227,170,79161,1,2,1:2:0:0:
392,261,79344,1,2,0:2:0:0:
273,79,79527,1,2,1:2:0:0:
223,278,79710,2,0,P|208:334|192:363,1,79.1199973439942,10|0,0:2|0:2,0:0:0:0:
340,184,80075,5,0,1:2:0:0:
139,154,80258,1,2,0:2:0:0:
299,59,80441,1,10,0:2:0:0:
165,178,80624,1,2,1:2:0:0:
361,210,80807,1,2,0:2:0:0:
276,34,80990,1,0,1:2:0:0:
226,267,81173,1,10,0:2:0:0:
328,89,81356,2,0,P|375:53|408:43,1,79.1199973439942,0|0,1:2|0:2,0:0:0:0:
201,181,81722,5,2,0:2:0:0:
198,21,81905,1,10,0:2:0:0:
232,211,82088,1,2,1:2:0:0:
55,93,82271,1,2,0:2:0:0:
60,297,82454,1,2,1:2:0:0:
178,59,82636,1,10,0:2:0:0:
88,267,82819,1,0,0:2:0:0:
269,107,83002,6,0,P|332:58|421:95,1,158.239994687988,6|8,1:2|0:2,0:0:0:0:
272,287,83551,2,0,P|172:247|116:237,1,158.239994687988,2|0,1:2|1:2,0:0:0:0:
331,180,84100,1,8,0:2:0:0:
180,69,84283,5,2,0:2:0:0:
180,69,84374,1,2,0:0:0:0:
180,69,84466,1,2,1:2:0:0:
255,244,84649,1,2,0:0:0:0:
203,41,84832,1,10,0:0:0:0:
218,235,85014,1,2,1:2:0:0:
218,235,85106,1,2,0:2:0:0:
218,235,85197,2,0,L|216:304,1,39.5599986719971,2|2,1:2|0:2,0:2:0:0:
280,109,85380,1,2,1:2:0:0:
339,265,85563,2,0,L|341:334,1,39.5599986719971,10|0,0:2|0:2,0:2:0:0:
263,144,85746,1,2,0:2:0:0:
109,278,85929,5,0,1:2:0:0:
71,267,86021,1,0,1:2:0:0:
41,241,86112,1,0,1:2:0:0:
26,205,86204,1,0,1:2:0:0:
28,165,86295,1,8,1:2:0:0:
47,131,86386,1,0,1:2:0:0:
79,108,86478,1,0,1:2:0:0:
118,102,86569,1,0,1:2:0:0:
156,112,86661,2,0,P|168:164|168:178,3,39.5599986719971,0|0|0|0,1:2|1:2|1:2|1:2,0:2:0:0:
273,220,87027,2,0,P|277:200|283:182,3,39.5599986719971,8|0|0|0,1:2|1:2|1:2|1:2,0:2:0:0:
374,96,87393,6,0,L|424:83,1,39.5599986719971,4|0,3:3|0:0,0:0:0:0:
447,231,87575,2,0,L|408:221,1,39.5599986719971,4|4,3:3|3:3,0:0:0:0:
238,94,87758,2,0,L|288:81,1,39.5599986719971,8|0,0:0|3:0,0:0:0:0:
311,229,87941,2,0,L|272:219,1,39.5599986719971,4|4,3:0|3:0,0:0:0:0:
101,91,88124,2,0,L|151:78,1,39.5599986719971,4|0,3:3|3:0,0:0:0:0:
174,226,88307,2,0,L|135:216,1,39.5599986719971,4|0,3:0|3:0,0:0:0:0:
238,94,88490,5,12,3:2:0:0:
260,57,88582,1,0,3:0:0:0:
297,35,88673,1,8,3:0:0:0:
340,33,88764,1,8,3:0:0:0:
379,52,88856,6,0,L|369:147,1,70.5200010760498,6|0,1:2|0:2,0:0:0:0:
210,192,89222,2,0,L|202:121,1,70.5200010760498,2|0,1:2|0:2,0:0:0:0:
391,271,89588,1,8,0:2:0:0:
294,326,89771,2,0,L|310:163,1,141.0400021521,2|0,0:2|0:2,0:0:0:0:
188,302,90319,6,0,L|115:318,1,70.5200010760498,2|0,1:2|0:2,0:0:0:0:
56,147,90685,2,0,L|124:162,1,70.5200010760498,2|0,1:2|0:2,0:0:0:0:
318,35,91051,2,0,L|163:55,1,141.0400021521,8|0,0:2|0:2,0:0:0:0:
56,147,91600,1,0,0:2:0:0:
252,179,91783,6,0,L|271:262,1,70.5200010760498,2|0,1:2|0:2,0:0:0:0:
407,117,92149,2,0,L|422:48,1,70.5200010760498,2|0,1:2|0:2,0:0:0:0:
479,280,92514,1,8,0:2:0:0:
369,223,92697,2,0,L|390:378,1,141.0400021521,0|2,1:2|0:2,0:0:0:0:
170,182,93246,5,0,1:2:0:0:
317,113,93429,1,2,0:2:0:0:
161,219,93612,1,0,1:2:0:0:
246,67,93795,1,2,0:2:0:0:
231,273,93978,1,8,0:2:0:0:
124,106,94161,1,0,0:2:0:0:
292,150,94344,1,0,0:2:0:0:
153,254,94527,1,0,0:2:0:0:
328,160,94710,6,0,L|411:147,1,70.5200010760498,2|0,1:2|0:2,0:0:0:0:
181,78,95075,2,0,L|111:67,1,70.5200010760498,2|0,1:2|0:2,0:0:0:0:
326,33,95441,1,8,0:2:0:0:
233,16,95624,2,0,L|220:163,1,141.0400021521,2|0,0:2|0:2,0:0:0:0:
343,296,96173,6,0,L|315:229,1,70.5200010760498,2|0,1:2|0:2,0:0:0:0:
115,180,96539,2,0,L|87:245,1,70.5200010760498,2|0,1:2|0:2,0:0:0:0:
367,167,96905,2,0,L|322:22,1,141.0400021521,8|0,0:2|0:2,0:0:0:0:
161,342,97636,6,0,L|84:353,1,70.5200010760498,2|0,1:2|0:2,0:0:0:0:
153,185,98002,2,0,L|222:194,1,70.5200010760498,2|0,1:2|0:2,0:0:0:0:
370,331,98368,1,8,0:2:0:0:
304,149,98551,1,2,1:2:0:0:
187,313,98734,1,2,0:2:0:0:
331,177,98917,1,2,0:2:0:0:
147,150,99100,1,2,1:2:0:0:
147,150,99466,6,0,P|82:137|50:130,1,89.4399994541016,2|0,0:0|0:0,0:0:0:0:
5,55,100014,2,0,P|48:45|92:37,1,89.4399994541016,2|0,0:0|0:0,0:0:0:0:
242,76,100563,6,0,B|347:76|296:139|437:138,1,175.440001070801,6|8,0:2|0:2,0:0:0:0:
245,167,101112,1,2,1:2:0:0:
395,38,101295,1,2,0:2:0:0:
219,54,101478,1,2,1:2:0:0:
219,54,101569,1,0,1:2:0:0:
219,54,101661,1,8,0:2:0:0:
359,246,101844,6,0,P|379:175|384:142,1,87.7200005354004,2|0,0:2|1:2,0:0:0:0:
187,73,102210,2,0,P|197:116|210:158,1,87.7200005354004,0|8,1:2|0:2,0:0:0:0:
341,101,102575,1,2,1:2:0:0:
213,236,102758,1,2,0:2:0:0:
373,179,102941,1,2,1:2:0:0:
166,101,103124,1,8,0:2:0:0:
352,205,103307,1,2,1:2:0:0:
163,334,103490,6,0,P|97:355|75:355,1,87.7200005354004,2|0,1:2|0:2,0:0:0:0:
340,333,103856,1,10,0:2:0:0:
190,206,104039,2,0,P|150:190|107:185,1,87.7200005354004,2|0,1:2|0:2,0:0:0:0:
299,321,104405,1,2,1:2:0:0:
230,122,104588,1,8,0:2:0:0:
408,266,104771,6,0,P|432:324|432:362,1,87.7200005354004,2|0,0:2|1:2,0:0:0:0:
339,160,105136,1,0,1:2:0:0:
219,350,105319,1,8,0:2:0:0:
375,243,105502,1,0,1:2:0:0:
154,285,105685,1,0,3:0:0:0:
120,285,105777,1,0,3:0:0:0:
90,267,105868,1,2,3:2:0:0:
75,236,105960,1,0,3:0:0:0:
77,202,106051,1,10,3:2:0:0:
102,169,106143,1,0,3:0:0:0:
149,153,106234,1,2,3:2:0:0:
198,179,106325,1,0,3:0:0:0:
253,193,106417,6,0,B|343:213|331:134|423:142,1,175.440001070801,6|10,1:2|0:2,0:0:0:0:
186,84,106966,2,0,P|271:106|279:111,1,87.7200005354004,2|0,1:2|0:2,0:0:0:0:
105,208,107332,1,2,1:2:0:0:
288,295,107514,2,0,P|332:291|372:274,1,87.7200005354004,8|2,0:2|0:2,0:0:0:0:
203,178,107880,5,2,1:2:0:0:
268,333,108063,1,2,1:2:0:0:
348,163,108246,1,10,0:2:0:0:
181,265,108429,1,0,1:2:0:0:
321,141,108612,1,2,3:2:0:0:
318,120,108704,1,0,3:0:0:0:
315,98,108795,1,2,3:2:0:0:
311,77,108886,1,0,3:0:0:0:
308,55,108978,1,10,3:2:0:0:
297,106,109069,1,0,3:0:0:0:
256,136,109161,1,2,3:2:0:0:
204,131,109252,1,0,3:0:0:0:
169,94,109344,6,0,P|117:67|27:153,1,175.440001070801,6|10,1:2|0:2,0:0:0:0:
232,310,109893,2,0,P|249:227|257:130,1,175.440001070801,2|2,1:2|1:2,0:0:0:0:
72,250,110441,2,0,P|87:326|102:358,1,87.7200005354004,10|0,0:2|0:2,0:0:0:0:
401,303,110807,5,2,1:2:0:0:
421,265,110898,1,0,1:0:0:0:
412,223,110990,1,0,1:0:0:0:
380,194,111081,1,0,1:0:0:0:
337,192,111173,1,10,1:2:0:0:
294,190,111264,1,0,1:0:0:0:
262,161,111355,1,0,1:0:0:0:
253,119,111447,1,0,1:0:0:0:
273,81,111538,5,2,1:2:0:0:
316,83,111630,1,0,1:0:0:0:
340,118,111721,1,0,1:0:0:0:
322,157,111813,1,0,1:0:0:0:
276,155,111904,1,8,1:2:0:0:
253,119,111996,1,0,1:0:0:0:
214,103,112087,1,0,1:0:0:0:
171,107,112179,1,0,1:0:0:0:
140,138,112270,6,0,P|113:218|164:285,1,175.440001070801,4|8,1:2|0:2,0:0:0:0:
8,163,112819,1,2,1:2:0:0:
103,336,113002,1,2,0:2:0:0:
34,141,113185,1,2,1:2:0:0:
238,253,113368,1,10,0:2:0:0:
59,120,113551,6,0,P|40:62|37:28,1,87.7200005354004,2|0,0:2|1:2,0:0:0:0:
299,156,113917,2,0,P|293:200|278:241,1,87.7200005354004,0|8,1:2|0:2,0:0:0:0:
387,89,114283,1,2,1:2:0:0:
425,191,114466,1,2,0:2:0:0:
353,76,114649,1,2,1:2:0:0:
308,255,114832,1,10,0:2:0:0:
422,100,115014,1,2,1:2:0:0:
192,120,115197,5,2,1:2:0:0:
428,231,115380,1,2,1:2:0:0:
147,286,115563,1,10,0:2:0:0:
323,64,115746,2,0,P|335:118|337:165,1,87.7200005354004,2|0,1:2|0:2,0:0:0:0:
222,353,116112,1,2,1:2:0:0:
222,353,116204,1,0,1:2:0:0:
222,353,116295,1,8,0:2:0:0:
166,143,116478,5,2,0:2:0:0:
356,280,116661,1,0,1:2:0:0:
116,266,116844,1,0,1:2:0:0:
370,137,117027,2,0,P|430:121|470:123,1,87.7200005354004,8|0,0:2|0:2,0:0:0:0:
251,306,117393,1,2,3:2:0:0:
223,326,117484,1,0,3:2:0:0:
188,327,117575,1,2,3:2:0:0:
159,310,117667,1,0,3:2:0:0:
141,281,117758,1,10,3:2:0:0:
144,239,117850,1,0,3:2:0:0:
174,200,117941,1,2,3:2:0:0:
229,194,118033,1,0,3:2:0:0:
274,228,118124,6,0,P|342:250|389:256,1,87.7200005354004,6|0,1:2|0:2,0:0:0:0:
216,68,118490,2,0,P|174:78|133:93,1,87.7200005354004,10|0,0:2|0:2,0:0:0:0:
336,136,118856,1,2,1:2:0:0:
163,253,119039,1,2,0:2:0:0:
393,334,119222,1,10,0:2:0:0:
182,289,119405,1,2,1:2:0:0:
424,180,119588,6,0,P|492:167|524:172,1,87.7200005354004,2|0,1:2|0:2,0:0:0:0:
288,333,119954,2,0,P|244:333|202:321,1,87.7200005354004,10|0,0:2|0:2,0:0:0:0:
49,107,120319,1,2,3:2:0:0:
74,142,120411,1,0,3:2:0:0:
112,162,120502,1,0,3:2:0:0:
156,161,120594,1,0,3:2:0:0:
195,142,120685,1,10,3:2:0:0:
220,106,120777,1,0,3:2:0:0:
259,87,120868,1,0,3:0:0:0:
302,87,120960,1,0,3:2:0:0:
340,107,121051,6,0,P|353:164|366:202,1,87.7200005354004,4|0,1:2|0:2,0:0:0:0:
265,352,121417,1,10,0:2:0:0:
454,247,121600,2,0,P|444:289|431:331,1,87.7200005354004,2|0,1:2|0:2,0:0:0:0:
263,199,121966,1,2,1:2:0:0:
395,358,122149,1,10,0:2:0:0:
437,148,122332,1,2,1:2:0:0:
253,329,122514,2,0,P|181:351|156:354,1,87.7200005354004,0|0,1:2|0:2,0:0:0:0:
277,99,122880,5,10,0:2:0:0:
380,329,123063,1,0,1:2:0:0:
124,237,123246,5,2,1:2:0:0:
400,162,123429,1,0,1:2:0:0:
133,74,123612,5,10,0:2:0:0:
236,304,123795,1,0,1:2:0:0:
299,77,123978,5,2,1:2:0:0:
257,192,131295,6,0,P|251:227|248:253,1,44.7199997270508,0|0,3:2|0:0,0:0:0:0:
165,184,131661,2,0,P|161:161|157:139,1,44.7199997270508,0|0,3:2|0:0,0:0:0:0:
267,204,132027,2,0,P|261:239|258:265,1,44.7199997270508,0|2,3:2|0:2,0:0:0:0:
349,157,132393,1,2,3:2:0:0:
392,235,132575,1,2,0:2:0:0:
373,143,132758,6,0,P|384:77|385:43,1,89.4399994541016,2|2,3:2|3:2,0:0:0:0:
285,25,133307,2,0,P|293:63|295:76,1,44.7199997270508,2|0,0:0|3:2,0:0:0:0:
195,118,133673,2,0,P|198:95|203:74,1,44.7199997270508,2|0,0:0|3:2,0:0:0:0:
278,150,134039,1,2,0:0:0:0:
187,251,134222,6,0,P|148:253|96:217,1,89.4399994541016,2|0,3:2|3:2,0:0:0:0:
83,99,134771,2,0,P|121:122|130:137,1,44.7199997270508,2|0,0:0|3:2,0:0:0:0:
243,155,135136,2,0,P|222:147|205:132,1,44.7199997270508,2|0,0:0|3:2,0:0:0:0:
189,43,135502,1,2,0:0:0:0:
345,92,135685,6,0,P|330:163|327:196,2,89.4399994541016,0|0|0,3:2|3:2|3:2,0:0:0:0:
436,196,136600,2,0,P|446:261|430:297,1,89.4399994541016,2|2,0:0|0:0,0:0:0:0:
368,344,137149,1,0,0:0:0:0:
146,260,138063,1,2,0:0:0:0:
80,195,138246,1,2,0:0:0:0:
146,260,138429,1,2,0:0:0:0:
80,195,138612,6,0,L|102:273,1,70.5200010760498,2|0,1:2|0:2,0:0:0:0:
238,136,138978,2,0,L|218:203,1,70.5200010760498,2|0,1:2|0:2,0:0:0:0:
356,48,139344,2,0,L|392:204,1,141.0400021521,8|0,0:2|0:2,0:0:0:0:
82,44,140075,5,2,1:2:0:0:
49,134,140258,2,0,L|128:118,1,70.5200010760498,2|0,0:2|1:2,0:0:0:0:
264,19,140624,1,2,0:2:0:0:
266,122,140807,2,0,L|247:51,1,70.5200010760498,8|0,0:2|0:2,0:0:0:0:
81,148,141173,2,0,L|99:54,1,70.5200010760498,0|0,0:2|0:2,0:0:0:0:
276,283,141539,6,0,L|301:204,1,70.5200010760498,2|0,1:2|0:2,0:0:0:0:
175,324,141905,2,0,L|150:245,1,70.5200010760498,2|0,1:2|0:2,0:0:0:0:
20,321,142271,2,0,L|51:177,1,141.0400021521,10|2,0:2|0:2,0:0:0:0:
251,73,143002,5,2,1:2:0:0:
292,148,143185,2,0,L|205:187,1,70.5200010760498,2|0,0:2|1:2,0:0:0:0:
120,35,143551,1,2,0:2:0:0:
107,136,143734,2,0,L|87:49,1,70.5200010760498,8|0,0:2|0:2,0:0:0:0:
256,170,144100,2,0,L|275:78,1,70.5200010760498,2|0,0:2|0:2,0:0:0:0:
365,262,144466,5,2,3:2:0:0:
410,113,144649,1,0,3:2:0:0:
326,290,144832,1,2,3:2:0:0:
281,141,145014,1,0,3:2:0:0:
105,233,145197,1,10,3:2:0:0:
150,84,145380,1,0,3:2:0:0:
190,280,145563,1,2,3:2:0:0:
145,131,145746,1,0,3:2:0:0:
289,315,145929,5,2,3:2:0:0:
371,124,146112,1,2,3:2:0:0:
148,257,146295,1,0,3:2:0:0:
390,163,146478,1,2,3:2:0:0:
153,36,146661,1,8,3:2:0:0:
299,278,146844,1,0,3:2:0:0:
342,12,147027,1,2,3:2:0:0:
284,240,147210,1,2,3:2:0:0:
116,42,147393,5,2,3:2:0:0:
82,52,147484,1,0,3:2:0:0:
56,75,147575,1,0,3:2:0:0:
41,107,147667,1,0,3:2:0:0:
41,142,147758,1,0,3:2:0:0:
54,174,147850,1,0,3:2:0:0:
80,198,147941,2,0,P|129:198|138:195,1,35.2600005380249,2|0,3:2|3:2,0:0:0:0:
241,88,148124,1,10,3:2:0:0:
272,66,148216,1,0,3:2:0:0:
310,59,148307,1,0,3:2:0:0:
347,67,148399,1,0,3:2:0:0:
378,91,148490,2,0,P|397:137|397:156,1,35.2600005380249,2|0,3:2|3:2,0:0:0:0:
284,240,148673,1,0,3:2:0:0:
289,283,148764,1,0,3:2:0:0:
297,330,148856,6,0,P|333:363|419:228,1,270.899991732788,4|0,0:0|0:0,0:0:0:0:
354,189,150319,6,0,B|254:188|296:264|161:266,1,175.440001070801,6|8,0:2|0:2,0:0:0:0:
278,101,150868,1,2,1:2:0:0:
180,234,151051,1,2,0:2:0:0:
89,119,151234,1,2,1:2:0:0:
89,119,151325,1,0,1:2:0:0:
89,119,151417,1,8,0:2:0:0:
200,262,151600,6,0,P|216:310|220:354,1,87.7200005354004,2|0,0:2|1:2,0:0:0:0:
43,229,151966,2,0,P|48:185|62:144,1,87.7200005354004,0|8,1:2|0:2,0:0:0:0:
220,47,152332,1,2,1:2:0:0:
283,215,152514,1,2,0:2:0:0:
196,75,152697,1,2,1:2:0:0:
154,251,152880,1,8,0:2:0:0:
253,136,153063,1,2,1:2:0:0:
379,311,153246,6,0,P|437:301|464:280,1,87.7200005354004,2|0,1:2|0:2,0:0:0:0:
345,119,153612,1,10,0:2:0:0:
237,312,153795,2,0,P|193:308|156:285,1,87.7200005354004,2|0,1:2|0:2,0:0:0:0:
302,128,154161,1,2,1:2:0:0:
363,283,154344,1,8,0:2:0:0:
173,150,154527,6,0,P|144:102|148:58,1,87.7200005354004,2|0,0:2|1:2,0:0:0:0:
283,234,154893,1,0,1:2:0:0:
411,101,155075,2,0,P|431:48|419:6,1,87.7200005354004,8|0,0:2|0:0,0:0:0:0:
281,178,155441,1,0,3:0:0:0:
271,201,155533,1,0,3:0:0:0:
283,234,155624,1,2,3:2:0:0:
317,247,155716,1,0,3:0:0:0:
351,222,155807,1,10,3:2:0:0:
348,175,155899,1,0,3:0:0:0:
297,149,155990,1,2,3:2:0:0:
239,173,156082,1,0,3:0:0:0:
221,238,156173,6,0,P|158:265|64:212,1,175.440001070801,6|10,1:2|0:2,0:0:0:0:
216,45,156722,2,0,P|245:88|252:130,1,87.7200005354004,2|0,1:2|0:2,0:0:0:0:
72,103,157088,1,2,1:2:0:0:
247,262,157271,2,0,P|236:304|211:339,1,87.7200005354004,8|2,0:2|0:2,0:0:0:0:
161,154,157636,5,2,1:2:0:0:
337,206,157819,1,2,1:2:0:0:
139,180,158002,1,10,0:2:0:0:
317,108,158185,1,0,1:2:0:0:
120,202,158368,1,2,3:2:0:0:
98,198,158460,1,0,3:0:0:0:
76,194,158551,1,2,3:2:0:0:
55,190,158643,1,0,3:0:0:0:
31,187,158734,1,10,3:2:0:0:
45,141,158825,1,0,3:0:0:0:
81,110,158917,1,2,3:2:0:0:
128,103,159008,1,0,3:0:0:0:
172,122,159100,6,0,B|279:138|241:63|369:88,1,175.440001070801,6|10,1:2|0:2,0:0:0:0:
430,308,159649,2,0,P|365:303|323:199,1,175.440001070801,2|2,1:2|1:2,0:0:0:0:
226,25,160197,2,0,P|210:68|202:119,1,87.7200005354004,10|0,0:2|0:2,0:0:0:0:
137,302,160563,5,2,1:2:0:0:
117,264,160654,1,0,1:0:0:0:
126,222,160746,1,0,1:0:0:0:
158,193,160837,1,0,1:0:0:0:
201,191,160929,1,10,1:2:0:0:
244,189,161020,1,0,1:0:0:0:
276,160,161111,1,0,1:0:0:0:
285,118,161203,1,0,1:0:0:0:
265,80,161294,5,2,1:2:0:0:
222,82,161386,1,0,1:0:0:0:
198,117,161477,1,0,1:0:0:0:
216,156,161569,1,0,1:0:0:0:
262,154,161661,1,8,1:2:0:0:
285,118,161752,1,0,1:0:0:0:
324,102,161843,1,0,1:0:0:0:
367,106,161935,1,0,1:0:0:0:
398,137,162027,6,0,P|424:217|373:284,1,175.440001070801,4|8,1:2|0:2,0:0:0:0:
150,297,162575,1,2,1:2:0:0:
334,202,162758,1,2,0:2:0:0:
125,267,162941,1,2,1:2:0:0:
232,120,163124,1,10,0:2:0:0:
291,315,163307,6,0,P|329:352|369:368,1,87.7200005354004,2|0,0:2|1:2,0:0:0:0:
259,147,163673,1,0,1:2:0:0:
173,324,163856,1,8,0:0:0:0:
309,224,164039,1,2,1:2:0:0:
115,128,164222,1,2,0:2:0:0:
204,242,164405,1,2,1:2:0:0:
294,65,164588,1,10,0:2:0:0:
138,163,164771,1,2,1:2:0:0:
381,130,164954,6,0,P|429:177|447:280,1,175.440001070801,2|8,1:2|0:0,0:0:0:0:
264,364,165502,2,0,P|277:310|277:268,1,87.7200005354004,2|0,1:2|0:2,0:0:0:0:
125,103,165868,1,2,1:2:0:0:
79,271,166051,1,8,0:2:0:0:
253,128,166234,2,0,P|264:85|266:42,1,87.7200005354004,2|0,0:2|0:0,0:0:0:0:
356,275,166600,1,0,1:2:0:0:
160,214,166783,2,0,P|148:171|146:128,1,87.7200005354004,8|0,0:2|0:2,0:0:0:0:
413,157,167149,1,2,3:2:0:0:
444,173,167240,1,0,3:2:0:0:
461,203,167332,1,2,3:2:0:0:
460,237,167423,1,0,3:2:0:0:
443,266,167514,1,10,3:2:0:0:
404,283,167606,1,0,3:2:0:0:
356,275,167697,1,2,3:2:0:0:
325,230,167789,1,0,3:2:0:0:
333,174,167880,6,0,P|320:103|303:59,1,87.7200005354004,6|0,1:2|0:2,0:0:0:0:
187,247,168246,2,0,P|175:289|169:332,1,87.7200005354004,10|0,0:2|0:2,0:0:0:0:
116,81,168612,1,2,1:2:0:0:
243,175,168795,1,2,0:2:0:0:
36,254,168978,1,10,0:2:0:0:
224,131,169161,1,2,1:2:0:0:
277,351,169344,6,0,P|331:379|376:374,1,87.7200005354004,2|0,1:2|0:0,0:0:0:0:
457,139,169710,2,0,P|405:139|365:161,1,87.7200005354004,10|0,0:2|0:0,0:0:0:0:
172,320,170075,1,2,3:2:0:0:
120,314,170167,1,0,3:2:0:0:
79,283,170258,1,0,3:2:0:0:
60,235,170350,1,0,3:2:0:0:
69,184,170441,1,10,3:2:0:0:
103,145,170533,1,0,3:2:0:0:
153,130,170624,1,2,3:2:0:0:
203,143,170716,1,0,3:2:0:0:
239,181,170807,6,0,P|254:249|256:285,1,87.7200005354004,4|0,1:2|0:0,0:0:0:0:
355,81,171173,1,10,0:2:0:0:
354,262,171356,2,0,P|341:313|334:358,1,87.7200005354004,2|0,1:2|0:0,0:0:0:0:
325,117,171722,1,2,1:2:0:0:
441,277,171905,1,10,0:2:0:0:
479,69,172088,1,2,1:2:0:0:
296,151,172271,6,0,P|228:145|189:123,1,87.7200005354004,0|0,1:2|0:0,0:0:0:0:
396,269,172636,1,10,0:2:0:0:
222,301,172819,1,2,1:2:0:0:
406,184,173002,1,2,0:2:0:0:
172,101,173185,1,2,1:2:0:0:
411,148,173368,1,10,0:2:0:0:
160,233,173551,5,2,1:2:0:0:
160,233,173643,1,0,1:2:0:0:
160,233,173734,2,0,P|85:212|63:190,1,87.7200005354004,6|0,1:2|0:2,0:0:0:0:
280,124,174100,1,8,0:2:0:0:
85,74,174283,2,0,P|41:78|3:100,1,87.7200005354004,2|0,1:2|0:2,0:0:0:0:
196,216,174649,1,0,1:2:0:0:
342,54,174832,2,0,P|304:32|260:27,1,87.7200005354004,10|0,0:2|0:2,0:0:0:0:
419,222,175197,5,2,1:2:0:0:
257,147,175380,1,0,1:2:0:0:
443,81,175563,1,8,0:2:0:0:
327,255,175746,1,2,1:2:0:0:
394,67,175929,1,0,1:2:0:0:
441,310,176112,1,0,1:2:0:0:
441,310,176204,1,0,1:2:0:0:
441,310,176295,2,0,P|439:340|436:361,1,43.8600002677002,10|0,0:2|0:2,0:0:0:0:
287,177,176478,1,0,3:2:0:0:
287,177,176569,1,0,3:2:0:0:
287,177,176661,6,0,B|196:165|218:234|114:228,1,175.440001070801,6|8,1:2|0:2,0:0:0:0:
284,271,177210,1,0,1:2:0:0:
137,136,177393,2,0,P|114:69|110:43,1,87.7200005354004,2|0,0:2|1:2,0:0:0:0:
327,153,177758,2,0,P|317:195|301:236,1,87.7200005354004,10|0,0:2|0:2,0:0:0:0:
247,47,178124,5,2,1:2:0:0:
423,155,178307,1,0,1:2:0:0:
212,205,178490,1,10,0:2:0:0:
432,114,178673,1,0,1:2:0:0:
268,275,178856,1,2,3:2:0:0:
228,292,178947,1,0,3:2:0:0:
185,289,179039,1,0,3:2:0:0:
148,266,179130,1,0,3:2:0:0:
125,223,179222,1,8,3:2:0:0:
125,185,179313,1,0,3:2:0:0:
145,147,179405,1,0,3:2:0:0:
180,122,179496,1,0,3:2:0:0:
223,116,179588,6,0,B|323:137|294:62|413:83,1,175.440001070801,6|8,1:2|0:2,0:0:0:0:
413,254,180136,2,0,P|382:196|375:167,1,87.7200005354004,2|0,1:2|0:2,0:0:0:0:
315,331,180502,1,0,1:2:0:0:
266,162,180685,2,0,P|279:120|302:83,1,87.7200005354004,10|0,0:2|0:2,0:0:0:0:
201,265,181051,5,2,1:2:0:0:
146,120,181234,1,0,1:2:0:0:
180,295,181417,1,8,0:2:0:0:
63,175,181600,1,2,1:2:0:0:
248,189,181783,1,2,3:2:0:0:
291,188,181874,1,0,3:2:0:0:
329,168,181966,1,2,3:2:0:0:
353,131,182057,1,0,3:2:0:0:
356,88,182149,1,8,3:2:0:0:
342,48,182240,1,0,3:2:0:0:
302,35,182332,1,2,3:2:0:0:
268,60,182423,1,0,3:2:0:0:
268,102,182514,6,0,P|286:174|298:281,1,175.440001070801,4|10,1:2|0:2,0:0:0:0:
154,135,183063,2,0,P|86:90|13:153,1,175.440001070801,2|0,1:2|1:2,0:0:0:0:
168,286,183612,1,10,0:2:0:0:
240,113,183795,1,2,1:2:0:0:
99,215,183978,5,0,1:2:0:0:
293,271,184161,1,0,1:2:0:0:
293,271,184252,1,0,1:2:0:0:
293,271,184344,1,8,0:2:0:0:
196,124,184527,1,2,1:2:0:0:
235,349,184710,1,2,0:2:0:0:
284,101,184893,1,2,1:2:0:0:
378,320,185075,1,10,0:2:0:0:
366,76,185258,1,2,0:2:0:0:
261,251,185441,1,2,0:2:0:0:
