osu file format v14

[General]
AudioFilename: audio.mp3
AudioLeadIn: 0
PreviewTime: 48231
Countdown: 0
SampleSet: None
StackLeniency: 0.5
Mode: 0
LetterboxInBreaks: 1
WidescreenStoryboard: 0

[Editor]
DistanceSpacing: 0.9
BeatDivisor: 4
GridSize: 4
TimelineZoom: 2.899999

[Metadata]
Title:Heart Shaker
TitleUnicode:Heart Shaker
Artist:TWICE
ArtistUnicode:TWICE
Creator:Emychi
Version:Heart Breaker!
Source:
Tags:kpop k-pop jyp entertainment japan korea once christmas xmas merry & happy sana jihyo dahyun nayeon jeongyeon chaeyoung momo mina
BeatmapID:1832540
BeatmapSetID:876878

[Difficulty]
HPDrainRate:5.2
CircleSize:4
OverallDifficulty:8.7
ApproachRate:9
SliderMultiplier:1.8
SliderTickRate:1

[Events]
//Background and Video events
0,0,"cute.jpg",0,0
//Break Periods
//Storyboard Layer 0 (Background)
//Storyboard Layer 1 (Fail)
//Storyboard Layer 2 (Pass)
//Storyboard Layer 3 (Foreground)
//Storyboard Sound Samples

[TimingPoints]
1585,365.853658536585,4,2,69,40,1,0
5426,-100,4,2,69,50,0,0
13109,-125,4,2,69,40,0,0
14206,-100,4,2,69,50,0,0
25914,-100,4,2,69,60,0,0
37621,-125,4,2,69,60,0,0
43475,-111.111111111111,4,2,69,60,0,0
47682,-166.666666666667,4,2,69,60,0,0
48231,-133.333333333333,4,2,69,60,0,0
49328,-90.9090909090909,4,2,69,80,0,1
60853,-90.9090909090909,4,2,69,80,0,0
61036,-90.9090909090909,4,2,69,80,0,1
72743,-111.111111111111,4,2,69,60,0,0
74206,-100,4,2,69,60,0,0

[HitObjects]
70,88,2499,6,0,P|65:142|75:194,2,90,2|0|0,0:0|0:0|0:0,0:0:0:0:
175,236,3048,2,0,P|180:182|170:130,2,90,2|0|0,0:0|0:0|0:0,0:0:0:0:
272,64,3597,2,0,P|267:118|277:170,1,90,2|0,0:0|0:0,0:0:0:0:
375,243,3963,2,0,P|370:189|380:137,2,90,2|0|0,0:0|0:0|0:0,0:0:0:0:
289,38,4511,2,0,P|294:92|284:144,2,90,2|0|0,0:0|0:0|0:0,0:0:0:0:
196,170,5060,2,0,P|191:224|201:276,1,90
113,92,5426,5,2,0:0:0:0:
63,219,5609,1,0,0:0:0:0:
147,84,5792,1,0,0:0:0:0:
160,264,5975,1,2,0:0:0:0:
39,128,6158,2,0,P|33:84|39:31,1,90
0,267,6524,5,2,0:0:0:0:
123,137,6706,1,0,0:0:0:0:
134,286,6889,1,2,0:0:0:0:
92,121,7072,1,0,0:0:0:0:
243,220,7255,2,0,P|287:226|340:220,1,90,0|2,0:0|0:0,0:0:0:0:
159,312,7621,2,0,L|62:322,1,90
0,219,7987,2,0,L|97:229,1,90
177,129,8353,5,10,0:0:0:0:
98,255,8536,1,0,0:0:0:0:
150,100,8719,1,0,0:0:0:0:
223,276,8902,1,2,0:0:0:0:
252,127,9084,1,8,0:0:0:0:
187,288,9267,1,0,0:0:0:0:
122,78,9450,2,0,P|125:122|119:167,1,90,10|0,0:0|0:0,0:0:0:0:
206,3,9816,5,10,0:0:0:0:
41,57,9999,1,0,0:0:0:0:
232,34,10182,1,0,0:0:0:0:
89,163,10365,1,10,0:0:0:0:
253,177,10548,1,0,0:0:0:0:
77,126,10731,1,0,0:0:0:0:
173,294,10914,2,0,P|171:250|179:205,1,90,10|0,0:0|0:0,0:0:0:0:
330,89,11280,5,2,0:0:0:0:
346,130,11371,1,0,0:0:0:0:
347,178,11463,1,0,0:0:0:0:
330,216,11554,1,0,0:0:0:0:
299,249,11645,2,0,P|270:259|246:263,1,45,0|0,0:0|0:0,0:0:0:0:
167,164,11828,2,0,P|188:169|209:177,1,45,2|0,0:0|0:0,0:0:0:0:
88,236,12011,5,2,0:0:0:0:
69,207,12103,1,0,0:0:0:0:
61,175,12194,1,2,0:0:0:0:
63,141,12286,1,0,0:0:0:0:
75,110,12377,1,0,0:0:0:0:
117,84,12469,1,0,0:0:0:0:
165,94,12560,1,2,0:0:0:0:
193,134,12652,1,0,0:0:0:0:
182,182,12743,6,0,P|181:231|195:288,1,90,2|0,0:0|0:0,0:0:0:0:
295,354,13109,2,0,P|295:280|318:201,2,144,0|0|0,0:0|0:0|0:0,0:0:0:0:
401,218,14206,6,0,P|356:221|312:211,1,90,4|0,0:0|0:0,0:0:0:0:
480,269,14572,1,8,0:0:0:0:
378,121,14755,1,2,0:0:0:0:
371,295,14938,1,0,0:0:0:0:
410,100,15121,1,2,0:0:0:0:
286,240,15304,1,8,0:0:0:0:
239,127,15487,2,0,P|230:68|235:18,1,90,0|2,0:0|0:0,0:0:0:0:
178,195,15853,5,0,0:0:0:0:
349,142,16036,1,8,0:0:0:0:
149,86,16219,1,2,0:0:0:0:
236,254,16402,1,0,0:0:0:0:
176,55,16584,1,2,0:0:0:0:
104,184,16767,2,0,P|95:228|96:273,1,90,8|0,0:0|0:0,0:0:0:0:
27,59,17133,6,0,P|28:103|20:148,1,90,0|0,0:0|0:0,0:0:0:0:
117,11,17499,1,8,0:0:0:0:
146,192,17682,1,2,0:0:0:0:
79,0,17865,1,0,0:0:0:0:
236,112,18048,1,2,0:0:0:0:
20,148,18231,1,8,0:0:0:0:
199,11,18414,2,0,P|197:55|205:100,1,90,0|0,0:0|0:0,0:0:0:0:
272,198,18780,5,0,0:0:0:0:
326,37,18963,1,8,0:0:0:0:
178,117,19145,1,2,0:0:0:0:
372,177,19328,1,0,0:0:0:0:
170,79,19511,1,2,0:0:0:0:
265,287,19694,2,0,P|273:242|271:197,1,90,8|0,0:0|0:0,0:0:0:0:
337,352,20060,6,0,P|409:304|483:364,1,180,2|8,0:0|0:0,0:0:0:0:
426,212,20609,1,2,0:0:0:0:
329,384,20792,1,0,0:0:0:0:
393,182,20975,1,2,0:0:0:0:
478,350,21158,1,8,0:0:0:0:
289,254,21341,1,0,0:0:0:0:
417,111,21524,6,0,P|409:194|436:315,1,180,2|8,0:0|0:0,0:0:0:0:
310,172,22072,1,2,0:0:0:0:
495,238,22255,1,0,0:0:0:0:
298,292,22438,1,2,0:0:0:0:
383,102,22621,1,8,0:0:0:0:
329,325,22804,1,0,0:0:0:0:
239,140,22987,6,0,P|230:91|233:32,2,90,0|0|8,0:0|0:0|0:0,0:0:0:0:
151,10,23536,1,2,0:0:0:0:
349,65,23719,1,0,0:0:0:0:
127,49,23902,1,2,0:0:0:0:
276,156,24084,1,8,0:0:0:0:
87,195,24267,1,0,0:0:0:0:
282,110,24450,1,0,0:0:0:0:
204,296,24633,5,0,0:0:0:0:
135,138,24816,2,0,P|126:93|126:48,1,90,8|2,0:0|0:0,0:0:0:0:
55,229,25182,1,0,0:0:0:0:
282,110,25365,1,8,0:0:0:0:
14,86,25548,1,8,0:0:0:0:
180,241,25731,1,8,0:0:0:0:
108,20,25914,6,0,P|107:64|99:109,1,90,6|0,0:0|0:0,0:0:0:0:
19,218,26280,1,8,0:0:0:0:
171,152,26463,2,0,P|172:196|180:241,1,90,2|0,0:0|0:0,0:0:0:0:
245,80,26828,1,2,0:0:0:0:
100,218,27011,1,8,0:0:0:0:
305,191,27194,1,0,0:0:0:0:
133,117,27377,5,2,0:0:0:0:
208,282,27560,1,0,0:0:0:0:
169,80,27743,1,8,0:0:0:0:
100,218,27926,2,0,P|92:262|90:307,1,90,2|0,0:0|0:0,0:0:0:0:
39,134,28292,1,2,0:0:0:0:
228,206,28475,1,8,0:0:0:0:
11,254,28658,1,0,0:0:0:0:
147,99,28841,6,0,P|154:54|156:9,1,90,0|0,0:0|0:0,0:0:0:0:
204,186,29206,1,8,0:0:0:0:
295,44,29389,2,0,P|296:88|304:133,1,90,2|0,0:0|0:0,0:0:0:0:
368,230,29755,1,2,0:0:0:0:
418,65,29938,1,8,0:0:0:0:
228,153,30121,1,0,0:0:0:0:
403,235,30304,5,0,0:0:0:0:
334,45,30487,1,0,0:0:0:0:
369,268,30670,1,8,0:0:0:0:
239,115,30853,2,0,P|195:116|150:124,1,90,2|0,0:0|0:0,0:0:0:0:
300,28,31219,1,2,0:0:0:0:
252,198,31402,1,8,0:0:0:0:
176,15,31584,1,0,0:0:0:0:
335,136,31767,6,0,P|423:145|535:120,1,180,2|8,0:0|0:0,0:0:0:0:
371,230,32316,1,2,0:0:0:0:
424,49,32499,1,0,0:0:0:0:
406,261,32682,1,2,0:0:0:0:
309,109,32865,1,8,0:0:0:0:
512,163,33048,1,0,0:0:0:0:
288,225,33231,6,0,B|192:233|214:156|109:170,1,180,2|8,0:0|0:0,0:0:0:0:
15,201,33780,1,2,0:0:0:0:
143,80,33963,1,0,0:0:0:0:
137,259,34145,1,2,0:0:0:0:
54,90,34328,1,8,0:0:0:0:
98,290,34511,1,0,0:0:0:0:
227,111,34694,5,0,0:0:0:0:
223,156,34786,1,0,0:0:0:0:
239,198,34877,1,0,0:0:0:0:
272,229,34969,1,0,0:0:0:0:
314,243,35060,2,0,P|340:242|362:239,1,45,8|0,0:0|0:0,0:0:0:0:
477,101,35243,5,2,0:0:0:0:
444,77,35334,1,0,0:0:0:0:
404,70,35426,1,0,0:0:0:0:
365,82,35517,1,0,0:0:0:0:
335,109,35609,2,0,P|323:129|314:150,1,45,2|0,0:0|0:0,0:0:0:0:
271,293,35792,5,8,0:0:0:0:
268,259,35883,1,0,0:0:0:0:
257,227,35975,1,0,0:0:0:0:
239,198,36066,1,0,0:0:0:0:
215,176,36158,2,0,P|189:163|162:156,1,45,0|0,0:0|0:0,0:0:0:0:
112,274,36341,2,0,P|133:266|153:256,1,45,0|0,0:0|0:0,0:0:0:0:
19,215,36524,5,8,0:0:0:0:
19,215,36615,1,0,0:0:0:0:
19,215,36706,2,0,P|8:234|1:256,1,45,2|0,0:0|0:0,0:0:0:0:
70,67,36889,1,0,0:0:0:0:
70,67,36981,1,0,0:0:0:0:
70,67,37072,2,0,P|63:45|52:26,1,45,2|0,0:0|0:0,0:0:0:0:
187,199,37255,1,8,0:0:0:0:
224,212,37347,1,0,0:0:0:0:
274,203,37438,1,0,0:0:0:0:
318,161,37530,1,0,0:0:0:0:
320,92,37621,6,0,P|315:47|303:5,1,72,2|0,0:0|0:0,0:0:0:0:
198,128,37987,2,0,P|189:163|186:198,1,72,2|0,0:0|0:0,0:0:0:0:
124,10,38353,1,8,0:0:0:0:
124,10,38902,1,0,0:0:0:0:
98,87,39084,6,0,P|101:122|110:157,1,72,2|0,0:0|0:0,0:0:0:0:
213,262,39450,2,0,P|221:226|224:191,1,72,2|0,0:0|0:0,0:0:0:0:
111,320,39816,1,8,0:0:0:0:
111,320,40548,6,0,P|146:328|181:332,1,72,2|0,0:0|0:0,0:0:0:0:
289,197,40914,2,0,P|253:201|218:209,1,72,2|0,0:0|0:0,0:0:0:0:
370,299,41280,1,8,0:0:0:0:
412,232,41463,2,0,P|422:160|408:67,1,144,2|0,0:0|0:0,0:0:0:0:
310,147,42011,6,0,P|345:156|380:159,1,72,2|0,0:0|0:0,0:0:0:0:
274,25,42377,2,0,P|229:30|187:42,1,72,2|0,0:0|0:0,0:0:0:0:
112,160,42743,1,8,0:0:0:0:
180,199,42926,2,0,B|258:201|236:144|324:146,1,144,0|0,0:0|0:0,0:0:0:0:
404,259,43475,6,0,P|360:261|318:249,1,80.9999975280763,2|0,0:0|0:0,0:0:0:0:
248,124,43841,2,0,P|292:122|333:133,1,80.9999975280763,2|0,0:0|0:0,0:0:0:0:
169,231,44206,1,8,0:0:0:0:
118,171,44389,2,0,P|115:81|133:8,1,161.999995056153,0|0,0:0|0:0,0:0:0:0:
282,154,44938,6,0,P|284:198|272:239,1,80.9999975280763,2|0,0:0|0:0,0:0:0:0:
162,310,45304,2,0,P|160:266|171:224,1,80.9999975280763,2|0,0:0|0:0,0:0:0:0:
272,384,45670,1,8,0:0:0:0:
343,347,45853,2,0,P|360:268|356:187,1,161.999995056153,0|0,0:0|0:0,0:0:0:0:
202,147,46402,6,0,P|241:156|281:153,1,80.9999975280763,2|0,0:0|0:0,0:0:0:0:
381,50,46767,2,0,P|341:40|301:43,1,80.9999975280763,2|0,0:0|0:0,0:0:0:0:
160,166,47133,1,8,0:0:0:0:
366,191,47316,1,2,0:0:0:0:
285,0,47499,1,0,0:0:0:0:
224,243,47682,2,0,L|206:319,1,53.9999983520508,0|0,0:0|0:0,0:0:0:0:
211,295,48231,6,0,B|291:290|249:343|346:335,1,135.000005149842
409,324,48780,1,0,0:0:0:0:
409,324,49145,1,0,0:0:0:0:
343,92,49328,6,0,P|311:157|191:152,1,198.000006042481,6|8,0:0|0:0,0:0:0:0:
122,59,49877,1,2,0:0:0:0:
111,237,50060,1,0,0:0:0:0:
167,33,50243,1,2,0:0:0:0:
27,132,50426,1,8,0:0:0:0:
256,91,50609,1,0,0:0:0:0:
97,246,50792,6,0,P|33:253|-11:245,1,99.0000030212403,2|0,0:0|0:0,0:0:0:0:
184,311,51158,1,8,0:0:0:0:
106,138,51341,1,2,0:0:0:0:
76,330,51524,1,0,0:0:0:0:
155,120,51706,1,2,0:0:0:0:
229,330,51889,1,8,0:0:0:0:
23,240,52072,1,0,0:0:0:0:
235,142,52255,6,0,P|299:135|343:143,1,99.0000030212403,2|0,0:0|0:0,0:0:0:0:
150,44,52621,1,8,0:0:0:0:
97,259,52804,2,0,P|102:209|95:161,1,99.0000030212403,2|0,0:0|0:0,0:0:0:0:
0,36,53170,2,0,P|-5:86|2:134,1,99.0000030212403,2|8,0:0|0:0,0:0:0:0:
167,9,53536,1,0,0:0:0:0:
194,200,53719,5,2,0:0:0:0:
26,112,53902,1,0,0:0:0:0:
253,69,54084,1,8,0:0:0:0:
79,241,54267,1,2,0:0:0:0:
132,27,54450,1,0,0:0:0:0:
167,9,54542,1,0,0:0:0:0:
206,22,54633,1,2,0:0:0:0:
222,58,54725,1,0,0:0:0:0:
205,94,54816,1,8,0:0:0:0:
167,120,54908,1,0,0:0:0:0:
117,120,54999,1,0,0:0:0:0:
75,156,55091,1,0,0:0:0:0:
71,215,55182,6,0,P|122:288|218:251,1,198.000006042481,4|8,0:0|0:0,0:0:0:0:
247,117,55731,1,2,0:0:0:0:
317,306,55914,1,0,0:0:0:0:
150,214,56097,1,2,0:0:0:0:
357,272,56280,1,8,0:0:0:0:
266,69,56463,1,0,0:0:0:0:
187,311,56645,6,0,P|177:262|183:213,1,99.0000030212403,2|0,0:0|0:0,0:0:0:0:
92,376,57011,1,8,0:0:0:0:
35,185,57194,1,2,0:0:0:0:
219,313,57377,1,0,0:0:0:0:
14,267,57560,1,2,0:0:0:0:
209,198,57743,1,8,0:0:0:0:
13,320,57926,1,0,0:0:0:0:
132,112,58109,6,0,P|137:63|134:7,1,99.0000030212403,2|0,0:0|0:0,0:0:0:0:
238,203,58475,1,8,0:0:0:0:
307,35,58658,2,0,P|304:84|309:133,1,99.0000030212403,2|0,0:0|0:0,0:0:0:0:
435,243,59024,2,0,P|437:193|432:144,1,99.0000030212403,2|8,0:0|0:0,0:0:0:0:
299,320,59389,1,0,0:0:0:0:
226,120,59572,5,0,0:0:0:0:
254,90,59664,1,0,0:0:0:0:
296,82,59755,1,0,0:0:0:0:
331,100,59847,1,0,0:0:0:0:
350,138,59938,1,8,0:0:0:0:
340,183,60030,1,0,0:0:0:0:
306,215,60121,1,2,0:0:0:0:
258,210,60213,1,0,0:0:0:0:
220,179,60304,5,0,0:0:0:0:
211,130,60395,1,0,0:0:0:0:
201,76,60487,1,2,0:0:0:0:
151,46,60578,1,0,0:0:0:0:
96,63,60670,1,8,0:0:0:0:
84,129,60761,1,0,0:0:0:0:
123,181,60853,1,0,0:0:0:0:
100,249,60944,1,0,0:0:0:0:
25,268,61036,6,0,B|149:255|104:335|233:312,1,198.000006042481,6|8,0:0|0:0,0:0:0:0:
354,277,61584,1,2,0:0:0:0:
171,187,61767,1,0,0:0:0:0:
241,384,61950,1,2,0:0:0:0:
316,200,62133,1,8,0:0:0:0:
99,251,62316,1,0,0:0:0:0:
360,319,62499,6,0,P|414:323|480:311,1,99.0000030212403,2|0,0:0|0:0,0:0:0:0:
270,384,62865,1,8,0:0:0:0:
330,172,63048,1,2,0:0:0:0:
384,360,63231,1,0,0:0:0:0:
280,162,63414,1,2,0:0:0:0:
218,384,63597,1,8,0:0:0:0:
443,246,63780,1,0,0:0:0:0:
179,199,63963,6,0,P|129:203|82:217,1,99.0000030212403,2|0,0:0|0:0,0:0:0:0:
261,78,64328,1,8,0:0:0:0:
321,258,64511,2,0,P|318:307|305:355,1,99.0000030212403,2|0,0:0|0:0,0:0:0:0:
394,138,64877,2,0,P|391:88|378:40,1,99.0000030212403,2|8,0:0|0:0,0:0:0:0:
471,283,65243,1,0,0:0:0:0:
273,190,65426,5,2,0:0:0:0:
489,148,65609,1,0,0:0:0:0:
268,241,65792,1,8,0:0:0:0:
378,40,65975,1,2,0:0:0:0:
360,300,66158,1,0,0:0:0:0:
333,329,66249,1,0,0:0:0:0:
293,336,66341,1,2,0:0:0:0:
259,315,66432,1,0,0:0:0:0:
247,276,66524,1,8,0:0:0:0:
263,234,66615,1,0,0:0:0:0:
282,187,66706,1,0,0:0:0:0:
266,135,66798,1,0,0:0:0:0:
212,108,66889,6,0,P|112:110|5:155,1,198.000006042481,6|8,0:0|0:0,0:0:0:0:
104,24,67438,1,2,0:0:0:0:
117,211,67621,1,0,0:0:0:0:
0,52,67804,1,2,0:0:0:0:
164,187,67987,1,8,0:0:0:0:
148,0,68170,1,0,0:0:0:0:
30,223,68353,6,0,P|33:272|46:320,1,99.0000030212403,2|0,0:0|0:0,0:0:0:0:
86,116,68719,1,8,0:0:0:0:
204,274,68902,1,2,0:0:0:0:
43,144,69084,1,0,0:0:0:0:
66,347,69267,1,2,0:0:0:0:
211,166,69450,1,8,0:0:0:0:
0,248,69633,1,0,0:0:0:0:
265,329,69816,6,0,P|314:326|362:313,1,99.0000030212403,2|0,0:0|0:0,0:0:0:0:
174,237,70182,1,8,0:0:0:0:
383,160,70365,2,0,P|334:157|286:144,1,99.0000030212403,2|0,0:0|0:0,0:0:0:0:
197,74,70731,1,2,0:0:0:0:
262,248,70914,1,8,0:0:0:0:
332,37,71097,1,0,0:0:0:0:
161,162,71280,5,2,0:0:0:0:
121,169,71371,1,0,0:0:0:0:
82,154,71463,1,0,0:0:0:0:
63,119,71554,1,0,0:0:0:0:
71,80,71645,1,8,0:0:0:0:
108,55,71737,1,0,0:0:0:0:
153,63,71828,1,2,0:0:0:0:
166,105,71920,1,0,0:0:0:0:
141,142,72011,5,0,0:0:0:0:
111,182,72103,1,0,0:0:0:0:
118,239,72194,1,2,0:0:0:0:
164,275,72286,1,0,0:0:0:0:
225,264,72377,1,8,0:0:0:0:
249,204,72469,1,0,0:0:0:0:
274,141,72560,1,0,0:0:0:0:
346,131,72652,1,0,0:0:0:0:
401,184,72743,6,0,P|409:228|401:288,1,80.9999975280763,2|0,0:0|0:0,0:0:0:0:
373,333,73109,1,0,0:0:0:0:
325,205,73292,1,0,0:0:0:0:
260,287,73475,2,0,P|252:331|260:391,1,80.9999975280763,0|0,0:0|0:0,0:0:0:0:
200,211,73841,1,0,0:0:0:0:
154,330,74024,1,0,0:0:0:0:
102,196,74206,6,0,P|100:174|102:149,3,45,2|0|0|0,0:0|0:0|0:0|0:0,0:0:0:0:
127,61,74572,2,0,P|147:70|165:83,3,45,2|0|0|0,0:0|0:0|0:0|0:0,0:0:0:0:
231,151,74938,2,0,P|212:163|192:173,3,45,2|0|0|0,0:0|0:0|0:0|0:0,0:0:0:0:
310,63,75304,1,2,0:0:0:0:
304,96,75395,1,0,0:0:0:0:
307,129,75487,1,0,0:0:0:0:
317,161,75578,1,0,0:0:0:0:
334,190,75670,5,8,0:0:0:0:
127,61,76036,5,8,0:0:0:0:
154,330,76402,5,10,0:0:0:0:
