osu file format v14

[General]
AudioFilename: audio.mp3
AudioLeadIn: 0
PreviewTime: 47180
Countdown: 0
SampleSet: Soft
StackLeniency: 0.7
Mode: 3
LetterboxInBreaks: 0
SpecialStyle: 0
WidescreenStoryboard: 1

[Editor]
DistanceSpacing: 1.3
BeatDivisor: 4
GridSize: 32
TimelineZoom: 3.300004

[Metadata]
Title:Heart Shaker (Cut Ver.)
TitleUnicode:Heart Shaker (Cut Ver.)
Artist:TWICE
ArtistUnicode:트와이스
Creator:fvrex
Version:Hytex's Hard
Source:
Tags:xtrippin hytex temmeh8274 romanianalex kpop k-pop pop jyp entertainment 엔터테인먼트 ent korean once christmas xmas Merry & Happy #twice2 sana jihyo dahyun nayeon jeongyeon chaeyoung momo mina tzuyu 나연 정연 모모 사나 지효 미나 다현 채영 쯔위 하트 셰이커
BeatmapID:3794377
BeatmapSetID:1847110

[Difficulty]
HPDrainRate:7.5
CircleSize:4
OverallDifficulty:7.5
ApproachRate:5
SliderMultiplier:1.4
SliderTickRate:1

[Events]
//Background and Video events
0,0,"bg.jpg",0,0
//Break Periods
//Storyboard Layer 0 (Background)
//Storyboard Layer 1 (Fail)
//Storyboard Layer 2 (Pass)
//Storyboard Layer 3 (Foreground)
//Storyboard Layer 4 (Overlay)
//Storyboard Sound Samples
Sample,143712,0,"Cymatics - Snare 3 - B.wav",50
Sample,143894,0,"Cymatics - Snare 3 - B.wav",50
Sample,144443,0,"Cymatics - Snare 3 - B.wav",50
Sample,144992,0,"Cymatics - Snare 3 - B.wav",50
Sample,145175,0,"Cymatics - Snare 3 - B.wav",50
Sample,145907,0,"Cymatics - Snare 3 - B.wav",50

[TimingPoints]
1449,365.853658536585,4,2,1,70,1,0
48278,-100,4,2,1,70,0,1
71692,-100,4,2,1,70,0,0

[HitObjects]
64,192,1449,128,2,1814:0:0:0:0:
448,192,1449,1,0,0:0:0:0:
192,192,1631,1,0,0:0:0:0:
448,192,1814,1,0,0:0:0:0:
192,192,1997,128,2,2363:0:0:0:0:
320,192,1997,1,0,0:0:0:0:
448,192,2180,1,0,0:0:0:0:
64,192,2363,1,0,0:0:0:0:
320,192,2546,128,2,2729:0:0:0:0:
448,192,2546,1,0,0:0:0:0:
192,192,2729,1,0,0:0:0:0:
64,192,2912,1,2,0:0:0:0:
448,192,2912,128,0,3278:0:0:0:0:
320,192,3095,1,0,0:0:0:0:
64,192,3278,1,0,0:0:0:0:
192,192,3461,1,2,0:0:0:0:
320,192,3461,128,0,3827:0:0:0:0:
64,192,3644,1,0,0:0:0:0:
448,192,3827,1,0,0:0:0:0:
64,192,4009,1,8,0:0:0:0:
192,192,4009,1,0,0:0:0:0:
192,192,4192,1,2,0:0:0:0:
320,192,4192,1,0,0:0:0:0:
320,192,4375,128,2,4467:0:0:0:0:
448,192,4375,1,0,0:0:0:0:
320,192,4558,128,0,4650:0:0:0:0:
320,192,4741,128,0,4924:0:0:0:0:
64,192,4924,128,2,5290:0:0:0:0:
448,192,4924,1,0,0:0:0:0:
192,192,5107,128,0,5473:0:0:0:0:
320,192,5473,128,2,5564:0:0:0:0:
448,192,5473,1,0,0:0:0:0:
320,192,5656,128,0,5747:0:0:0:0:
320,192,5839,128,2,6022:0:0:0:0:
448,192,5839,1,0,0:0:0:0:
192,192,6022,128,0,6388:0:0:0:0:
320,192,6205,128,0,6388:0:0:0:0:
64,192,6388,1,2,0:0:0:0:
448,192,6388,1,0,0:0:0:0:
448,192,6570,128,0,6936:0:0:0:0:
320,192,6753,1,0,0:0:0:0:
64,192,6936,1,2,0:0:0:0:
192,192,6936,128,0,7302:0:0:0:0:
320,192,7119,1,2,0:0:0:0:
448,192,7119,1,0,0:0:0:0:
64,192,7302,128,2,7668:0:0:0:0:
448,192,7302,1,0,0:0:0:0:
192,192,7485,1,0,0:0:0:0:
448,192,7668,1,0,0:0:0:0:
192,192,7851,128,2,8217:0:0:0:0:
320,192,7851,1,0,0:0:0:0:
448,192,8034,1,0,0:0:0:0:
64,192,8217,1,0,0:0:0:0:
192,192,8400,1,2,0:0:0:0:
320,192,8400,128,0,8583:0:0:0:0:
64,192,8583,1,0,0:0:0:0:
320,192,8766,1,2,0:0:0:0:
448,192,8766,128,0,9131:0:0:0:0:
64,192,8948,1,0,0:0:0:0:
192,192,9131,1,0,0:0:0:0:
64,192,9314,128,2,9680:0:0:0:0:
448,192,9314,1,0,0:0:0:0:
320,192,9497,1,0,0:0:0:0:
192,192,9680,1,0,0:0:0:0:
320,192,9863,1,2,0:0:0:0:
448,192,9863,1,0,0:0:0:0:
192,192,10046,1,0,0:0:0:0:
320,192,10046,1,0,0:0:0:0:
64,192,10229,1,2,0:0:0:0:
192,192,10229,1,0,0:0:0:0:
448,192,10320,1,0,0:0:0:0:
64,192,10412,1,2,0:0:0:0:
320,192,10503,1,0,0:0:0:0:
192,192,10595,1,0,0:0:0:0:
448,192,10686,1,0,0:0:0:0:
192,192,10778,1,2,0:0:0:0:
64,192,10869,1,0,0:0:0:0:
320,192,10961,1,2,0:0:0:0:
192,192,11052,1,0,0:0:0:0:
320,192,11144,1,2,0:0:0:0:
64,192,11235,1,0,0:0:0:0:
448,192,11327,1,0,0:0:0:0:
192,192,11418,1,0,0:0:0:0:
448,192,11509,1,2,0:0:0:0:
320,192,11601,1,0,0:0:0:0:
64,192,11692,1,2,0:0:0:0:
192,192,11692,128,0,11784:0:0:0:0:
192,192,11875,128,0,12241:0:0:0:0:
320,192,12058,128,0,12241:0:0:0:0:
448,192,12424,128,0,12790:0:0:0:0:
320,192,12607,128,0,12790:0:0:0:0:
64,192,12790,128,0,13156:0:0:0:0:
192,192,13156,1,4,0:0:0:0:
320,192,13156,128,2,13522:0:0:0:0:
448,192,13156,1,0,0:0:0:0:
448,192,13339,128,0,13522:0:0:0:0:
64,192,13522,1,8,0:0:0:0:
192,192,13522,1,0,0:0:0:0:
192,192,13705,128,2,13888:0:0:0:0:
320,192,13705,1,0,0:0:0:0:
320,192,13888,128,0,14253:0:0:0:0:
64,192,14070,1,2,0:0:0:0:
192,192,14070,1,0,0:0:0:0:
64,192,14253,1,8,0:0:0:0:
448,192,14253,1,0,0:0:0:0:
448,192,14436,1,0,0:0:0:0:
64,192,14619,1,2,0:0:0:0:
192,192,14619,1,0,0:0:0:0:
448,192,14802,128,0,14985:0:0:0:0:
192,192,14985,1,8,0:0:0:0:
320,192,14985,128,0,15168:0:0:0:0:
64,192,15168,1,2,0:0:0:0:
192,192,15168,1,0,0:0:0:0:
320,192,15351,128,0,15534:0:0:0:0:
64,192,15534,1,2,0:0:0:0:
192,192,15534,128,0,15717:0:0:0:0:
64,192,15717,1,8,0:0:0:0:
448,192,15717,128,0,16083:0:0:0:0:
320,192,15900,128,0,16083:0:0:0:0:
64,192,16083,128,2,16448:0:0:0:0:
448,192,16266,128,0,16448:0:0:0:0:
192,192,16448,1,8,0:0:0:0:
320,192,16448,1,0,0:0:0:0:
64,192,16631,1,2,0:0:0:0:
192,192,16631,128,0,16814:0:0:0:0:
320,192,16814,128,0,17180:0:0:0:0:
64,192,16997,1,2,0:0:0:0:
192,192,16997,1,0,0:0:0:0:
64,192,17180,1,8,0:0:0:0:
448,192,17180,1,0,0:0:0:0:
448,192,17363,1,0,0:0:0:0:
64,192,17546,1,2,0:0:0:0:
192,192,17546,1,0,0:0:0:0:
320,192,17729,128,0,17820:0:0:0:0:
192,192,17912,1,8,0:0:0:0:
320,192,17912,128,0,18278:0:0:0:0:
64,192,18095,1,2,0:0:0:0:
192,192,18095,128,0,18278:0:0:0:0:
64,192,18278,128,0,18461:0:0:0:0:
320,192,18461,1,2,0:0:0:0:
448,192,18461,128,0,18644:0:0:0:0:
192,192,18644,128,8,19009:0:0:0:0:
320,192,18644,1,0,0:0:0:0:
320,192,18827,128,0,19009:0:0:0:0:
64,192,19009,1,4,0:0:0:0:
448,192,19009,128,2,19375:0:0:0:0:
192,192,19192,128,0,19375:0:0:0:0:
64,192,19375,1,8,0:0:0:0:
320,192,19375,1,0,0:0:0:0:
64,192,19558,128,2,19924:0:0:0:0:
192,192,19558,1,0,0:0:0:0:
320,192,19741,1,0,0:0:0:0:
320,192,19924,1,2,0:0:0:0:
448,192,19924,1,0,0:0:0:0:
192,192,20107,1,8,0:0:0:0:
448,192,20107,1,0,0:0:0:0:
192,192,20290,1,0,0:0:0:0:
320,192,20473,128,2,20839:0:0:0:0:
448,192,20473,1,0,0:0:0:0:
192,192,20656,128,0,20839:0:0:0:0:
64,192,20839,1,8,0:0:0:0:
448,192,20839,1,0,0:0:0:0:
64,192,21022,1,2,0:0:0:0:
192,192,21022,128,0,21388:0:0:0:0:
320,192,21205,1,0,0:0:0:0:
320,192,21388,128,2,21570:0:0:0:0:
448,192,21388,1,0,0:0:0:0:
64,192,21570,1,8,0:0:0:0:
448,192,21570,1,0,0:0:0:0:
320,192,21753,128,0,21936:0:0:0:0:
64,192,21936,1,2,0:0:0:0:
448,192,21936,128,0,22302:0:0:0:0:
192,192,22119,128,0,22302:0:0:0:0:
64,192,22302,1,8,0:0:0:0:
320,192,22302,1,0,0:0:0:0:
320,192,22485,128,2,22851:0:0:0:0:
448,192,22485,128,0,22668:0:0:0:0:
64,192,22668,1,0,0:0:0:0:
64,192,22851,1,2,0:0:0:0:
192,192,22851,1,0,0:0:0:0:
320,192,23034,128,8,23400:0:0:0:0:
448,192,23034,1,0,0:0:0:0:
64,192,23217,128,0,23400:0:0:0:0:
448,192,23400,1,2,0:0:0:0:
64,192,23583,128,0,23766:0:0:0:0:
192,192,23583,128,0,23766:0:0:0:0:
320,192,23766,1,8,0:0:0:0:
448,192,23766,128,0,23948:0:0:0:0:
64,192,23948,1,2,0:0:0:0:
192,192,23948,1,0,0:0:0:0:
448,192,24131,128,0,24314:0:0:0:0:
192,192,24314,128,8,24406:0:0:0:0:
320,192,24314,1,0,0:0:0:0:
192,192,24497,128,8,24589:0:0:0:0:
448,192,24497,1,0,0:0:0:0:
64,192,24680,1,8,0:0:0:0:
320,192,24680,128,0,24863:0:0:0:0:
64,192,24863,128,4,25046:0:0:0:0:
192,192,24863,1,2,0:0:0:0:
448,192,24863,128,0,25046:0:0:0:0:
192,192,25229,128,8,25412:0:0:0:0:
320,192,25229,1,0,0:0:0:0:
320,192,25412,128,2,25778:0:0:0:0:
448,192,25412,1,0,0:0:0:0:
64,192,25595,1,0,0:0:0:0:
64,192,25778,1,2,0:0:0:0:
192,192,25778,1,0,0:0:0:0:
192,192,25961,128,8,26144:0:0:0:0:
448,192,25961,1,0,0:0:0:0:
320,192,26144,128,0,26327:0:0:0:0:
192,192,26327,128,2,26692:0:0:0:0:
64,192,26327,1,0,0:0:0:0:
320,192,26509,128,0,26692:0:0:0:0:
64,192,26692,1,8,0:0:0:0:
448,192,26692,128,0,26875:0:0:0:0:
64,192,26875,1,2,0:0:0:0:
192,192,26875,128,0,27058:0:0:0:0:
448,192,27058,1,0,0:0:0:0:
64,192,27241,128,2,27424:0:0:0:0:
192,192,27241,1,0,0:0:0:0:
192,192,27424,1,8,0:0:0:0:
320,192,27424,128,0,27516:0:0:0:0:
320,192,27607,128,0,27790:0:0:0:0:
448,192,27790,1,2,0:0:0:0:
64,192,27790,128,0,27973:0:0:0:0:
320,192,27973,128,0,28156:0:0:0:0:
64,192,28156,1,8,0:0:0:0:
192,192,28156,128,0,28339:0:0:0:0:
320,192,28339,128,2,28705:0:0:0:0:
448,192,28339,1,0,0:0:0:0:
64,192,28522,1,0,0:0:0:0:
64,192,28705,1,2,0:0:0:0:
192,192,28705,128,0,28796:0:0:0:0:
192,192,28888,1,8,0:0:0:0:
320,192,28888,128,0,28979:0:0:0:0:
64,192,29070,128,0,29253:0:0:0:0:
192,192,29253,128,2,29619:0:0:0:0:
448,192,29253,1,0,0:0:0:0:
320,192,29436,128,0,29619:0:0:0:0:
64,192,29619,1,8,0:0:0:0:
448,192,29619,128,0,29802:0:0:0:0:
64,192,29802,1,2,0:0:0:0:
192,192,29802,128,0,29985:0:0:0:0:
448,192,29985,1,0,0:0:0:0:
64,192,30168,128,2,30351:0:0:0:0:
192,192,30168,1,0,0:0:0:0:
320,192,30351,1,8,0:0:0:0:
448,192,30351,1,0,0:0:0:0:
64,192,30717,1,4,0:0:0:0:
320,192,30717,1,2,0:0:0:0:
448,192,30717,128,0,31083:0:0:0:0:
192,192,30900,128,0,31083:0:0:0:0:
64,192,31083,1,8,0:0:0:0:
320,192,31083,1,0,0:0:0:0:
64,192,31266,128,2,31631:0:0:0:0:
192,192,31266,1,0,0:0:0:0:
320,192,31448,1,0,0:0:0:0:
320,192,31631,1,2,0:0:0:0:
448,192,31631,1,0,0:0:0:0:
192,192,31814,1,8,0:0:0:0:
448,192,31814,1,0,0:0:0:0:
192,192,31997,1,0,0:0:0:0:
320,192,32180,128,2,32546:0:0:0:0:
448,192,32180,1,0,0:0:0:0:
192,192,32363,128,0,32546:0:0:0:0:
64,192,32546,1,8,0:0:0:0:
448,192,32546,1,0,0:0:0:0:
64,192,32729,1,2,0:0:0:0:
192,192,32729,128,0,33095:0:0:0:0:
320,192,32912,1,0,0:0:0:0:
320,192,33095,128,2,33278:0:0:0:0:
448,192,33095,1,0,0:0:0:0:
448,192,33278,1,0,0:0:0:0:
64,192,33278,128,8,33461:0:0:0:0:
320,192,33461,128,0,33644:0:0:0:0:
64,192,33644,1,2,0:0:0:0:
448,192,33644,1,0,0:0:0:0:
192,192,33735,1,0,0:0:0:0:
448,192,33827,1,0,0:0:0:0:
64,192,33918,1,0,0:0:0:0:
320,192,34009,1,8,0:0:0:0:
192,192,34101,1,0,0:0:0:0:
320,192,34192,1,2,0:0:0:0:
448,192,34284,1,0,0:0:0:0:
192,192,34375,1,0,0:0:0:0:
320,192,34467,1,0,0:0:0:0:
192,192,34558,1,2,0:0:0:0:
448,192,34650,1,0,0:0:0:0:
64,192,34741,1,8,0:0:0:0:
320,192,34833,1,0,0:0:0:0:
64,192,34924,1,0,0:0:0:0:
192,192,35016,1,0,0:0:0:0:
448,192,35107,1,2,0:0:0:0:
320,192,35198,1,0,0:0:0:0:
192,192,35290,1,0,0:0:0:0:
64,192,35381,1,0,0:0:0:0:
320,192,35473,1,8,0:0:0:0:
448,192,35564,1,0,0:0:0:0:
192,192,35656,1,2,0:0:0:0:
320,192,35747,1,0,0:0:0:0:
64,192,35839,1,0,0:0:0:0:
192,192,35930,1,0,0:0:0:0:
320,192,36022,1,2,0:0:0:0:
448,192,36113,1,0,0:0:0:0:
192,192,36205,1,8,0:0:0:0:
64,192,36296,1,0,0:0:0:0:
320,192,36388,1,0,0:0:0:0:
192,192,36479,1,0,0:0:0:0:
64,192,36570,1,4,0:0:0:0:
320,192,36570,1,2,0:0:0:0:
448,192,36570,1,0,0:0:0:0:
192,192,36753,128,0,36936:0:0:0:0:
320,192,36936,128,2,37119:0:0:0:0:
448,192,36936,1,0,0:0:0:0:
192,192,37119,128,0,37302:0:0:0:0:
64,192,37302,1,8,0:0:0:0:
448,192,37302,128,0,37668:0:0:0:0:
320,192,37485,128,0,37668:0:0:0:0:
64,192,37851,128,0,38034:0:0:0:0:
320,192,38034,128,2,38217:0:0:0:0:
448,192,38034,1,0,0:0:0:0:
192,192,38217,128,0,38400:0:0:0:0:
320,192,38400,1,2,0:0:0:0:
448,192,38400,1,0,0:0:0:0:
320,192,38583,1,0,0:0:0:0:
64,192,38766,1,8,0:0:0:0:
448,192,38766,128,0,38948:0:0:0:0:
192,192,38948,128,0,39131:0:0:0:0:
320,192,39131,128,0,39314:0:0:0:0:
64,192,39314,128,0,39497:0:0:0:0:
192,192,39497,1,2,0:0:0:0:
320,192,39497,1,0,0:0:0:0:
192,192,39863,128,2,40046:0:0:0:0:
320,192,39863,1,0,0:0:0:0:
64,192,40046,128,0,40229:0:0:0:0:
320,192,40229,128,8,40595:0:0:0:0:
448,192,40229,1,0,0:0:0:0:
64,192,40412,1,2,0:0:0:0:
192,192,40412,128,0,40778:0:0:0:0:
64,192,40778,128,0,40961:0:0:0:0:
320,192,40961,128,2,41144:0:0:0:0:
448,192,40961,1,0,0:0:0:0:
64,192,41144,128,0,41327:0:0:0:0:
320,192,41327,128,2,41509:0:0:0:0:
448,192,41327,1,0,0:0:0:0:
192,192,41509,128,0,41875:0:0:0:0:
64,192,41692,1,8,0:0:0:0:
448,192,41692,1,0,0:0:0:0:
320,192,41875,128,0,42058:0:0:0:0:
64,192,42058,128,0,42241:0:0:0:0:
192,192,42241,128,0,42424:0:0:0:0:
64,192,42424,1,2,0:0:0:0:
320,192,42424,128,0,42607:0:0:0:0:
448,192,42424,1,0,0:0:0:0:
192,192,42607,128,0,42790:0:0:0:0:
320,192,42790,128,2,42973:0:0:0:0:
448,192,42790,1,0,0:0:0:0:
64,192,42973,128,0,43156:0:0:0:0:
448,192,43156,1,8,0:0:0:0:
320,192,43156,128,0,43522:0:0:0:0:
192,192,43339,128,0,43705:0:0:0:0:
448,192,43522,1,0,0:0:0:0:
64,192,43705,128,0,43888:0:0:0:0:
320,192,43888,128,2,44070:0:0:0:0:
448,192,43888,1,0,0:0:0:0:
192,192,44070,128,0,44253:0:0:0:0:
448,192,44253,128,2,44436:0:0:0:0:
64,192,44253,1,0,0:0:0:0:
192,192,44436,128,0,44802:0:0:0:0:
64,192,44619,1,8,0:0:0:0:
320,192,44619,128,0,44985:0:0:0:0:
448,192,44985,1,0,0:0:0:0:
64,192,45168,1,0,0:0:0:0:
192,192,45351,128,2,45534:0:0:0:0:
448,192,45351,1,0,0:0:0:0:
320,192,45534,128,0,45900:0:0:0:0:
192,192,45717,1,2,0:0:0:0:
448,192,45717,1,0,0:0:0:0:
64,192,45900,128,0,46083:0:0:0:0:
320,192,46083,128,8,46266:0:0:0:0:
448,192,46083,1,0,0:0:0:0:
64,192,46266,1,2,0:0:0:0:
192,192,46266,128,0,46448:0:0:0:0:
64,192,46448,128,0,46631:0:0:0:0:
320,192,46631,128,0,46997:0:0:0:0:
448,192,46814,128,0,46997:0:0:0:0:
320,192,47180,128,0,47546:0:0:0:0:
192,192,47546,128,0,47638:0:0:0:0:
192,192,47729,128,0,47912:0:0:0:0:
64,192,48095,128,0,48461:0:0:0:0:
192,192,48278,1,4,0:0:0:0:
320,192,48278,128,2,48644:0:0:0:0:
448,192,48278,1,0,0:0:0:0:
64,192,48644,1,8,0:0:0:0:
448,192,48644,1,0,0:0:0:0:
64,192,48827,128,2,49009:0:0:0:0:
192,192,48827,1,0,0:0:0:0:
192,192,49009,128,0,49284:0:0:0:0:
320,192,49192,128,2,49375:0:0:0:0:
448,192,49192,1,0,0:0:0:0:
64,192,49284,128,0,49375:0:0:0:0:
192,192,49375,1,8,0:0:0:0:
448,192,49375,128,0,49558:0:0:0:0:
64,192,49558,128,0,49924:0:0:0:0:
320,192,49741,128,2,50107:0:0:0:0:
448,192,49741,1,0,0:0:0:0:
192,192,49924,1,0,0:0:0:0:
64,192,50107,1,8,0:0:0:0:
448,192,50107,1,0,0:0:0:0:
64,192,50290,128,2,50381:0:0:0:0:
192,192,50290,1,0,0:0:0:0:
320,192,50473,128,0,50564:0:0:0:0:
192,192,50656,1,2,0:0:0:0:
320,192,50656,128,0,50839:0:0:0:0:
448,192,50747,128,0,50839:0:0:0:0:
64,192,50839,1,8,0:0:0:0:
192,192,50839,128,0,50930:0:0:0:0:
192,192,51022,128,0,51205:0:0:0:0:
320,192,51113,128,0,51205:0:0:0:0:
64,192,51205,128,2,51296:0:0:0:0:
448,192,51205,128,0,51479:0:0:0:0:
192,192,51296,128,0,51388:0:0:0:0:
320,192,51388,128,0,51570:0:0:0:0:
64,192,51570,1,8,0:0:0:0:
448,192,51570,1,0,0:0:0:0:
320,192,51753,128,2,51936:0:0:0:0:
448,192,51753,1,0,0:0:0:0:
64,192,51936,1,0,0:0:0:0:
320,192,52119,128,2,52394:0:0:0:0:
448,192,52119,1,0,0:0:0:0:
192,192,52211,128,0,52394:0:0:0:0:
64,192,52302,1,8,0:0:0:0:
448,192,52302,128,0,52394:0:0:0:0:
320,192,52485,128,0,52668:0:0:0:0:
192,192,52577,128,0,52759:0:0:0:0:
64,192,52668,128,2,52851:0:0:0:0:
448,192,52668,1,0,0:0:0:0:
320,192,52851,1,0,0:0:0:0:
320,192,53034,1,8,0:0:0:0:
448,192,53034,1,0,0:0:0:0:
64,192,53217,1,2,0:0:0:0:
448,192,53217,1,0,0:0:0:0:
64,192,53400,1,0,0:0:0:0:
192,192,53400,1,0,0:0:0:0:
320,192,53491,1,0,0:0:0:0:
192,192,53583,128,2,53766:0:0:0:0:
64,192,53766,1,8,0:0:0:0:
448,192,53766,128,0,53857:0:0:0:0:
320,192,53948,128,0,54040:0:0:0:0:
64,192,54131,128,4,54589:0:0:0:0:
192,192,54131,128,2,54314:0:0:0:0:
448,192,54131,1,0,0:0:0:0:
192,192,54497,128,8,54589:0:0:0:0:
448,192,54497,1,0,0:0:0:0:
320,192,54680,128,2,54863:0:0:0:0:
448,192,54680,128,0,55229:0:0:0:0:
64,192,55046,128,2,55412:0:0:0:0:
192,192,55046,1,0,0:0:0:0:
192,192,55229,1,8,0:0:0:0:
320,192,55229,1,0,0:0:0:0:
320,192,55412,128,0,55595:0:0:0:0:
64,192,55595,1,2,0:0:0:0:
448,192,55595,128,0,55961:0:0:0:0:
192,192,55778,128,0,55961:0:0:0:0:
64,192,55961,1,8,0:0:0:0:
320,192,55961,128,0,56327:0:0:0:0:
448,192,56144,128,2,56327:0:0:0:0:
64,192,56327,128,0,56509:0:0:0:0:
448,192,56418,1,0,0:0:0:0:
192,192,56509,128,2,56692:0:0:0:0:
320,192,56509,1,0,0:0:0:0:
64,192,56692,1,8,0:0:0:0:
448,192,56692,128,0,56784:0:0:0:0:
320,192,56875,128,0,56967:0:0:0:0:
64,192,57058,128,2,57516:0:0:0:0:
192,192,57058,128,0,57241:0:0:0:0:
448,192,57058,1,0,0:0:0:0:
192,192,57424,128,8,57516:0:0:0:0:
448,192,57424,1,0,0:0:0:0:
320,192,57607,128,2,57790:0:0:0:0:
448,192,57607,128,0,58156:0:0:0:0:
64,192,57973,128,2,58339:0:0:0:0:
192,192,57973,1,0,0:0:0:0:
192,192,58156,1,8,0:0:0:0:
320,192,58156,128,0,58339:0:0:0:0:
448,192,58339,1,0,0:0:0:0:
64,192,58522,1,2,0:0:0:0:
192,192,58522,1,0,0:0:0:0:
448,192,58613,1,0,0:0:0:0:
192,192,58705,1,0,0:0:0:0:
320,192,58796,1,0,0:0:0:0:
64,192,58888,1,8,0:0:0:0:
448,192,58979,1,0,0:0:0:0:
64,192,59070,1,2,0:0:0:0:
192,192,59162,1,0,0:0:0:0:
320,192,59253,1,0,0:0:0:0:
64,192,59345,1,0,0:0:0:0:
320,192,59436,1,2,0:0:0:0:
192,192,59528,1,0,0:0:0:0:
448,192,59619,1,8,0:0:0:0:
64,192,59711,1,0,0:0:0:0:
448,192,59802,1,0,0:0:0:0:
192,192,59894,1,0,0:0:0:0:
64,192,59985,1,4,0:0:0:0:
320,192,59985,128,2,60351:0:0:0:0:
448,192,59985,1,0,0:0:0:0:
64,192,60351,1,8,0:0:0:0:
448,192,60351,1,0,0:0:0:0:
64,192,60534,128,2,60717:0:0:0:0:
192,192,60534,1,0,0:0:0:0:
192,192,60717,128,0,60991:0:0:0:0:
320,192,60900,128,2,61083:0:0:0:0:
448,192,60900,1,0,0:0:0:0:
64,192,60991,128,0,61083:0:0:0:0:
192,192,61083,1,8,0:0:0:0:
448,192,61083,128,0,61266:0:0:0:0:
64,192,61266,128,0,61631:0:0:0:0:
320,192,61448,128,2,61814:0:0:0:0:
448,192,61448,1,0,0:0:0:0:
192,192,61631,1,0,0:0:0:0:
64,192,61814,1,8,0:0:0:0:
448,192,61814,1,0,0:0:0:0:
64,192,61997,128,2,62089:0:0:0:0:
192,192,61997,1,0,0:0:0:0:
320,192,62180,128,0,62272:0:0:0:0:
320,192,62363,128,2,62546:0:0:0:0:
448,192,62363,1,0,0:0:0:0:
64,192,62546,1,8,0:0:0:0:
192,192,62546,128,0,62638:0:0:0:0:
448,192,62638,1,0,0:0:0:0:
192,192,62729,128,0,62912:0:0:0:0:
64,192,62912,128,2,63003:0:0:0:0:
448,192,62912,128,0,63186:0:0:0:0:
192,192,63003,128,0,63095:0:0:0:0:
320,192,63095,128,0,63278:0:0:0:0:
64,192,63278,128,8,63461:0:0:0:0:
448,192,63278,1,0,0:0:0:0:
320,192,63461,128,2,63644:0:0:0:0:
448,192,63461,1,0,0:0:0:0:
64,192,63644,1,0,0:0:0:0:
320,192,63827,128,2,64101:0:0:0:0:
448,192,63827,1,0,0:0:0:0:
192,192,63918,128,0,64101:0:0:0:0:
64,192,64009,1,8,0:0:0:0:
448,192,64009,128,0,64101:0:0:0:0:
320,192,64192,128,0,64375:0:0:0:0:
192,192,64284,128,0,64467:0:0:0:0:
64,192,64375,128,2,64558:0:0:0:0:
448,192,64375,1,0,0:0:0:0:
320,192,64558,1,0,0:0:0:0:
64,192,64741,1,8,0:0:0:0:
448,192,64741,1,0,0:0:0:0:
64,192,64924,1,2,0:0:0:0:
192,192,64924,1,0,0:0:0:0:
192,192,65107,128,0,65290:0:0:0:0:
448,192,65290,1,2,0:0:0:0:
64,192,65290,128,0,65381:0:0:0:0:
320,192,65473,1,8,0:0:0:0:
64,192,65473,128,0,65564:0:0:0:0:
64,192,65656,128,0,65747:0:0:0:0:
448,192,65839,1,4,0:0:0:0:
192,192,65839,128,2,66022:0:0:0:0:
64,192,65839,128,0,66205:0:0:0:0:
192,192,66205,1,8,0:0:0:0:
320,192,66205,128,0,66570:0:0:0:0:
448,192,66388,1,2,0:0:0:0:
64,192,66388,1,0,0:0:0:0:
64,192,66570,128,0,66753:0:0:0:0:
320,192,66753,1,2,0:0:0:0:
448,192,66753,128,0,66845:0:0:0:0:
64,192,66936,1,8,0:0:0:0:
448,192,66936,128,0,67028:0:0:0:0:
448,192,67119,128,0,67211:0:0:0:0:
320,192,67302,128,2,67485:0:0:0:0:
448,192,67302,128,0,67485:0:0:0:0:
64,192,67485,1,0,0:0:0:0:
64,192,67668,1,8,0:0:0:0:
192,192,67668,128,0,68034:0:0:0:0:
320,192,67851,128,2,68034:0:0:0:0:
448,192,67851,1,0,0:0:0:0:
64,192,68034,128,0,68217:0:0:0:0:
448,192,68125,1,0,0:0:0:0:
320,192,68217,1,0,0:0:0:0:
192,192,68217,1,2,0:0:0:0:
64,192,68308,1,0,0:0:0:0:
320,192,68400,1,8,0:0:0:0:
448,192,68400,128,0,68583:0:0:0:0:
192,192,68583,128,0,68948:0:0:0:0:
320,192,68766,128,2,68948:0:0:0:0:
448,192,68766,1,0,0:0:0:0:
64,192,68948,1,0,0:0:0:0:
320,192,69131,1,8,0:0:0:0:
448,192,69131,128,0,69314:0:0:0:0:
64,192,69314,1,2,0:0:0:0:
192,192,69314,128,0,69680:0:0:0:0:
448,192,69497,1,0,0:0:0:0:
448,192,69680,1,0,0:0:0:0:
320,192,69680,1,2,0:0:0:0:
64,192,69863,1,8,0:0:0:0:
192,192,69863,128,0,70046:0:0:0:0:
320,192,70046,128,0,70412:0:0:0:0:
64,192,70229,1,2,0:0:0:0:
448,192,70229,128,0,70412:0:0:0:0:
64,192,70412,1,0,0:0:0:0:
320,192,70595,128,8,70778:0:0:0:0:
448,192,70595,1,0,0:0:0:0:
64,192,70778,1,2,0:0:0:0:
192,192,70778,128,0,70961:0:0:0:0:
448,192,70961,128,0,71144:0:0:0:0:
192,192,71144,1,0,0:0:0:0:
64,192,71144,128,2,71327:0:0:0:0:
448,192,71327,1,8,0:0:0:0:
320,192,71327,128,0,71692:0:0:0:0:
192,192,71509,1,0,0:0:0:0:
64,192,71692,128,4,72058:0:0:0:0:
192,192,71692,128,2,71875:0:0:0:0:
448,192,71692,1,0,0:0:0:0:
320,192,72058,1,8,0:0:0:0:
448,192,72058,1,0,0:0:0:0:
192,192,72241,128,2,72607:0:0:0:0:
320,192,72241,128,0,72424:0:0:0:0:
64,192,72424,1,0,0:0:0:0:
320,192,72607,1,2,0:0:0:0:
448,192,72607,1,0,0:0:0:0:
64,192,72790,128,8,73156:0:0:0:0:
320,192,72790,128,0,72973:0:0:0:0:
320,192,73156,1,2,0:0:0:0:
448,192,73156,128,0,73522:0:0:0:0:
192,192,73339,128,0,73705:0:0:0:0:
320,192,73522,1,0,0:0:0:0:
64,192,73522,128,8,73705:0:0:0:0:
320,192,73705,128,2,74070:0:0:0:0:
448,192,73705,128,0,73888:0:0:0:0:
64,192,73888,128,0,74070:0:0:0:0:
192,192,74070,1,2,0:0:0:0:
448,192,74070,1,0,0:0:0:0:
64,192,74253,128,8,74436:0:0:0:0:
192,192,74253,1,0,0:0:0:0:
320,192,74436,1,0,0:0:0:0:
64,192,74619,1,2,0:0:0:0:
448,192,74619,128,0,74985:0:0:0:0:
64,192,74985,128,8,75168:0:0:0:0:
192,192,74985,128,0,75168:0:0:0:0:
320,192,75168,1,2,0:0:0:0:
448,192,75168,1,0,0:0:0:0:
64,192,75351,128,0,75534:0:0:0:0:
192,192,75351,128,0,75717:0:0:0:0:
320,192,75534,1,2,0:0:0:0:
448,192,75534,1,0,0:0:0:0:
64,192,75717,128,8,75900:0:0:0:0:
448,192,75717,1,0,0:0:0:0:
192,192,75900,1,0,0:0:0:0:
320,192,76083,1,2,0:0:0:0:
448,192,76083,128,0,76448:0:0:0:0:
64,192,76266,1,0,0:0:0:0:
64,192,76448,128,8,76631:0:0:0:0:
192,192,76448,128,0,76631:0:0:0:0:
320,192,76631,1,2,0:0:0:0:
448,192,76631,1,0,0:0:0:0:
64,192,76814,128,0,76997:0:0:0:0:
192,192,76814,128,0,77180:0:0:0:0:
320,192,76997,1,2,0:0:0:0:
448,192,76997,1,0,0:0:0:0:
64,192,77180,1,8,0:0:0:0:
448,192,77180,1,0,0:0:0:0:
320,192,77363,1,0,0:0:0:0:
64,192,77546,128,4,77912:0:0:0:0:
192,192,77546,128,2,77729:0:0:0:0:
448,192,77546,1,0,0:0:0:0:
320,192,77912,1,8,0:0:0:0:
448,192,77912,1,0,0:0:0:0:
192,192,78095,128,2,78461:0:0:0:0:
320,192,78095,128,0,78278:0:0:0:0:
64,192,78278,1,0,0:0:0:0:
320,192,78461,1,2,0:0:0:0:
448,192,78461,1,0,0:0:0:0:
64,192,78644,128,8,79009:0:0:0:0:
320,192,78644,128,0,78827:0:0:0:0:
320,192,79009,1,2,0:0:0:0:
448,192,79009,128,0,79375:0:0:0:0:
192,192,79192,128,0,79558:0:0:0:0:
64,192,79375,1,8,0:0:0:0:
320,192,79375,1,0,0:0:0:0:
320,192,79558,128,2,79924:0:0:0:0:
448,192,79558,1,0,0:0:0:0:
64,192,79741,128,0,79924:0:0:0:0:
192,192,79924,1,2,0:0:0:0:
448,192,79924,128,0,80107:0:0:0:0:
64,192,80107,128,8,80290:0:0:0:0:
192,192,80107,1,0,0:0:0:0:
448,192,80290,128,0,80656:0:0:0:0:
64,192,80473,1,2,0:0:0:0:
192,192,80473,128,0,80839:0:0:0:0:
320,192,80656,128,0,80839:0:0:0:0:
64,192,80839,1,8,0:0:0:0:
448,192,80839,1,0,0:0:0:0:
64,192,81022,128,2,81388:0:0:0:0:
192,192,81022,128,0,81205:0:0:0:0:
448,192,81205,1,0,0:0:0:0:
320,192,81388,1,2,0:0:0:0:
448,192,81388,1,0,0:0:0:0:
192,192,81570,128,8,81662:0:0:0:0:
320,192,81570,1,0,0:0:0:0:
192,192,81753,128,0,82119:0:0:0:0:
64,192,81936,1,2,0:0:0:0:
448,192,81936,128,0,82302:0:0:0:0:
320,192,82119,1,0,0:0:0:0:
64,192,82302,1,8,0:0:0:0:
192,192,82302,1,0,0:0:0:0:
64,192,82485,1,2,0:0:0:0:
448,192,82485,128,0,82668:0:0:0:0:
192,192,82668,128,0,82851:0:0:0:0:
320,192,82851,128,2,83034:0:0:0:0:
448,192,82851,1,0,0:0:0:0:
64,192,83034,128,8,83217:0:0:0:0:
448,192,83034,1,0,0:0:0:0:
320,192,83217,128,0,83583:0:0:0:0:
64,192,83400,128,0,83766:0:0:0:0:
